  0
SECTION
  2
HEADER
  9
$ACADVER
  1
AC1009
  9
$DWGCODEPAGE
  3
ansi_1252
  9
$INSBASE
 10
0.0
 20
0.0
 30
0.0
  9
$EXTMIN
 10
52.39740896844955
 20
-112.9920284845231
 30
0.0
  9
$EXTMAX
 10
706.9688238106787
 20
413.8231233731477
 30
0.0
  9
$LIMMIN
 10
0.0
 20
0.0
  9
$LIMMAX
 10
594.0
 20
420.0
  9
$ORTHOMODE
 70
     0
  9
$REGENMODE
 70
     1
  9
$FILLMODE
 70
     1
  9
$QTEXTMODE
 70
     0
  9
$MIRRTEXT
 70
     1
  9
$DRAGMODE
 70
     2
  9
$LTSCALE
 40
32.67
  9
$OSMODE
 70
   511
  9
$ATTMODE
 70
     1
  9
$TEXTSIZE
 40
0.2
  9
$TRACEWID
 40
0.05
  9
$TEXTSTYLE
  7
STANDARD
  9
$CLAYER
  8
0
  9
$CELTYPE
  6
BYBLOCK
  9
$CECOLOR
 62
   256
  9
$DIMSCALE
 40
1.0
  9
$DIMASZ
 40
5.0
  9
$DIMEXO
 40
1.5
  9
$DIMDLI
 40
1.0
  9
$DIMRND
 40
0.0
  9
$DIMDLE
 40
0.0
  9
$DIMEXE
 40
0.18
  9
$DIMTP
 40
0.0
  9
$DIMTM
 40
0.0
  9
$DIMTXT
 40
5.0
  9
$DIMCEN
 40
2.5
  9
$DIMTSZ
 40
0.0
  9
$DIMTOL
 70
     0
  9
$DIMLIM
 70
     0
  9
$DIMTIH
 70
     0
  9
$DIMTOH
 70
     0
  9
$DIMSE1
 70
     0
  9
$DIMSE2
 70
     0
  9
$DIMTAD
 70
     1
  9
$DIMZIN
 70
     8
  9
$DIMBLK
  1

  9
$DIMASO
 70
     1
  9
$DIMSHO
 70
     1
  9
$DIMPOST
  1

  9
$DIMAPOST
  1

  9
$DIMALT
 70
     1
  9
$DIMALTD
 70
     2
  9
$DIMALTF
 40
0.03937
  9
$DIMLFAC
 40
1.0
  9
$DIMTOFL
 70
     0
  9
$DIMTVP
 40
0.0
  9
$DIMTIX
 70
     0
  9
$DIMSOXD
 70
     0
  9
$DIMSAH
 70
     0
  9
$DIMBLK1
  1

  9
$DIMBLK2
  1

  9
$DIMSTYLE
  2
DUAL-DIM
  9
$DIMCLRD
 70
     0
  9
$DIMCLRE
 70
     0
  9
$DIMCLRT
 70
     5
  9
$DIMTFAC
 40
1.0
  9
$DIMGAP
 40
1.0
  9
$LUNITS
 70
     2
  9
$LUPREC
 70
     4
  9
$SKETCHINC
 40
0.1
  9
$FILLETRAD
 40
15.0
  9
$AUNITS
 70
     0
  9
$AUPREC
 70
     0
  9
$MENU
  1
.
  9
$ELEVATION
 40
0.0
  9
$PELEVATION
 40
0.0
  9
$THICKNESS
 40
0.0
  9
$LIMCHECK
 70
     0
  9
$CHAMFERA
 40
0.0
  9
$CHAMFERB
 40
0.0
  9
$SKPOLY
 70
     0
  9
$TDCREATE
 40
2457428.354677859
  9
$TDUPDATE
 40
2457438.450523437
  9
$TDINDWG
 40
0.0381002546
  9
$TDUSRTIMER
 40
2457438.40681154
  9
$USRTIMER
 70
     1
  9
$ANGBASE
 50
0.0
  9
$ANGDIR
 70
     0
  9
$PDMODE
 70
     3
  9
$PDSIZE
 40
0.3125
  9
$PLINEWID
 40
0.0
  9
$COORDS
 70
     2
  9
$SPLFRAME
 70
     0
  9
$SPLINETYPE
 70
     6
  9
$SPLINESEGS
 70
     8
  9
$ATTDIA
 70
     0
  9
$ATTREQ
 70
     1
  9
$HANDLING
 70
     1
  9
$HANDSEED
  5
C04
  9
$SURFTAB1
 70
     6
  9
$SURFTAB2
 70
     6
  9
$SURFTYPE
 70
     6
  9
$SURFU
 70
     6
  9
$SURFV
 70
     6
  9
$UCSNAME
  2

  9
$UCSORG
 10
0.0
 20
0.0
 30
0.0
  9
$UCSXDIR
 10
1.0
 20
0.0
 30
0.0
  9
$UCSYDIR
 10
0.0
 20
1.0
 30
0.0
  9
$PUCSNAME
  2

  9
$PUCSORG
 10
0.0
 20
0.0
 30
0.0
  9
$PUCSXDIR
 10
1.0
 20
0.0
 30
0.0
  9
$PUCSYDIR
 10
0.0
 20
1.0
 30
0.0
  9
$USERI1
 70
     0
  9
$USERI2
 70
     0
  9
$USERI3
 70
     0
  9
$USERI4
 70
     0
  9
$USERI5
 70
     0
  9
$USERR1
 40
0.0
  9
$USERR2
 40
0.0
  9
$USERR3
 40
0.0
  9
$USERR4
 40
0.0
  9
$USERR5
 40
0.0
  9
$WORLDVIEW
 70
     1
  9
$SHADEDGE
 70
     3
  9
$SHADEDIF
 70
    70
  9
$TILEMODE
 70
     1
  9
$MAXACTVP
 70
    64
  9
$PLIMCHECK
 70
     0
  9
$PEXTMIN
 10
1.000000000000000E+20
 20
1.000000000000000E+20
 30
1.000000000000000E+20
  9
$PEXTMAX
 10
-1.000000000000000E+20
 20
-1.000000000000000E+20
 30
-1.000000000000000E+20
  9
$PLIMMIN
 10
0.0
 20
0.0
  9
$PLIMMAX
 10
0.0
 20
0.0
  9
$UNITMODE
 70
     0
  9
$VISRETAIN
 70
     1
  9
$PLINEGEN
 70
     0
  9
$PSLTSCALE
 70
     1
  0
ENDSEC
  0
SECTION
  2
TABLES
  0
TABLE
  2
VPORT
 70
     1
  0
VPORT
  2
*ACTIVE
 70
     0
 10
0.0
 20
0.0
 11
1.0
 21
1.0
 12
862.5077766963668
 22
206.7526355017771
 13
0.0
 23
0.0
 14
0.5
 24
0.5
 15
0.5
 25
0.5
 16
0.0
 26
0.0
 36
1.0
 17
0.0
 27
0.0
 37
0.0
 40
763.8468882349764
 41
2.450549450549451
 42
50.0
 43
0.0
 44
0.0
 50
0.0
 51
0.0
 71
    16
 72
   100
 73
     1
 74
     3
 75
     0
 76
     0
 77
     0
 78
     0
  0
ENDTAB
  0
TABLE
  2
LTYPE
 70
     6
  0
LTYPE
  2
CONTINUOUS
 70
     0
  3
Solid line
 72
    65
 73
     0
 40
0.0
  0
LTYPE
  2
CENTER
 70
     0
  3
____ _ ____ _ ____ _ ____ _ ____ _ ____ _ ____
 72
    65
 73
     4
 40
0.6
 49
0.375
 49
-0.075
 49
0.075
 49
-0.075
  0
LTYPE
  2
HIDDEN
 70
     0
  3
- - - - - - - - - - - - - - - - - - - -
 72
    65
 73
     2
 40
0.2
 49
0.1
 49
-0.1
  0
LTYPE
  2
PHANTOM
 70
     0
  3
_____ _ _ _____ _ _ _____ _ _ _____
 72
    65
 73
     6
 40
0.8
 49
0.45
 49
-0.05
 49
0.1
 49
-0.05
 49
0.1
 49
-0.05
  0
LTYPE
  2
DOT
 70
     0
  3
. . . . . . . . . . . . . . . . . . . .
 72
    65
 73
     2
 40
0.2
 49
0.1
 49
-0.1
  0
LTYPE
  2
DASHED
 70
     0
  3
- - - - - - - - - - - - - - - - - - - -
 72
    65
 73
     2
 40
0.2
 49
0.1
 49
-0.1
  0
ENDTAB
  0
TABLE
  2
LAYER
 70
    15
  0
LAYER
  2
0
 70
     0
 62
     7
  6
CONTINUOUS
  0
LAYER
  2
DEFAULT_1
 70
     0
 62
     7
  6
CENTER
  0
LAYER
  2
DEFAULT_2
 70
     0
 62
     8
  6
HIDDEN
  0
LAYER
  2
DEFAULT_3
 70
     0
 62
     7
  6
PHANTOM
  0
LAYER
  2
01___PRT_ALL_DTM_PLN
 70
     0
 62
     7
  6
CONTINUOUS
  0
LAYER
  2
01___PRT_DEF_DTM_PLN
 70
     0
 62
     7
  6
CONTINUOUS
  0
LAYER
  2
02___PRT_ALL_AXES
 70
     0
 62
     7
  6
CONTINUOUS
  0
LAYER
  2
03___PRT_ALL_CURVES
 70
     0
 62
     7
  6
CONTINUOUS
  0
LAYER
  2
04___PRT_ALL_DTM_PNT
 70
     0
 62
     7
  6
CONTINUOUS
  0
LAYER
  2
05___PRT_ALL_DTM_CSYS
 70
     0
 62
     7
  6
CONTINUOUS
  0
LAYER
  2
05___PRT_DEF_DTM_CSYS
 70
     0
 62
     7
  6
CONTINUOUS
  0
LAYER
  2
06___PRT_ALL_SURFS
 70
     0
 62
     7
  6
CONTINUOUS
  0
LAYER
  2
DEFPOINTS
 70
     0
 62
     7
  6
CONTINUOUS
  0
LAYER
  2
DIMENSIONS
 70
     0
 62
     2
  6
CONTINUOUS
  0
LAYER
  2
AM_5
 70
     0
 62
     3
  6
CONTINUOUS
  0
ENDTAB
  0
TABLE
  2
STYLE
 70
     2
  0
STYLE
  2
STANDARD
 70
     0
 40
0.0
 41
1.0
 50
0.0
 71
     0
 42
0.2
  3
arial.ttf
  4

  0
STYLE
  2
TEXTSTYLE_1
 70
     0
 40
0.0
 41
0.8
 50
0.0
 71
     0
 42
0.2
  3
gdt
  4

  0
ENDTAB
  0
TABLE
  2
VIEW
 70
     0
  0
ENDTAB
  0
TABLE
  2
UCS
 70
     0
  0
ENDTAB
  0
TABLE
  2
APPID
 70
    10
  0
APPID
  2
ACAD
 70
     0
  0
APPID
  2
ACAECLAYERSTANDARD
 70
     0
  0
APPID
  2
ACAD_DSTYLE_DIMRADIAL_EXTE
 70
     0
  0
APPID
  2
ACAD_DSTYLE_DIMJOGGED_JOGA
 70
     0
  0
APPID
  2
ACAD_DSTYLE_DIMJAG
 70
     0
  0
APPID
  2
ACAD_DSTYLE_DIMBREAK
 70
     0
  0
APPID
  2
ACAD_PSEXT
 70
     0
  0
APPID
  2
ACAD_DSTYLE_DIMINSPECT
 70
     0
  0
APPID
  2
ACAD_DSTYLE_DIMRADIAL_EXT0
 70
     0
  0
APPID
  2
ACAD_DSTYLE_DIMJOGGED_JOG0
 70
     0
  0
ENDTAB
  0
TABLE
  2
DIMSTYLE
 70
     5
  0
DIMSTYLE
  2
STANDARD
 70
     0
  3

  4

  5

  6

  7

 40
1.0
 41
0.18
 42
0.0625
 43
0.38
 44
0.18
 45
0.0
 46
0.0
 47
0.0
 48
0.0
140
0.18
141
0.09
142
0.0
143
25.4
144
1.0
145
0.0
146
1.0
147
0.09
 71
     0
 72
     0
 73
     1
 74
     1
 75
     0
 76
     0
 77
     0
 78
     0
170
     0
171
     2
172
     0
173
     0
174
     0
175
     0
176
     0
177
     0
178
     0
  0
DIMSTYLE
  2
DUAL-DIM
 70
     0
  3

  4

  5

  6

  7

 40
1.0
 41
5.0
 42
1.5
 43
1.0
 44
0.18
 45
0.0
 46
0.0
 47
0.0
 48
0.0
140
5.0
141
2.5
142
0.0
143
0.03937
144
1.0
145
0.0
146
1.0
147
1.0
 71
     0
 72
     0
 73
     0
 74
     0
 75
     0
 76
     0
 77
     1
 78
     8
170
     1
171
     2
172
     0
173
     0
174
     0
175
     0
176
     0
177
     0
178
     5
  0
DIMSTYLE
  2
AM_ISO
 70
     0
  3

  4
"
  5

  6

  7

 40
1.0
 41
3.5
 42
1.0
 43
10.0
 44
1.0
 45
0.0
 46
0.0
 47
0.1
 48
0.1
140
3.5
141
0.0
142
0.0
143
0.0393701
144
1.0
145
0.0
146
0.71
147
1.5
 71
     0
 72
     0
 73
     0
 74
     0
 75
     0
 76
     0
 77
     1
 78
     8
170
     0
171
     2
172
     1
173
     0
174
     0
175
     0
176
   256
177
   256
178
     2
  0
DIMSTYLE
  2
AM_ISO$3
 70
     0
  3

  4
"
  5

  6

  7

 40
1.0
 41
3.5
 42
1.0
 43
10.0
 44
1.0
 45
0.0
 46
0.0
 47
0.1
 48
0.1
140
3.5
141
0.0
142
0.0
143
0.0393701
144
1.0
145
0.0
146
0.71
147
1.5
 71
     0
 72
     0
 73
     0
 74
     1
 75
     0
 76
     0
 77
     1
 78
     8
170
     0
171
     2
172
     0
173
     0
174
     0
175
     0
176
   256
177
   256
178
     2
  0
DIMSTYLE
  2
AM_ISO$0
 70
     0
  3

  4
"
  5

  6

  7

 40
1.0
 41
3.5
 42
1.0
 43
10.0
 44
1.0
 45
0.0
 46
0.0
 47
0.1
 48
0.1
140
3.5
141
0.0
142
0.0
143
0.0393701
144
1.0
145
0.0
146
0.71
147
1.5
 71
     0
 72
     0
 73
     0
 74
     0
 75
     0
 76
     0
 77
     1
 78
     8
170
     0
171
     2
172
     1
173
     0
174
     0
175
     0
176
   256
177
   256
178
     2
  0
ENDTAB
  0
ENDSEC
  0
SECTION
  2
BLOCKS
  0
BLOCK
  8
0
  2
$MODEL_SPACE
 70
     0
 10
0.0
 20
0.0
 30
0.0
  3
$MODEL_SPACE
  1

  0
ENDBLK
  5
110
  8
0
  0
BLOCK
 67
     1
  8
0
  2
$PAPER_SPACE
 70
     0
 10
0.0
 20
0.0
 30
0.0
  3
$PAPER_SPACE
  1

  0
ENDBLK
  5
112
 67
     1
  8
0
  0
BLOCK
  8
0
  2
_FILLED
 70
     0
 10
0.0
 20
0.0
 30
0.0
  3
_FILLED
  1

  0
SOLID
  5
3D
  8
0
  6
BYBLOCK
 62
     0
 10
0.0
 20
0.0
 30
0.0
 11
-1.0
 21
0.2
 31
0.0
 12
-1.0
 22
-0.2
 32
0.0
 13
-1.0
 23
-0.2
 33
0.0
  0
ENDBLK
  5
3E
  8
0
  6
BYBLOCK
 62
     0
  0
BLOCK
  8
0
  2
*D117
 70
     1
 10
0.0
 20
0.0
 30
0.0
  3
*D117
  1

  0
LINE
  5
ABD
  8
DIMENSIONS
  6
BYBLOCK
 62
     0
 10
129.6109226017614
 20
327.7408522494085
 30
0.0
 11
129.6109226017614
 21
342.3572632791608
 31
0.0
  0
LINE
  5
ABE
  8
DIMENSIONS
  6
BYBLOCK
 62
     0
 10
234.6109226017614
 20
317.7408522494086
 30
0.0
 11
234.6109226017614
 21
342.3572632791608
 31
0.0
  0
LINE
  5
ABF
  8
DIMENSIONS
  6
BYBLOCK
 62
     0
 10
134.6109226017614
 20
342.1772632791608
 30
0.0
 11
229.6109226017614
 21
342.1772632791608
 31
0.0
  0
SOLID
  5
AC0
  8
DIMENSIONS
 62
     0
 10
134.6109226017614
 20
343.0105966124941
 30
0.0
 11
134.6109226017614
 21
341.3439299458275
 31
0.0
 12
129.6109226017614
 22
342.1772632791608
 32
0.0
 13
129.6109226017614
 23
342.1772632791608
 33
0.0
  0
SOLID
  5
AC1
  8
DIMENSIONS
 62
     0
 10
229.6109226017614
 20
341.3439299458275
 30
0.0
 11
229.6109226017614
 21
343.0105966124941
 31
0.0
 12
234.6109226017614
 22
342.1772632791608
 32
0.0
 13
234.6109226017614
 23
342.1772632791608
 33
0.0
  0
TEXT
  5
AC2
  8
DIMENSIONS
  6
CONTINUOUS
 62
     5
 10
166.4384226017615
 20
344.5722632791608
 30
0.0
 40
5.0
  1
105 [4.13]
  0
POINT
  5
AC3
  8
DEFPOINTS
 62
     0
 10
129.6109226017614
 20
326.2408522494085
 30
0.0
  0
POINT
  5
AC4
  8
DEFPOINTS
 62
     0
 10
234.6109226017614
 20
316.2408522494086
 30
0.0
  0
POINT
  5
AC5
  8
DEFPOINTS
 62
     0
 10
234.6109226017614
 20
342.1772632791608
 30
0.0
  0
ENDBLK
  5
ABC
  8
0
  0
BLOCK
  8
0
  2
*D118
 70
     1
 10
0.0
 20
0.0
 30
0.0
  3
*D118
  1

  0
LINE
  5
ACC
  8
DIMENSIONS
  6
BYBLOCK
 62
     0
 10
234.6109226017614
 20
317.7408522494086
 30
0.0
 11
234.6109226017614
 21
342.3572632791608
 31
0.0
  0
LINE
  5
ACD
  8
DIMENSIONS
  6
BYBLOCK
 62
     0
 10
304.6109226017614
 20
317.7408522494086
 30
0.0
 11
304.6109226017614
 21
342.3572632791608
 31
0.0
  0
LINE
  5
ACE
  8
DIMENSIONS
  6
BYBLOCK
 62
     0
 10
239.6109226017614
 20
342.1772632791608
 30
0.0
 11
299.6109226017614
 21
342.1772632791608
 31
0.0
  0
SOLID
  5
ACF
  8
DIMENSIONS
 62
     0
 10
239.6109226017614
 20
343.0105966124941
 30
0.0
 11
239.6109226017614
 21
341.3439299458275
 31
0.0
 12
234.6109226017614
 22
342.1772632791608
 32
0.0
 13
234.6109226017614
 23
342.1772632791608
 33
0.0
  0
SOLID
  5
AD0
  8
DIMENSIONS
 62
     0
 10
299.6109226017614
 20
341.3439299458275
 30
0.0
 11
299.6109226017614
 21
343.0105966124941
 31
0.0
 12
304.6109226017614
 22
342.1772632791608
 32
0.0
 13
304.6109226017614
 23
342.1772632791608
 33
0.0
  0
TEXT
  5
AD1
  8
DIMENSIONS
  6
CONTINUOUS
 62
     5
 10
256.0934226017615
 20
344.5722632791608
 30
0.0
 40
5.0
  1
70 [2.76]
  0
POINT
  5
AD2
  8
DEFPOINTS
 62
     0
 10
234.6109226017614
 20
316.2408522494086
 30
0.0
  0
POINT
  5
AD3
  8
DEFPOINTS
 62
     0
 10
304.6109226017614
 20
316.2408522494086
 30
0.0
  0
POINT
  5
AD4
  8
DEFPOINTS
 62
     0
 10
304.6109226017614
 20
342.1772632791608
 30
0.0
  0
ENDBLK
  5
ACB
  8
0
  0
BLOCK
  8
0
  2
*D119
 70
     1
 10
0.0
 20
0.0
 30
0.0
  3
*D119
  1

  0
LINE
  5
ADB
  8
DIMENSIONS
  6
BYBLOCK
 62
     0
 10
304.6109226017614
 20
317.7408522494086
 30
0.0
 11
304.6109226017614
 21
342.3572632791608
 31
0.0
  0
LINE
  5
ADC
  8
DIMENSIONS
  6
BYBLOCK
 62
     0
 10
446.6109226017614
 20
314.7408522494085
 30
0.0
 11
446.6109226017614
 21
342.3572632791608
 31
0.0
  0
LINE
  5
ADD
  8
DIMENSIONS
  6
BYBLOCK
 62
     0
 10
309.6109226017614
 20
342.1772632791608
 30
0.0
 11
441.6109226017614
 21
342.1772632791608
 31
0.0
  0
SOLID
  5
ADE
  8
DIMENSIONS
 62
     0
 10
309.6109226017614
 20
343.0105966124941
 30
0.0
 11
309.6109226017614
 21
341.3439299458275
 31
0.0
 12
304.6109226017614
 22
342.1772632791608
 32
0.0
 13
304.6109226017614
 23
342.1772632791608
 33
0.0
  0
SOLID
  5
ADF
  8
DIMENSIONS
 62
     0
 10
441.6109226017614
 20
341.3439299458275
 30
0.0
 11
441.6109226017614
 21
343.0105966124941
 31
0.0
 12
446.6109226017614
 22
342.1772632791608
 32
0.0
 13
446.6109226017614
 23
342.1772632791608
 33
0.0
  0
TEXT
  5
AE0
  8
DIMENSIONS
  6
CONTINUOUS
 62
     5
 10
359.9384226017614
 20
344.5722632791608
 30
0.0
 40
5.0
  1
142 [5.59]
  0
POINT
  5
AE1
  8
DEFPOINTS
 62
     0
 10
304.6109226017614
 20
316.2408522494086
 30
0.0
  0
POINT
  5
AE2
  8
DEFPOINTS
 62
     0
 10
446.6109226017614
 20
313.2408522494085
 30
0.0
  0
POINT
  5
AE3
  8
DEFPOINTS
 62
     0
 10
446.6109226017614
 20
342.1772632791608
 30
0.0
  0
ENDBLK
  5
ADA
  8
0
  0
BLOCK
  8
0
  2
*D120
 70
     1
 10
0.0
 20
0.0
 30
0.0
  3
*D120
  1

  0
LINE
  5
AEA
  8
DIMENSIONS
  6
BYBLOCK
 62
     0
 10
446.6109226017614
 20
314.7408522494085
 30
0.0
 11
446.6109226017614
 21
342.3572632791608
 31
0.0
  0
LINE
  5
AEB
  8
DIMENSIONS
  6
BYBLOCK
 62
     0
 10
631.6109226017614
 20
314.7408522494085
 30
0.0
 11
631.6109226017614
 21
342.3572632791608
 31
0.0
  0
LINE
  5
AEC
  8
DIMENSIONS
  6
BYBLOCK
 62
     0
 10
451.6109226017614
 20
342.1772632791608
 30
0.0
 11
626.6109226017614
 21
342.1772632791608
 31
0.0
  0
SOLID
  5
AED
  8
DIMENSIONS
 62
     0
 10
451.6109226017614
 20
343.0105966124941
 30
0.0
 11
451.6109226017614
 21
341.3439299458275
 31
0.0
 12
446.6109226017614
 22
342.1772632791608
 32
0.0
 13
446.6109226017614
 23
342.1772632791608
 33
0.0
  0
SOLID
  5
AEE
  8
DIMENSIONS
 62
     0
 10
626.6109226017614
 20
341.3439299458275
 30
0.0
 11
626.6109226017614
 21
343.0105966124941
 31
0.0
 12
631.6109226017614
 22
342.1772632791608
 32
0.0
 13
631.6109226017614
 23
342.1772632791608
 33
0.0
  0
TEXT
  5
AEF
  8
DIMENSIONS
  6
CONTINUOUS
 62
     5
 10
523.4384226017614
 20
344.5722632791608
 30
0.0
 40
5.0
  1
185 [7.28]
  0
POINT
  5
AF0
  8
DEFPOINTS
 62
     0
 10
446.6109226017614
 20
313.2408522494085
 30
0.0
  0
POINT
  5
AF1
  8
DEFPOINTS
 62
     0
 10
631.6109226017614
 20
313.2408522494085
 30
0.0
  0
POINT
  5
AF2
  8
DEFPOINTS
 62
     0
 10
631.6109226017614
 20
342.1772632791608
 30
0.0
  0
ENDBLK
  5
AE9
  8
0
  0
BLOCK
  8
0
  2
*D121
 70
     1
 10
0.0
 20
0.0
 30
0.0
  3
*D121
  1

  0
LINE
  5
AF9
  8
DIMENSIONS
  6
BYBLOCK
 62
     0
 10
631.6109226017614
 20
314.7408522494085
 30
0.0
 11
631.6109226017614
 21
356.2675980413222
 31
0.0
  0
LINE
  5
AFA
  8
DIMENSIONS
  6
BYBLOCK
 62
     0
 10
649.6109226017614
 20
327.7408522494085
 30
0.0
 11
649.6109226017614
 21
356.2675980413222
 31
0.0
  0
LINE
  5
AFB
  8
DIMENSIONS
  6
BYBLOCK
 62
     0
 10
631.6109226017614
 20
356.0875980413222
 30
0.0
 11
598.6659226017615
 21
356.0875980413222
 31
0.0
  0
LINE
  5
AFC
  8
DIMENSIONS
  6
BYBLOCK
 62
     0
 10
636.6109226017614
 20
356.0875980413222
 30
0.0
 11
644.6109226017614
 21
356.0875980413222
 31
0.0
  0
SOLID
  5
AFD
  8
DIMENSIONS
 62
     0
 10
636.6109226017614
 20
356.9209313746555
 30
0.0
 11
636.6109226017614
 21
355.2542647079889
 31
0.0
 12
631.6109226017614
 22
356.0875980413222
 32
0.0
 13
631.6109226017614
 23
356.0875980413222
 33
0.0
  0
SOLID
  5
AFE
  8
DIMENSIONS
 62
     0
 10
644.6109226017614
 20
355.2542647079889
 30
0.0
 11
644.6109226017614
 21
356.9209313746555
 31
0.0
 12
649.6109226017614
 22
356.0875980413222
 32
0.0
 13
649.6109226017614
 23
356.0875980413222
 33
0.0
  0
TEXT
  5
AFF
  8
DIMENSIONS
  6
CONTINUOUS
 62
     5
 10
598.9059226017615
 20
358.4825980413222
 30
0.0
 40
5.0
  1
18 [0.71]
  0
POINT
  5
B00
  8
DEFPOINTS
 62
     0
 10
631.6109226017614
 20
313.2408522494085
 30
0.0
  0
POINT
  5
B01
  8
DEFPOINTS
 62
     0
 10
649.6109226017614
 20
326.2408522494085
 30
0.0
  0
POINT
  5
BCC
  8
DEFPOINTS
 62
     0
 10
649.6109226017614
 20
356.0875980413222
 30
0.0
  0
ENDBLK
  5
AF8
  8
0
  0
BLOCK
  8
0
  2
*D122
 70
     1
 10
0.0
 20
0.0
 30
0.0
  3
*D122
  1

  0
LINE
  5
B08
  8
DIMENSIONS
  6
BYBLOCK
 62
     0
 10
129.6109226017614
 20
-15.25914775059135
 30
0.0
 11
129.6109226017614
 21
-44.41206726994549
 31
0.0
  0
LINE
  5
B09
  8
DIMENSIONS
  6
BYBLOCK
 62
     0
 10
142.6109226017614
 20
-2.259147750591358
 30
0.0
 11
142.6109226017614
 21
-44.41206726994549
 31
0.0
  0
LINE
  5
B0A
  8
DIMENSIONS
  6
BYBLOCK
 62
     0
 10
142.6109226017614
 20
-44.23206726994549
 30
0.0
 11
175.5559226017614
 21
-44.23206726994549
 31
0.0
  0
LINE
  5
B0B
  8
DIMENSIONS
  6
BYBLOCK
 62
     0
 10
134.6109226017614
 20
-44.23206726994549
 30
0.0
 11
137.6109226017614
 21
-44.23206726994549
 31
0.0
  0
SOLID
  5
B0C
  8
DIMENSIONS
 62
     0
 10
134.6109226017614
 20
-43.39873393661215
 30
0.0
 11
134.6109226017614
 21
-45.06540060327882
 31
0.0
 12
129.6109226017614
 22
-44.23206726994549
 32
0.0
 13
129.6109226017614
 23
-44.23206726994549
 33
0.0
  0
SOLID
  5
B0D
  8
DIMENSIONS
 62
     0
 10
137.6109226017614
 20
-45.06540060327882
 30
0.0
 11
137.6109226017614
 21
-43.39873393661215
 31
0.0
 12
142.6109226017614
 22
-44.23206726994549
 32
0.0
 13
142.6109226017614
 23
-44.23206726994549
 33
0.0
  0
TEXT
  5
B0E
  8
DIMENSIONS
  6
CONTINUOUS
 62
     5
 10
147.8509226017615
 20
-41.83706726994549
 30
0.0
 40
5.0
  1
13 [0.51]
  0
POINT
  5
B0F
  8
DEFPOINTS
 62
     0
 10
129.6109226017614
 20
-13.75914775059135
 30
0.0
  0
POINT
  5
B10
  8
DEFPOINTS
 62
     0
 10
142.6109226017614
 20
-0.7591477505913584
 30
0.0
  0
POINT
  5
BCB
  8
DEFPOINTS
 62
     0
 10
142.6109226017614
 20
-44.23206726994549
 30
0.0
  0
ENDBLK
  5
B07
  8
0
  0
BLOCK
  8
0
  2
*D123
 70
     1
 10
0.0
 20
0.0
 30
0.0
  3
*D123
  1

  0
LINE
  5
B17
  8
DIMENSIONS
  6
BYBLOCK
 62
     0
 10
142.6109226017614
 20
-2.259147750591358
 30
0.0
 11
142.6109226017614
 21
-29.43798462626206
 31
0.0
  0
LINE
  5
B18
  8
DIMENSIONS
  6
BYBLOCK
 62
     0
 10
389.6109226017614
 20
-2.259147750591358
 30
0.0
 11
389.6109226017614
 21
-29.43798462626206
 31
0.0
  0
LINE
  5
B19
  8
DIMENSIONS
  6
BYBLOCK
 62
     0
 10
147.6109226017614
 20
-29.25798462626206
 30
0.0
 11
384.6109226017614
 21
-29.25798462626206
 31
0.0
  0
SOLID
  5
B1A
  8
DIMENSIONS
 62
     0
 10
147.6109226017614
 20
-28.42465129292873
 30
0.0
 11
147.6109226017614
 21
-30.09131795959539
 31
0.0
 12
142.6109226017614
 22
-29.25798462626206
 32
0.0
 13
142.6109226017614
 23
-29.25798462626206
 33
0.0
  0
SOLID
  5
B1B
  8
DIMENSIONS
 62
     0
 10
384.6109226017614
 20
-30.09131795959539
 30
0.0
 11
384.6109226017614
 21
-28.42465129292873
 31
0.0
 12
389.6109226017614
 22
-29.25798462626206
 32
0.0
 13
389.6109226017614
 23
-29.25798462626206
 33
0.0
  0
TEXT
  5
B1C
  8
DIMENSIONS
  6
CONTINUOUS
 62
     5
 10
250.7159226017614
 20
-26.86298462626205
 30
0.0
 40
5.0
  1
247 [9.72]
  0
POINT
  5
B1D
  8
DEFPOINTS
 62
     0
 10
142.6109226017614
 20
-0.7591477505913584
 30
0.0
  0
POINT
  5
B1E
  8
DEFPOINTS
 62
     0
 10
389.6109226017614
 20
-0.7591477505913584
 30
0.0
  0
POINT
  5
B1F
  8
DEFPOINTS
 62
     0
 10
389.6109226017614
 20
-29.25798462626206
 30
0.0
  0
ENDBLK
  5
B16
  8
0
  0
BLOCK
  8
0
  2
*D124
 70
     1
 10
0.0
 20
0.0
 30
0.0
  3
*D124
  1

  0
LINE
  5
B27
  8
DIMENSIONS
  6
BYBLOCK
 62
     0
 10
389.6109226017614
 20
-2.259147750591358
 30
0.0
 11
389.6109226017614
 21
-29.43798462626206
 31
0.0
  0
LINE
  5
B28
  8
DIMENSIONS
  6
BYBLOCK
 62
     0
 10
636.6109226017614
 20
-2.259147750591358
 30
0.0
 11
636.6109226017614
 21
-29.43798462626206
 31
0.0
  0
LINE
  5
B29
  8
DIMENSIONS
  6
BYBLOCK
 62
     0
 10
394.6109226017614
 20
-29.25798462626206
 30
0.0
 11
631.6109226017614
 21
-29.25798462626206
 31
0.0
  0
SOLID
  5
B2A
  8
DIMENSIONS
 62
     0
 10
394.6109226017614
 20
-28.42465129292873
 30
0.0
 11
394.6109226017614
 21
-30.09131795959539
 31
0.0
 12
389.6109226017614
 22
-29.25798462626206
 32
0.0
 13
389.6109226017614
 23
-29.25798462626206
 33
0.0
  0
SOLID
  5
B2B
  8
DIMENSIONS
 62
     0
 10
631.6109226017614
 20
-30.09131795959539
 30
0.0
 11
631.6109226017614
 21
-28.42465129292873
 31
0.0
 12
636.6109226017614
 22
-29.25798462626206
 32
0.0
 13
636.6109226017614
 23
-29.25798462626206
 33
0.0
  0
TEXT
  5
B2C
  8
DIMENSIONS
  6
CONTINUOUS
 62
     5
 10
497.7159226017615
 20
-26.86298462626205
 30
0.0
 40
5.0
  1
247 [9.72]
  0
POINT
  5
B2D
  8
DEFPOINTS
 62
     0
 10
389.6109226017614
 20
-0.7591477505913584
 30
0.0
  0
POINT
  5
B2E
  8
DEFPOINTS
 62
     0
 10
636.6109226017614
 20
-0.7591477505913584
 30
0.0
  0
POINT
  5
B2F
  8
DEFPOINTS
 62
     0
 10
636.6109226017614
 20
-29.25798462626206
 30
0.0
  0
ENDBLK
  5
B26
  8
0
  0
BLOCK
  8
0
  2
*D125
 70
     1
 10
0.0
 20
0.0
 30
0.0
  3
*D125
  1

  0
LINE
  5
B36
  8
DIMENSIONS
  6
BYBLOCK
 62
     0
 10
636.6109226017614
 20
-2.259147750591358
 30
0.0
 11
636.6109226017614
 21
-42.65224036639071
 31
0.0
  0
LINE
  5
B37
  8
DIMENSIONS
  6
BYBLOCK
 62
     0
 10
649.6109226017614
 20
-15.25914775059135
 30
0.0
 11
649.6109226017614
 21
-42.65224036639071
 31
0.0
  0
LINE
  5
B38
  8
DIMENSIONS
  6
BYBLOCK
 62
     0
 10
636.6109226017614
 20
-42.47224036639071
 30
0.0
 11
603.6659226017615
 21
-42.47224036639071
 31
0.0
  0
LINE
  5
B39
  8
DIMENSIONS
  6
BYBLOCK
 62
     0
 10
641.6109226017614
 20
-42.47224036639071
 30
0.0
 11
644.6109226017614
 21
-42.47224036639071
 31
0.0
  0
SOLID
  5
B3A
  8
DIMENSIONS
 62
     0
 10
641.6109226017614
 20
-41.63890703305737
 30
0.0
 11
641.6109226017614
 21
-43.30557369972404
 31
0.0
 12
636.6109226017614
 22
-42.47224036639071
 32
0.0
 13
636.6109226017614
 23
-42.47224036639071
 33
0.0
  0
SOLID
  5
B3B
  8
DIMENSIONS
 62
     0
 10
644.6109226017614
 20
-43.30557369972404
 30
0.0
 11
644.6109226017614
 21
-41.63890703305737
 31
0.0
 12
649.6109226017614
 22
-42.47224036639071
 32
0.0
 13
649.6109226017614
 23
-42.47224036639071
 33
0.0
  0
TEXT
  5
B3C
  8
DIMENSIONS
  6
CONTINUOUS
 62
     5
 10
603.9059226017615
 20
-40.07724036639071
 30
0.0
 40
5.0
  1
13 [0.51]
  0
POINT
  5
B3D
  8
DEFPOINTS
 62
     0
 10
636.6109226017614
 20
-0.7591477505913584
 30
0.0
  0
POINT
  5
B3E
  8
DEFPOINTS
 62
     0
 10
649.6109226017614
 20
-13.75914775059135
 30
0.0
  0
POINT
  5
BCD
  8
DEFPOINTS
 62
     0
 10
649.6109226017614
 20
-42.47224036639071
 30
0.0
  0
ENDBLK
  5
B35
  8
0
  0
BLOCK
  8
0
  2
*D126
 70
     1
 10
0.0
 20
0.0
 30
0.0
  3
*D126
  1

  0
LINE
  5
B45
  8
DIMENSIONS
  6
BYBLOCK
 62
     0
 10
128.1109226017614
 20
326.2408522494085
 30
0.0
 11
95.45133588049242
 21
326.2408522494085
 31
0.0
  0
LINE
  5
B46
  8
DIMENSIONS
  6
BYBLOCK
 62
     0
 10
128.1109226017614
 20
-13.75914775059135
 30
0.0
 11
95.45133588049241
 21
-13.75914775059135
 31
0.0
  0
LINE
  5
B47
  8
DIMENSIONS
  6
BYBLOCK
 62
     0
 10
95.63133588049243
 20
321.2408522494085
 30
0.0
 11
95.63133588049241
 21
-8.759147750591351
 31
0.0
  0
SOLID
  5
B48
  8
DIMENSIONS
 62
     0
 10
96.46466921382576
 20
321.2408522494085
 30
0.0
 11
94.7980025471591
 21
321.2408522494085
 31
0.0
 12
95.63133588049243
 22
326.2408522494085
 32
0.0
 13
95.63133588049243
 23
326.2408522494085
 33
0.0
  0
SOLID
  5
B49
  8
DIMENSIONS
 62
     0
 10
94.79800254715909
 20
-8.759147750591351
 30
0.0
 11
96.46466921382574
 21
-8.759147750591351
 31
0.0
 12
95.63133588049241
 22
-13.75914775059135
 32
0.0
 13
95.63133588049241
 23
-13.75914775059135
 33
0.0
  0
TEXT
  5
B4A
  8
DIMENSIONS
  6
CONTINUOUS
 62
     5
 10
93.23633588049248
 20
138.8608522494086
 30
0.0
 40
5.0
  1
340 [13.39]
 50
90.0
  0
POINT
  5
B4B
  8
DEFPOINTS
 62
     0
 10
129.6109226017614
 20
326.2408522494085
 30
0.0
  0
POINT
  5
B4C
  8
DEFPOINTS
 62
     0
 10
129.6109226017614
 20
-13.75914775059135
 30
0.0
  0
POINT
  5
B4D
  8
DEFPOINTS
 62
     0
 10
95.63133588049241
 20
-13.75914775059135
 30
0.0
  0
ENDBLK
  5
B44
  8
0
  0
BLOCK
  8
0
  2
*D127
 70
     1
 10
0.0
 20
0.0
 30
0.0
  3
*D127
  1

  0
LINE
  5
B54
  8
DIMENSIONS
  6
BYBLOCK
 62
     0
 10
141.1109226017614
 20
-0.7591477505913582
 30
0.0
 11
112.8551265931537
 21
-0.7591477505913531
 31
0.0
  0
LINE
  5
B55
  8
DIMENSIONS
  6
BYBLOCK
 62
     0
 10
141.1109226017614
 20
313.2408522494085
 30
0.0
 11
112.8551265931538
 21
313.2408522494085
 31
0.0
  0
LINE
  5
B56
  8
DIMENSIONS
  6
BYBLOCK
 62
     0
 10
113.0351265931537
 20
4.240852249408647
 30
0.0
 11
113.0351265931538
 21
308.2408522494085
 31
0.0
  0
SOLID
  5
B57
  8
DIMENSIONS
 62
     0
 10
112.2017932598204
 20
4.240852249408647
 30
0.0
 11
113.8684599264871
 21
4.240852249408647
 31
0.0
 12
113.0351265931537
 22
-0.7591477505913531
 32
0.0
 13
113.0351265931537
 23
-0.7591477505913531
 33
0.0
  0
SOLID
  5
B58
  8
DIMENSIONS
 62
     0
 10
113.8684599264871
 20
308.2408522494085
 30
0.0
 11
112.2017932598204
 21
308.2408522494085
 31
0.0
 12
113.0351265931538
 22
313.2408522494085
 32
0.0
 13
113.0351265931538
 23
313.2408522494085
 33
0.0
  0
TEXT
  5
B59
  8
DIMENSIONS
  6
CONTINUOUS
 62
     5
 10
110.6401265931538
 20
138.8608522494086
 30
0.0
 40
5.0
  1
314 [12.36]
 50
90.0
  0
POINT
  5
B5A
  8
DEFPOINTS
 62
     0
 10
142.6109226017614
 20
-0.7591477505913584
 30
0.0
  0
POINT
  5
B5B
  8
DEFPOINTS
 62
     0
 10
142.6109226017614
 20
313.2408522494085
 30
0.0
  0
POINT
  5
B5C
  8
DEFPOINTS
 62
     0
 10
113.0351265931538
 20
313.2408522494085
 30
0.0
  0
ENDBLK
  5
B53
  8
0
  0
BLOCK
  8
0
  2
*D128
 70
     1
 10
0.0
 20
0.0
 30
0.0
  3
*D128
  1

  0
LINE
  5
B63
  8
DIMENSIONS
  6
BYBLOCK
 62
     0
 10
233.1109226017614
 20
316.2408522494086
 30
0.0
 11
211.8773239147204
 21
316.2408522494086
 31
0.0
  0
LINE
  5
B64
  8
DIMENSIONS
  6
BYBLOCK
 62
     0
 10
233.1109226017614
 20
326.2408522494085
 30
0.0
 11
211.8773239147204
 21
326.2408522494085
 31
0.0
  0
LINE
  5
B65
  8
DIMENSIONS
  6
BYBLOCK
 62
     0
 10
212.0573239147204
 20
316.2408522494086
 30
0.0
 11
212.0573239147204
 21
277.8973107026053
 31
0.0
  0
LINE
  5
B66
  8
DIMENSIONS
  6
BYBLOCK
 62
     0
 10
212.0573239147204
 20
311.2408522494086
 30
0.0
 11
212.0573239147204
 21
306.2408522494086
 31
0.0
  0
LINE
  5
B67
  8
DIMENSIONS
  6
BYBLOCK
 62
     0
 10
212.0573239147204
 20
331.2408522494085
 30
0.0
 11
212.0573239147204
 21
336.2408522494085
 31
0.0
  0
SOLID
  5
B68
  8
DIMENSIONS
 62
     0
 10
212.8906572480537
 20
311.2408522494086
 30
0.0
 11
211.223990581387
 21
311.2408522494086
 31
0.0
 12
212.0573239147204
 22
316.2408522494086
 32
0.0
 13
212.0573239147204
 23
316.2408522494086
 33
0.0
  0
SOLID
  5
B69
  8
DIMENSIONS
 62
     0
 10
211.223990581387
 20
331.2408522494085
 30
0.0
 11
212.8906572480537
 21
331.2408522494085
 31
0.0
 12
212.0573239147204
 22
326.2408522494085
 32
0.0
 13
212.0573239147204
 23
326.2408522494085
 33
0.0
  0
TEXT
  5
B6A
  8
DIMENSIONS
  6
CONTINUOUS
 62
     5
 10
209.6623239147204
 20
278.1373107026053
 30
0.0
 40
5.0
  1
10 [0.39]
 50
90.0
  0
POINT
  5
B6B
  8
DEFPOINTS
 62
     0
 10
234.6109226017614
 20
316.2408522494086
 30
0.0
  0
POINT
  5
B6C
  8
DEFPOINTS
 62
     0
 10
234.6109226017614
 20
326.2408522494085
 30
0.0
  0
POINT
  5
BE9
  8
DEFPOINTS
 62
     0
 10
212.0573239147204
 20
326.2408522494085
 30
0.0
  0
ENDBLK
  5
B62
  8
0
  0
BLOCK
  8
0
  2
*D129
 70
     1
 10
0.0
 20
0.0
 30
0.0
  3
*D129
  1

  0
LINE
  5
B73
  8
DIMENSIONS
  6
BYBLOCK
 62
     0
 10
233.1109226017614
 20
316.2408522494086
 30
0.0
 11
223.5307127298132
 21
316.2408522494086
 31
0.0
  0
LINE
  5
B74
  8
DIMENSIONS
  6
BYBLOCK
 62
     0
 10
233.1109226017614
 20
136.2408522494086
 30
0.0
 11
223.5307127298132
 21
136.2408522494086
 31
0.0
  0
LINE
  5
B75
  8
DIMENSIONS
  6
BYBLOCK
 62
     0
 10
223.7107127298132
 20
311.2408522494086
 30
0.0
 11
223.7107127298132
 21
141.2408522494086
 31
0.0
  0
SOLID
  5
B76
  8
DIMENSIONS
 62
     0
 10
224.5440460631466
 20
311.2408522494086
 30
0.0
 11
222.8773793964799
 21
311.2408522494086
 31
0.0
 12
223.7107127298132
 22
316.2408522494086
 32
0.0
 13
223.7107127298132
 23
316.2408522494086
 33
0.0
  0
SOLID
  5
B77
  8
DIMENSIONS
 62
     0
 10
222.8773793964799
 20
141.2408522494086
 30
0.0
 11
224.5440460631466
 21
141.2408522494086
 31
0.0
 12
223.7107127298132
 22
136.2408522494086
 32
0.0
 13
223.7107127298132
 23
136.2408522494086
 33
0.0
  0
TEXT
  5
B78
  8
DIMENSIONS
  6
CONTINUOUS
 62
     5
 10
221.3157127298133
 20
210.5683522494087
 30
0.0
 40
5.0
  1
180 [7.09]
 50
90.0
  0
POINT
  5
B79
  8
DEFPOINTS
 62
     0
 10
234.6109226017614
 20
316.2408522494086
 30
0.0
  0
POINT
  5
B7A
  8
DEFPOINTS
 62
     0
 10
234.6109226017614
 20
136.2408522494086
 30
0.0
  0
POINT
  5
B7B
  8
DEFPOINTS
 62
     0
 10
223.7107127298132
 20
136.2408522494086
 30
0.0
  0
ENDBLK
  5
B72
  8
0
  0
BLOCK
  8
0
  2
*D130
 70
     1
 10
0.0
 20
0.0
 30
0.0
  3
*D130
  1

  0
LINE
  5
B82
  8
DIMENSIONS
  6
BYBLOCK
 62
     0
 10
233.1109226017614
 20
136.2408522494086
 30
0.0
 11
223.5307127298132
 21
136.2408522494086
 31
0.0
  0
LINE
  5
B83
  8
DIMENSIONS
  6
BYBLOCK
 62
     0
 10
233.1109226017614
 20
-13.75914775059135
 30
0.0
 11
223.5307127298132
 21
-13.75914775059135
 31
0.0
  0
LINE
  5
B84
  8
DIMENSIONS
  6
BYBLOCK
 62
     0
 10
223.7107127298132
 20
131.2408522494086
 30
0.0
 11
223.7107127298132
 21
-8.759147750591353
 31
0.0
  0
SOLID
  5
B85
  8
DIMENSIONS
 62
     0
 10
224.5440460631466
 20
131.2408522494086
 30
0.0
 11
222.8773793964799
 21
131.2408522494086
 31
0.0
 12
223.7107127298132
 22
136.2408522494086
 32
0.0
 13
223.7107127298132
 23
136.2408522494086
 33
0.0
  0
SOLID
  5
B86
  8
DIMENSIONS
 62
     0
 10
222.8773793964799
 20
-8.759147750591353
 30
0.0
 11
224.5440460631466
 21
-8.759147750591353
 31
0.0
 12
223.7107127298132
 22
-13.75914775059135
 32
0.0
 13
223.7107127298132
 23
-13.75914775059135
 33
0.0
  0
TEXT
  5
B87
  8
DIMENSIONS
  6
CONTINUOUS
 62
     5
 10
221.3157127298132
 20
45.56835224940866
 30
0.0
 40
5.0
  1
150 [5.91]
 50
90.0
  0
POINT
  5
B88
  8
DEFPOINTS
 62
     0
 10
234.6109226017614
 20
136.2408522494086
 30
0.0
  0
POINT
  5
B89
  8
DEFPOINTS
 62
     0
 10
234.6109226017614
 20
-13.75914775059135
 30
0.0
  0
POINT
  5
B8A
  8
DEFPOINTS
 62
     0
 10
223.7107127298132
 20
-13.75914775059135
 30
0.0
  0
ENDBLK
  5
B81
  8
0
  0
BLOCK
  8
0
  2
*D132
 70
     1
 10
0.0
 20
0.0
 30
0.0
  3
*D132
  1

  0
LINE
  5
BA0
  8
DIMENSIONS
  6
BYBLOCK
 62
     0
 10
445.1109226017614
 20
313.2408522494085
 30
0.0
 11
433.8897521184223
 21
313.2408522494085
 31
0.0
  0
LINE
  5
BA1
  8
DIMENSIONS
  6
BYBLOCK
 62
     0
 10
445.1109226017614
 20
188.2408522494086
 30
0.0
 11
433.8897521184223
 21
188.2408522494086
 31
0.0
  0
LINE
  5
BA2
  8
DIMENSIONS
  6
BYBLOCK
 62
     0
 10
434.0697521184223
 20
308.2408522494085
 30
0.0
 11
434.0697521184223
 21
193.2408522494086
 31
0.0
  0
SOLID
  5
BA3
  8
DIMENSIONS
 62
     0
 10
434.9030854517557
 20
308.2408522494085
 30
0.0
 11
433.236418785089
 21
308.2408522494085
 31
0.0
 12
434.0697521184223
 22
313.2408522494085
 32
0.0
 13
434.0697521184223
 23
313.2408522494085
 33
0.0
  0
SOLID
  5
BA4
  8
DIMENSIONS
 62
     0
 10
433.236418785089
 20
193.2408522494086
 30
0.0
 11
434.9030854517557
 21
193.2408522494086
 31
0.0
 12
434.0697521184223
 22
188.2408522494086
 32
0.0
 13
434.0697521184223
 23
188.2408522494086
 33
0.0
  0
TEXT
  5
BA5
  8
DIMENSIONS
  6
CONTINUOUS
 62
     5
 10
431.6747521184224
 20
235.0683522494086
 30
0.0
 40
5.0
  1
125 [4.92]
 50
90.0
  0
POINT
  5
BA6
  8
DEFPOINTS
 62
     0
 10
446.6109226017614
 20
313.2408522494085
 30
0.0
  0
POINT
  5
BA7
  8
DEFPOINTS
 62
     0
 10
446.6109226017614
 20
188.2408522494086
 30
0.0
  0
POINT
  5
BA8
  8
DEFPOINTS
 62
     0
 10
434.0697521184223
 20
188.2408522494086
 30
0.0
  0
ENDBLK
  5
B9F
  8
0
  0
BLOCK
  8
0
  2
*D133
 70
     1
 10
0.0
 20
0.0
 30
0.0
  3
*D133
  1

  0
LINE
  5
BAF
  8
DIMENSIONS
  6
BYBLOCK
 62
     0
 10
445.1109226017614
 20
188.2408522494086
 30
0.0
 11
433.8897521184223
 21
188.2408522494086
 31
0.0
  0
LINE
  5
BB0
  8
DIMENSIONS
  6
BYBLOCK
 62
     0
 10
445.1109226017614
 20
-13.75914775059135
 30
0.0
 11
433.8897521184223
 21
-13.75914775059135
 31
0.0
  0
LINE
  5
BB1
  8
DIMENSIONS
  6
BYBLOCK
 62
     0
 10
434.0697521184223
 20
183.2408522494086
 30
0.0
 11
434.0697521184223
 21
-8.759147750591353
 31
0.0
  0
SOLID
  5
BB2
  8
DIMENSIONS
 62
     0
 10
434.9030854517557
 20
183.2408522494086
 30
0.0
 11
433.236418785089
 21
183.2408522494086
 31
0.0
 12
434.0697521184223
 22
188.2408522494086
 32
0.0
 13
434.0697521184223
 23
188.2408522494086
 33
0.0
  0
SOLID
  5
BB3
  8
DIMENSIONS
 62
     0
 10
433.236418785089
 20
-8.759147750591353
 30
0.0
 11
434.9030854517557
 21
-8.759147750591353
 31
0.0
 12
434.0697521184223
 22
-13.75914775059135
 32
0.0
 13
434.0697521184223
 23
-13.75914775059135
 33
0.0
  0
TEXT
  5
BB4
  8
DIMENSIONS
  6
CONTINUOUS
 62
     5
 10
431.6747521184223
 20
71.84585224940867
 30
0.0
 40
5.0
  1
202 [7.95]
 50
90.0
  0
POINT
  5
BB5
  8
DEFPOINTS
 62
     0
 10
446.6109226017614
 20
188.2408522494086
 30
0.0
  0
POINT
  5
BB6
  8
DEFPOINTS
 62
     0
 10
446.6109226017614
 20
-13.75914775059135
 30
0.0
  0
POINT
  5
BB7
  8
DEFPOINTS
 62
     0
 10
434.0697521184223
 20
-13.75914775059135
 30
0.0
  0
ENDBLK
  5
BAE
  8
0
  0
BLOCK
  8
0
  2
*D134
 70
     1
 10
0.0
 20
0.0
 30
0.0
  3
*D134
  1

  0
LINE
  5
BBE
  8
DIMENSIONS
  6
BYBLOCK
 62
     0
 10
628.1109309926345
 20
-0.7710911492718442
 30
0.0
 11
583.0017761899004
 21
-0.8344743436001022
 31
0.0
  0
TEXT
  5
BBF
  8
DIMENSIONS
  6
CONTINUOUS
 62
     5
 10
583.7182978424694
 20
1.641534889298613
 30
0.0
 40
5.0
  1
Ø7 [Ø0.28]
 50
0.0805066544245891
  0
SOLID
  5
BC0
  8
DIMENSIONS
 62
     0
 10
628.1121019140737
 20
-1.604423659970561
 30
0.0
 11
628.1097600711953
 21
0.062241361426873
 31
0.0
 12
633.1109260568268
 22
-0.7640656206362506
 32
0.0
 13
633.1109260568268
 23
-0.7640656206362506
 33
0.0
  0
LINE
  5
BC1
  8
DIMENSIONS
  6
BYBLOCK
 62
     0
 10
634.1109226017613
 20
-0.7591477505913351
 30
0.0
 11
639.1109226017613
 21
-0.7591477505913351
 31
0.0
  0
LINE
  5
BC2
  8
DIMENSIONS
  6
BYBLOCK
 62
     0
 10
636.6109226017613
 20
-3.259147750591335
 30
0.0
 11
636.6109226017613
 21
1.740852249408665
 31
0.0
  0
POINT
  5
BC3
  8
DEFPOINTS
 62
     0
 10
633.1109260568268
 20
-0.7640656206362506
 30
0.0
  0
POINT
  5
BC4
  8
DEFPOINTS
 62
     0
 10
640.110919146696
 20
-0.7542298805464196
 30
0.0
  0
ENDBLK
  5
BBD
  8
0
  0
BLOCK
  8
0
  2
*D135
 70
     1
 10
0.0
 20
0.0
 30
0.0
  3
*D135
  1

  0
LINE
  5
BD5
  8
DIMENSIONS
  6
BYBLOCK
 62
     0
 10
445.1109226017614
 20
313.2408522494085
 30
0.0
 11
421.0991106442273
 21
313.2408522494085
 31
0.0
  0
LINE
  5
BD6
  8
DIMENSIONS
  6
BYBLOCK
 62
     0
 10
445.1109226017614
 20
326.2408522494085
 30
0.0
 11
421.0991106442273
 21
326.2408522494085
 31
0.0
  0
LINE
  5
BD7
  8
DIMENSIONS
  6
BYBLOCK
 62
     0
 10
421.2791106442273
 20
313.2408522494085
 30
0.0
 11
421.2791106442273
 21
280.2958522494085
 31
0.0
  0
LINE
  5
BD8
  8
DIMENSIONS
  6
BYBLOCK
 62
     0
 10
421.2791106442273
 20
318.2408522494085
 30
0.0
 11
421.2791106442273
 21
321.2408522494085
 31
0.0
  0
SOLID
  5
BD9
  8
DIMENSIONS
 62
     0
 10
420.445777310894
 20
318.2408522494085
 30
0.0
 11
422.1124439775606
 21
318.2408522494085
 31
0.0
 12
421.2791106442273
 22
313.2408522494085
 32
0.0
 13
421.2791106442273
 23
313.2408522494085
 33
0.0
  0
SOLID
  5
BDA
  8
DIMENSIONS
 62
     0
 10
422.1124439775606
 20
321.2408522494085
 30
0.0
 11
420.445777310894
 21
321.2408522494085
 31
0.0
 12
421.2791106442273
 22
326.2408522494085
 32
0.0
 13
421.2791106442273
 23
326.2408522494085
 33
0.0
  0
TEXT
  5
BDB
  8
DIMENSIONS
  6
CONTINUOUS
 62
     5
 10
418.8841106442273
 20
280.5358522494085
 30
0.0
 40
5.0
  1
13 [0.51]
 50
90.0
  0
POINT
  5
BDC
  8
DEFPOINTS
 62
     0
 10
446.6109226017614
 20
313.2408522494085
 30
0.0
  0
POINT
  5
BDD
  8
DEFPOINTS
 62
     0
 10
446.6109226017614
 20
326.2408522494085
 30
0.0
  0
POINT
  5
BDE
  8
DEFPOINTS
 62
     0
 10
421.2791106442273
 20
326.2408522494085
 30
0.0
  0
ENDBLK
  5
BD4
  8
0
  0
BLOCK
  8
0
  2
*D136
 70
     1
 10
0.0
 20
0.0
 30
0.0
  3
*D136
  1

  0
LINE
  5
BF0
  8
DIMENSIONS
  6
BYBLOCK
 62
     0
 10
129.6109226017614
 20
327.7408522494085
 30
0.0
 11
129.6109226017614
 21
375.0944512781105
 31
0.0
  0
LINE
  5
BF1
  8
DIMENSIONS
  6
BYBLOCK
 62
     0
 10
649.6109226017614
 20
327.7408522494085
 30
0.0
 11
649.6109226017614
 21
375.0944512781105
 31
0.0
  0
LINE
  5
BF2
  8
DIMENSIONS
  6
BYBLOCK
 62
     0
 10
134.6109226017614
 20
374.9144512781104
 30
0.0
 11
644.6109226017614
 21
374.9144512781104
 31
0.0
  0
SOLID
  5
BF3
  8
DIMENSIONS
 62
     0
 10
134.6109226017614
 20
375.7477846114438
 30
0.0
 11
134.6109226017614
 21
374.0811179447771
 31
0.0
 12
129.6109226017614
 22
374.9144512781104
 32
0.0
 13
129.6109226017614
 23
374.9144512781104
 33
0.0
  0
SOLID
  5
BF4
  8
DIMENSIONS
 62
     0
 10
644.6109226017614
 20
374.0811179447771
 30
0.0
 11
644.6109226017614
 21
375.7477846114438
 31
0.0
 12
649.6109226017614
 22
374.9144512781104
 32
0.0
 13
649.6109226017614
 23
374.9144512781104
 33
0.0
  0
TEXT
  5
BF5
  8
DIMENSIONS
  6
CONTINUOUS
 62
     5
 10
372.2334226017614
 20
377.3094512781104
 30
0.0
 40
5.0
  1
520 [20.47]
  0
POINT
  5
BF6
  8
DEFPOINTS
 62
     0
 10
129.6109226017614
 20
326.2408522494085
 30
0.0
  0
POINT
  5
BF7
  8
DEFPOINTS
 62
     0
 10
649.6109226017614
 20
326.2408522494085
 30
0.0
  0
POINT
  5
BF8
  8
DEFPOINTS
 62
     0
 10
649.6109226017614
 20
374.9144512781104
 30
0.0
  0
ENDBLK
  5
BEF
  8
0
  0
ENDSEC
  0
SECTION
  2
ENTITIES
  0
TEXT
  5
698
  8
DIMENSIONS
  6
BYBLOCK
 10
146.4151952607826
 20
-71.42951651883799
 30
0.0
 40
5.0
  1
Note:
  0
TEXT
  5
699
  8
DIMENSIONS
  6
BYBLOCK
 10
146.5491213010681
 20
-81.95848436683104
 30
0.0
 40
5.0
  1
Primary dimensions in millimeters.
  0
TEXT
  5
69A
  8
DIMENSIONS
  6
BYBLOCK
 10
146.7705352374581
 20
-92.53050997561512
 30
0.0
 40
5.0
  1
Secondary dimensions in inches.
  0
LINE
  5
AA5
  8
0
  6
CONTINUOUS
 62
     7
 10
234.6109226017614
 20
136.2408522494086
 30
0.0
 11
234.6109226017614
 21
316.2408522494086
 31
0.0
  0
LINE
  5
AA6
  8
0
  6
CONTINUOUS
 62
     7
 10
304.6109226017614
 20
316.2408522494086
 30
0.0
 11
304.6109226017614
 21
136.2408522494086
 31
0.0
  0
LINE
  5
AA7
  8
0
  6
CONTINUOUS
 62
     7
 10
304.6109226017614
 20
136.2408522494086
 30
0.0
 11
234.6109226017614
 21
136.2408522494086
 31
0.0
  0
LINE
  5
AA8
  8
0
  6
CONTINUOUS
 62
     7
 10
631.6109226017614
 20
188.2408522494086
 30
0.0
 11
446.6109226017614
 21
188.2408522494086
 31
0.0
  0
LINE
  5
AA9
  8
0
  6
CONTINUOUS
 62
     7
 10
446.6109226017614
 20
313.2408522494085
 30
0.0
 11
631.6109226017614
 21
313.2408522494085
 31
0.0
  0
LINE
  5
AAA
  8
0
  6
CONTINUOUS
 62
     7
 10
234.6109226017614
 20
316.2408522494086
 30
0.0
 11
304.6109226017614
 21
316.2408522494086
 31
0.0
  0
LINE
  5
AAB
  8
0
  6
CONTINUOUS
 62
     7
 10
631.6109226017614
 20
313.2408522494085
 30
0.0
 11
631.6109226017614
 21
188.2408522494086
 31
0.0
  0
CIRCLE
  5
AAC
  8
0
  6
CONTINUOUS
 62
     7
 10
142.6109226017614
 20
-0.7591477505913584
 30
0.0
 40
3.5
  0
CIRCLE
  5
AAD
  8
0
  6
CONTINUOUS
 62
     7
 10
142.6109226017614
 20
313.2408522494085
 30
0.0
 40
3.5
  0
CIRCLE
  5
AAE
  8
0
  6
CONTINUOUS
 62
     7
 10
389.6109226017614
 20
-0.7591477505913584
 30
0.0
 40
3.5
  0
CIRCLE
  5
AAF
  8
0
  6
CONTINUOUS
 62
     7
 10
389.6109226017614
 20
313.2408522494085
 30
0.0
 40
3.5
  0
CIRCLE
  5
AB0
  8
0
  6
CONTINUOUS
 62
     7
 10
636.6109226017614
 20
-0.7591477505913584
 30
0.0
 40
3.5
  0
CIRCLE
  5
AB1
  8
0
  6
CONTINUOUS
 62
     7
 10
636.6109226017614
 20
313.2408522494085
 30
0.0
 40
3.5
  0
LINE
  5
AB2
  8
0
 10
129.6109226017614
 20
-13.75914775059135
 30
0.0
 11
129.6109226017614
 21
326.2408522494085
 31
0.0
  0
LINE
  5
AB3
  8
0
 10
129.6109226017614
 20
326.2408522494085
 30
0.0
 11
649.6109226017614
 21
326.2408522494085
 31
0.0
  0
LINE
  5
AB4
  8
0
 10
649.6109226017614
 20
326.2408522494085
 30
0.0
 11
649.6109226017614
 21
-13.75914775059135
 31
0.0
  0
LINE
  5
AB5
  8
0
 10
129.6109226017614
 20
-13.75914775059135
 30
0.0
 11
649.6109226017614
 21
-13.75914775059135
 31
0.0
  0
LINE
  5
AB6
  8
0
 10
446.6109226017614
 20
313.2408522494085
 30
0.0
 11
446.6109226017614
 21
188.2408522494086
 31
0.0
  0
DIMENSION
  5
AB7
  8
DIMENSIONS
  6
BYBLOCK
  2
*D117
 10
234.6109226017614
 20
342.1772632791608
 30
0.0
 11
182.1109226017614
 21
346.3797632791608
 31
0.0
 70
    32
  3
DUAL-DIM
 13
129.6109226017614
 23
326.2408522494085
 33
0.0
 14
234.6109226017614
 24
316.2408522494086
 34
0.0
1001
ACAD
1000
DSTYLE
1002
{
1070
   287
1070
     5
1070
   279
1070
     2
1002
}
  0
DIMENSION
  5
AC6
  8
DIMENSIONS
  6
BYBLOCK
  2
*D118
 10
304.6109226017614
 20
342.1772632791608
 30
0.0
 11
269.6109226017614
 21
346.3797632791608
 31
0.0
 70
    32
  3
DUAL-DIM
 13
234.6109226017614
 23
316.2408522494086
 33
0.0
 14
304.6109226017614
 24
316.2408522494086
 34
0.0
1001
ACAD
1000
DSTYLE
1002
{
1070
   287
1070
     5
1070
   279
1070
     2
1002
}
  0
DIMENSION
  5
AD5
  8
DIMENSIONS
  6
BYBLOCK
  2
*D119
 10
446.6109226017614
 20
342.1772632791608
 30
0.0
 11
375.6109226017614
 21
346.3797632791608
 31
0.0
 70
    32
  3
DUAL-DIM
 13
304.6109226017614
 23
316.2408522494086
 33
0.0
 14
446.6109226017614
 24
313.2408522494085
 34
0.0
1001
ACAD
1000
DSTYLE
1002
{
1070
   287
1070
     5
1070
   279
1070
     2
1002
}
  0
DIMENSION
  5
AE4
  8
DIMENSIONS
  6
BYBLOCK
  2
*D120
 10
631.6109226017614
 20
342.1772632791608
 30
0.0
 11
539.1109226017614
 21
346.3797632791608
 31
0.0
 70
    32
  3
DUAL-DIM
 13
446.6109226017614
 23
313.2408522494085
 33
0.0
 14
631.6109226017614
 24
313.2408522494085
 34
0.0
1001
ACAD
1000
DSTYLE
1002
{
1070
   287
1070
     5
1070
   279
1070
     2
1002
}
  0
DIMENSION
  5
AF3
  8
DIMENSIONS
  6
BYBLOCK
  2
*D121
 10
649.6109226017614
 20
356.0875980413222
 30
0.0
 11
612.6384226017615
 21
356.0875980413222
 31
0.0
 70
   160
  3
DUAL-DIM
 13
631.6109226017614
 23
313.2408522494085
 33
0.0
 14
649.6109226017614
 24
326.2408522494085
 34
0.0
1001
ACAD
1000
DSTYLE
1002
{
1070
   287
1070
     3
1070
   279
1070
     0
1002
}
  0
DIMENSION
  5
B02
  8
DIMENSIONS
  6
BYBLOCK
  2
*D122
 10
142.6109226017614
 20
-44.23206726994549
 30
0.0
 11
161.5834226017614
 21
-44.23206726994549
 31
0.0
 70
   160
  3
DUAL-DIM
 13
129.6109226017614
 23
-13.75914775059135
 33
0.0
 14
142.6109226017614
 24
-0.7591477505913584
 34
0.0
1001
ACAD
1000
DSTYLE
1002
{
1070
   287
1070
     3
1070
   279
1070
     0
1002
}
  0
DIMENSION
  5
B11
  8
DIMENSIONS
  6
BYBLOCK
  2
*D123
 10
389.6109226017614
 20
-29.25798462626206
 30
0.0
 11
266.1109226017614
 21
-25.05548462626206
 31
0.0
 70
    32
  3
DUAL-DIM
 13
142.6109226017614
 23
-0.7591477505913584
 33
0.0
 14
389.6109226017614
 24
-0.7591477505913584
 34
0.0
1001
ACAD
1000
DSTYLE
1002
{
1070
   287
1070
     5
1070
   279
1070
     2
1002
}
  0
DIMENSION
  5
B21
  8
DIMENSIONS
  6
BYBLOCK
  2
*D124
 10
636.6109226017614
 20
-29.25798462626206
 30
0.0
 11
513.1109226017614
 21
-25.05548462626206
 31
0.0
 70
    32
  3
DUAL-DIM
 13
389.6109226017614
 23
-0.7591477505913584
 33
0.0
 14
636.6109226017614
 24
-0.7591477505913584
 34
0.0
1001
ACAD
1000
DSTYLE
1002
{
1070
   287
1070
     5
1070
   279
1070
     2
1002
}
  0
DIMENSION
  5
B30
  8
DIMENSIONS
  6
BYBLOCK
  2
*D125
 10
649.6109226017614
 20
-42.47224036639071
 30
0.0
 11
617.6384226017615
 21
-42.47224036639071
 31
0.0
 70
   160
  3
DUAL-DIM
 13
636.6109226017614
 23
-0.7591477505913584
 33
0.0
 14
649.6109226017614
 24
-13.75914775059135
 34
0.0
1001
ACAD
1000
DSTYLE
1002
{
1070
   287
1070
     3
1070
   279
1070
     0
1002
}
  0
DIMENSION
  5
B3F
  8
DIMENSIONS
  6
BYBLOCK
  2
*D126
 10
95.63133588049241
 20
-13.75914775059135
 30
0.0
 11
91.42883588049244
 21
156.2408522494086
 31
0.0
 70
    32
  3
DUAL-DIM
 13
129.6109226017614
 23
326.2408522494085
 33
0.0
 14
129.6109226017614
 24
-13.75914775059135
 34
0.0
 50
90.0
1001
ACAD
1000
DSTYLE
1002
{
1070
   287
1070
     5
1070
   279
1070
     2
1002
}
  0
DIMENSION
  5
B4E
  8
DIMENSIONS
  6
BYBLOCK
  2
*D127
 10
113.0351265931538
 20
313.2408522494085
 30
0.0
 11
108.8326265931538
 21
156.2408522494086
 31
0.0
 70
    32
  3
DUAL-DIM
 13
142.6109226017614
 23
-0.7591477505913584
 33
0.0
 14
142.6109226017614
 24
313.2408522494085
 34
0.0
 50
90.0
1001
ACAD
1000
DSTYLE
1002
{
1070
   287
1070
     5
1070
   279
1070
     2
1002
}
  0
DIMENSION
  5
B5D
  8
DIMENSIONS
  6
BYBLOCK
  2
*D128
 10
212.0573239147204
 20
326.2408522494085
 30
0.0
 11
212.0573239147204
 21
291.8698107026053
 31
0.0
 70
   160
  3
DUAL-DIM
 13
234.6109226017614
 23
316.2408522494086
 33
0.0
 14
234.6109226017614
 24
326.2408522494085
 34
0.0
 50
90.0
1001
ACAD
1000
DSTYLE
1002
{
1070
   287
1070
     3
1070
   279
1070
     0
1002
}
  0
DIMENSION
  5
B6D
  8
DIMENSIONS
  6
BYBLOCK
  2
*D129
 10
223.7107127298132
 20
136.2408522494086
 30
0.0
 11
219.5082127298132
 21
226.2408522494086
 31
0.0
 70
    32
  3
DUAL-DIM
 13
234.6109226017614
 23
316.2408522494086
 33
0.0
 14
234.6109226017614
 24
136.2408522494086
 34
0.0
 50
90.0
1001
ACAD
1000
DSTYLE
1002
{
1070
   287
1070
     5
1070
   279
1070
     2
1002
}
  0
DIMENSION
  5
B7C
  8
DIMENSIONS
  6
BYBLOCK
  2
*D130
 10
223.7107127298132
 20
-13.75914775059135
 30
0.0
 11
219.5082127298132
 21
61.24085224940865
 31
0.0
 70
    32
  3
DUAL-DIM
 13
234.6109226017614
 23
136.2408522494086
 33
0.0
 14
234.6109226017614
 24
-13.75914775059135
 34
0.0
 50
90.0
1001
ACAD
1000
DSTYLE
1002
{
1070
   287
1070
     5
1070
   279
1070
     2
1002
}
  0
DIMENSION
  5
B9A
  8
DIMENSIONS
  6
BYBLOCK
  2
*D132
 10
434.0697521184223
 20
188.2408522494086
 30
0.0
 11
429.8672521184224
 21
250.7408522494086
 31
0.0
 70
    32
  3
DUAL-DIM
 13
446.6109226017614
 23
313.2408522494085
 33
0.0
 14
446.6109226017614
 24
188.2408522494086
 34
0.0
 50
90.0
1001
ACAD
1000
DSTYLE
1002
{
1070
   287
1070
     5
1070
   279
1070
     2
1002
}
  0
DIMENSION
  5
BA9
  8
DIMENSIONS
  6
BYBLOCK
  2
*D133
 10
434.0697521184223
 20
-13.75914775059135
 30
0.0
 11
429.8672521184224
 21
87.24085224940865
 31
0.0
 70
    32
  3
DUAL-DIM
 13
446.6109226017614
 23
188.2408522494086
 33
0.0
 14
446.6109226017614
 24
-13.75914775059135
 34
0.0
 50
90.0
1001
ACAD
1000
DSTYLE
1002
{
1070
   287
1070
     5
1070
   279
1070
     2
1002
}
  0
DIMENSION
  5
BB8
  8
DIMENSIONS
  6
BYBLOCK
  2
*D134
 10
640.110919146696
 20
-0.7542298805464196
 30
0.0
 11
600.7042587146732
 21
-0.8096004594657832
 31
0.0
 70
   163
  1
<>
  3
DUAL-DIM
 15
633.1109260568268
 25
-0.7640656206362506
 35
0.0
 40
0.0
1001
ACAD
1000
DSTYLE
1002
{
1070
   287
1070
     3
1070
   172
1070
     0
1070
   279
1070
     0
1002
}
1001
ACAD_DSTYLE_DIMRADIAL_EXT0
1070
   387
1070
     1
1070
   388
1040
0.0
1070
   390
1040
6.283185307179586
  0
DIMENSION
  5
BCF
  8
DIMENSIONS
  6
BYBLOCK
  2
*D135
 10
421.2791106442273
 20
326.2408522494085
 30
0.0
 11
421.2791106442273
 21
294.2683522494085
 31
0.0
 70
   160
  3
DUAL-DIM
 13
446.6109226017614
 23
313.2408522494085
 33
0.0
 14
446.6109226017614
 24
326.2408522494085
 34
0.0
 50
90.0
1001
ACAD
1000
DSTYLE
1002
{
1070
   287
1070
     3
1070
    74
1070
     0
1070
   279
1070
     0
1002
}
  0
POLYLINE
  5
BE1
  8
0
  6
BYBLOCK
 66
     1
 10
0.0
 20
0.0
 30
0.0
 70
     1
  0
VERTEX
  5
BFF
  8
0
  6
BYBLOCK
 10
52.39740896844955
 20
-112.992028484523
 30
0.0
  0
VERTEX
  5
C00
  8
0
  6
BYBLOCK
 10
52.39740896844955
 20
413.8231233731477
 30
0.0
  0
VERTEX
  5
C01
  8
0
  6
BYBLOCK
 10
706.9688238106787
 20
413.8231233731477
 30
0.0
  0
VERTEX
  5
C02
  8
0
  6
BYBLOCK
 10
706.9688238106787
 20
-112.992028484523
 30
0.0
  0
SEQEND
  5
C03
  8
0
  6
BYBLOCK
  0
DIMENSION
  5
BEA
  8
DIMENSIONS
  6
BYBLOCK
  2
*D136
 10
649.6109226017614
 20
374.9144512781104
 30
0.0
 11
389.6109226017614
 21
379.1169512781104
 31
0.0
 70
    32
  3
DUAL-DIM
 13
129.6109226017614
 23
326.2408522494085
 33
0.0
 14
649.6109226017614
 24
326.2408522494085
 34
0.0
1001
ACAD
1000
DSTYLE
1002
{
1070
   287
1070
     5
1070
   279
1070
     2
1002
}
  0
ENDSEC
  0
EOF
