  0
SECTION
  2
HEADER
  9
$ACADVER
  1
AC1009
  9
$DWGCODEPAGE
  3
ansi_1252
  9
$INSBASE
 10
0.0
 20
0.0
 30
0.0
  9
$EXTMIN
 10
15.69789006586018
 20
361.7356782435963
 30
0.0
  9
$EXTMAX
 10
818.057841650195
 20
1592.349100918956
 30
0.0
  9
$LIMMIN
 10
0.0
 20
0.0
  9
$LIMMAX
 10
594.0
 20
420.0
  9
$ORTHOMODE
 70
     0
  9
$REGENMODE
 70
     1
  9
$FILLMODE
 70
     1
  9
$QTEXTMODE
 70
     0
  9
$MIRRTEXT
 70
     1
  9
$DRAGMODE
 70
     2
  9
$LTSCALE
 40
32.67
  9
$OSMODE
 70
   511
  9
$ATTMODE
 70
     1
  9
$TEXTSIZE
 40
0.2
  9
$TRACEWID
 40
0.05
  9
$TEXTSTYLE
  7
STANDARD
  9
$CLAYER
  8
DIMENSIONS
  9
$CELTYPE
  6
BYBLOCK
  9
$CECOLOR
 62
   256
  9
$DIMSCALE
 40
1.0
  9
$DIMASZ
 40
5.0
  9
$DIMEXO
 40
1.5
  9
$DIMDLI
 40
1.0
  9
$DIMRND
 40
0.0
  9
$DIMDLE
 40
0.0
  9
$DIMEXE
 40
0.18
  9
$DIMTP
 40
0.0
  9
$DIMTM
 40
0.0
  9
$DIMTXT
 40
5.0
  9
$DIMCEN
 40
2.5
  9
$DIMTSZ
 40
0.0
  9
$DIMTOL
 70
     0
  9
$DIMLIM
 70
     0
  9
$DIMTIH
 70
     0
  9
$DIMTOH
 70
     0
  9
$DIMSE1
 70
     0
  9
$DIMSE2
 70
     0
  9
$DIMTAD
 70
     1
  9
$DIMZIN
 70
     8
  9
$DIMBLK
  1

  9
$DIMASO
 70
     1
  9
$DIMSHO
 70
     1
  9
$DIMPOST
  1

  9
$DIMAPOST
  1

  9
$DIMALT
 70
     1
  9
$DIMALTD
 70
     2
  9
$DIMALTF
 40
0.03937
  9
$DIMLFAC
 40
1.0
  9
$DIMTOFL
 70
     0
  9
$DIMTVP
 40
0.0
  9
$DIMTIX
 70
     0
  9
$DIMSOXD
 70
     0
  9
$DIMSAH
 70
     0
  9
$DIMBLK1
  1

  9
$DIMBLK2
  1

  9
$DIMSTYLE
  2
DUAL-DIM
  9
$DIMCLRD
 70
     0
  9
$DIMCLRE
 70
     0
  9
$DIMCLRT
 70
     5
  9
$DIMTFAC
 40
1.0
  9
$DIMGAP
 40
1.0
  9
$LUNITS
 70
     2
  9
$LUPREC
 70
     4
  9
$SKETCHINC
 40
0.1
  9
$FILLETRAD
 40
15.0
  9
$AUNITS
 70
     0
  9
$AUPREC
 70
     0
  9
$MENU
  1
.
  9
$ELEVATION
 40
0.0
  9
$PELEVATION
 40
0.0
  9
$THICKNESS
 40
0.0
  9
$LIMCHECK
 70
     0
  9
$CHAMFERA
 40
0.0
  9
$CHAMFERB
 40
0.0
  9
$SKPOLY
 70
     0
  9
$TDCREATE
 40
2457428.354677859
  9
$TDUPDATE
 40
2457438.425542037
  9
$TDINDWG
 40
0.1032403125
  9
$TDUSRTIMER
 40
2457438.38215103
  9
$USRTIMER
 70
     1
  9
$ANGBASE
 50
0.0
  9
$ANGDIR
 70
     0
  9
$PDMODE
 70
     3
  9
$PDSIZE
 40
0.3125
  9
$PLINEWID
 40
0.0
  9
$COORDS
 70
     2
  9
$SPLFRAME
 70
     0
  9
$SPLINETYPE
 70
     6
  9
$SPLINESEGS
 70
     8
  9
$ATTDIA
 70
     0
  9
$ATTREQ
 70
     1
  9
$HANDLING
 70
     1
  9
$HANDSEED
  5
2AEF
  9
$SURFTAB1
 70
     6
  9
$SURFTAB2
 70
     6
  9
$SURFTYPE
 70
     6
  9
$SURFU
 70
     6
  9
$SURFV
 70
     6
  9
$UCSNAME
  2

  9
$UCSORG
 10
0.0
 20
0.0
 30
0.0
  9
$UCSXDIR
 10
1.0
 20
0.0
 30
0.0
  9
$UCSYDIR
 10
0.0
 20
1.0
 30
0.0
  9
$PUCSNAME
  2

  9
$PUCSORG
 10
0.0
 20
0.0
 30
0.0
  9
$PUCSXDIR
 10
1.0
 20
0.0
 30
0.0
  9
$PUCSYDIR
 10
0.0
 20
1.0
 30
0.0
  9
$USERI1
 70
     0
  9
$USERI2
 70
     0
  9
$USERI3
 70
     0
  9
$USERI4
 70
     0
  9
$USERI5
 70
     0
  9
$USERR1
 40
0.0
  9
$USERR2
 40
0.0
  9
$USERR3
 40
0.0
  9
$USERR4
 40
0.0
  9
$USERR5
 40
0.0
  9
$WORLDVIEW
 70
     1
  9
$SHADEDGE
 70
     3
  9
$SHADEDIF
 70
    70
  9
$TILEMODE
 70
     1
  9
$MAXACTVP
 70
    64
  9
$PLIMCHECK
 70
     0
  9
$PEXTMIN
 10
1.05
 20
0.6999999999999997
 30
0.0
  9
$PEXTMAX
 10
9.45
 20
6.300000000000001
 30
0.0
  9
$PLIMMIN
 10
-0.25
 20
-0.7499999999999999
  9
$PLIMMAX
 10
10.75
 20
7.75
  9
$UNITMODE
 70
     0
  9
$VISRETAIN
 70
     1
  9
$PLINEGEN
 70
     0
  9
$PSLTSCALE
 70
     1
  0
ENDSEC
  0
SECTION
  2
TABLES
  0
TABLE
  2
VPORT
 70
     1
  0
VPORT
  2
*ACTIVE
 70
     0
 10
0.0
 20
0.0
 11
1.0
 21
1.0
 12
1215.257552153396
 22
1028.708924998911
 13
0.0
 23
0.0
 14
0.5
 24
0.5
 15
0.5
 25
0.5
 16
0.0
 26
0.0
 36
1.0
 17
0.0
 27
0.0
 37
0.0
 40
2187.223075458159
 41
2.450549450549451
 42
50.0
 43
0.0
 44
0.0
 50
0.0
 51
0.0
 71
    16
 72
   100
 73
     1
 74
     3
 75
     0
 76
     0
 77
     0
 78
     0
  0
ENDTAB
  0
TABLE
  2
LTYPE
 70
     7
  0
LTYPE
  2
CONTINUOUS
 70
     0
  3
Solid line
 72
    65
 73
     0
 40
0.0
  0
LTYPE
  2
CENTER
 70
     0
  3
____ _ ____ _ ____ _ ____ _ ____ _ ____ _ ____
 72
    65
 73
     4
 40
0.6
 49
0.375
 49
-0.075
 49
0.075
 49
-0.075
  0
LTYPE
  2
HIDDEN
 70
     0
  3
- - - - - - - - - - - - - - - - - - - -
 72
    65
 73
     2
 40
0.2
 49
0.1
 49
-0.1
  0
LTYPE
  2
PHANTOM
 70
     0
  3
_____ _ _ _____ _ _ _____ _ _ _____
 72
    65
 73
     6
 40
0.8
 49
0.45
 49
-0.05
 49
0.1
 49
-0.05
 49
0.1
 49
-0.05
  0
LTYPE
  2
DOT
 70
     0
  3
. . . . . . . . . . . . . . . . . . . .
 72
    65
 73
     2
 40
0.2
 49
0.1
 49
-0.1
  0
LTYPE
  2
DASHED
 70
     0
  3
- - - - - - - - - - - - - - - - - - - -
 72
    65
 73
     2
 40
0.2
 49
0.1
 49
-0.1
  0
LTYPE
  2
STRICHPUNKT
 70
     0
  3
__ . __ . __ . __ . __ . __ . __ . __ . __ . __
 72
    65
 73
     4
 40
1.0
 49
0.5
 49
-0.25
 49
0.0
 49
-0.25
  0
ENDTAB
  0
TABLE
  2
LAYER
 70
    19
  0
LAYER
  2
0
 70
     0
 62
     7
  6
CONTINUOUS
  0
LAYER
  2
DEFAULT_1
 70
     0
 62
     7
  6
CENTER
  0
LAYER
  2
DEFAULT_2
 70
     0
 62
     7
  6
HIDDEN
  0
LAYER
  2
DEFAULT_3
 70
     0
 62
     7
  6
PHANTOM
  0
LAYER
  2
01___PRT_ALL_DTM_PLN
 70
     0
 62
     7
  6
CONTINUOUS
  0
LAYER
  2
01___PRT_DEF_DTM_PLN
 70
     0
 62
     7
  6
CONTINUOUS
  0
LAYER
  2
02___PRT_ALL_AXES
 70
     0
 62
     7
  6
CONTINUOUS
  0
LAYER
  2
03___PRT_ALL_CURVES
 70
     0
 62
     7
  6
CONTINUOUS
  0
LAYER
  2
04___PRT_ALL_DTM_PNT
 70
     0
 62
     7
  6
CONTINUOUS
  0
LAYER
  2
05___PRT_ALL_DTM_CSYS
 70
     0
 62
     7
  6
CONTINUOUS
  0
LAYER
  2
05___PRT_DEF_DTM_CSYS
 70
     0
 62
     7
  6
CONTINUOUS
  0
LAYER
  2
06___PRT_ALL_SURFS
 70
     0
 62
     7
  6
CONTINUOUS
  0
LAYER
  2
DEFPOINTS
 70
     0
 62
     7
  6
CONTINUOUS
  0
LAYER
  2
DIMENSIONS
 70
     0
 62
     2
  6
CONTINUOUS
  0
LAYER
  2
AM_5
 70
     0
 62
     3
  6
CONTINUOUS
  0
LAYER
  2
CUTOUT
 70
     0
 62
     7
  6
CONTINUOUS
  0
LAYER
  2
EXTERNAL_OUTFIT
 70
     0
 62
     7
  6
CENTER
  0
LAYER
  2
OUTLINES
 70
     0
 62
     4
  6
CONTINUOUS
  0
LAYER
  2
3
 70
     0
 62
     4
  6
CONTINUOUS
  0
ENDTAB
  0
TABLE
  2
STYLE
 70
     2
  0
STYLE
  2
STANDARD
 70
     0
 40
0.0
 41
1.0
 50
0.0
 71
     0
 42
0.2
  3
arial.ttf
  4

  0
STYLE
  2
TEXTSTYLE_1
 70
     0
 40
0.0
 41
0.8
 50
0.0
 71
     0
 42
0.2
  3
gdt
  4

  0
ENDTAB
  0
TABLE
  2
VIEW
 70
     0
  0
ENDTAB
  0
TABLE
  2
UCS
 70
     0
  0
ENDTAB
  0
TABLE
  2
APPID
 70
    10
  0
APPID
  2
ACAD
 70
     0
  0
APPID
  2
ACAECLAYERSTANDARD
 70
     0
  0
APPID
  2
ACAD_DSTYLE_DIMRADIAL_EXTE
 70
     0
  0
APPID
  2
ACAD_DSTYLE_DIMJOGGED_JOGA
 70
     0
  0
APPID
  2
ACAD_DSTYLE_DIMJAG
 70
     0
  0
APPID
  2
ACAD_DSTYLE_DIMBREAK
 70
     0
  0
APPID
  2
ACAD_PSEXT
 70
     0
  0
APPID
  2
ACAD_DSTYLE_DIMINSPECT
 70
     0
  0
APPID
  2
ACAD_DSTYLE_DIMRADIAL_EXT0
 70
     0
  0
APPID
  2
ACAD_DSTYLE_DIMJOGGED_JOG0
 70
     0
  0
ENDTAB
  0
TABLE
  2
DIMSTYLE
 70
     5
  0
DIMSTYLE
  2
STANDARD
 70
     0
  3

  4

  5

  6

  7

 40
1.0
 41
0.18
 42
0.0625
 43
0.38
 44
0.18
 45
0.0
 46
0.0
 47
0.0
 48
0.0
140
0.18
141
0.09
142
0.0
143
25.4
144
1.0
145
0.0
146
1.0
147
0.09
 71
     0
 72
     0
 73
     1
 74
     1
 75
     0
 76
     0
 77
     0
 78
     0
170
     0
171
     2
172
     0
173
     0
174
     0
175
     0
176
     0
177
     0
178
     0
  0
DIMSTYLE
  2
DUAL-DIM
 70
     0
  3

  4

  5

  6

  7

 40
1.0
 41
5.0
 42
1.5
 43
1.0
 44
0.18
 45
0.0
 46
0.0
 47
0.0
 48
0.0
140
5.0
141
2.5
142
0.0
143
0.03937
144
1.0
145
0.0
146
1.0
147
1.0
 71
     0
 72
     0
 73
     0
 74
     0
 75
     0
 76
     0
 77
     1
 78
     8
170
     1
171
     2
172
     0
173
     0
174
     0
175
     0
176
     0
177
     0
178
     5
  0
DIMSTYLE
  2
AM_ISO
 70
     0
  3

  4
"
  5

  6

  7

 40
1.0
 41
3.5
 42
1.0
 43
10.0
 44
1.0
 45
0.0
 46
0.0
 47
0.1
 48
0.1
140
3.5
141
0.0
142
0.0
143
0.0393701
144
1.0
145
0.0
146
0.71
147
1.5
 71
     0
 72
     0
 73
     0
 74
     0
 75
     0
 76
     0
 77
     1
 78
     8
170
     0
171
     2
172
     1
173
     0
174
     0
175
     0
176
   256
177
   256
178
     2
  0
DIMSTYLE
  2
AM_ISO$3
 70
     0
  3

  4
"
  5

  6

  7

 40
1.0
 41
3.5
 42
1.0
 43
10.0
 44
1.0
 45
0.0
 46
0.0
 47
0.1
 48
0.1
140
3.5
141
0.0
142
0.0
143
0.0393701
144
1.0
145
0.0
146
0.71
147
1.5
 71
     0
 72
     0
 73
     0
 74
     1
 75
     0
 76
     0
 77
     1
 78
     8
170
     0
171
     2
172
     0
173
     0
174
     0
175
     0
176
   256
177
   256
178
     2
  0
DIMSTYLE
  2
AM_ISO$0
 70
     0
  3

  4
"
  5

  6

  7

 40
1.0
 41
3.5
 42
1.0
 43
10.0
 44
1.0
 45
0.0
 46
0.0
 47
0.1
 48
0.1
140
3.5
141
0.0
142
0.0
143
0.0393701
144
1.0
145
0.0
146
0.71
147
1.5
 71
     0
 72
     0
 73
     0
 74
     0
 75
     0
 76
     0
 77
     1
 78
     8
170
     0
171
     2
172
     1
173
     0
174
     0
175
     0
176
   256
177
   256
178
     2
  0
ENDTAB
  0
ENDSEC
  0
SECTION
  2
BLOCKS
  0
BLOCK
  8
0
  2
$MODEL_SPACE
 70
     0
 10
0.0
 20
0.0
 30
0.0
  3
$MODEL_SPACE
  1

  0
ENDBLK
  5
110
  8
0
  0
BLOCK
 67
     1
  8
0
  2
$PAPER_SPACE
 70
     0
 10
0.0
 20
0.0
 30
0.0
  3
$PAPER_SPACE
  1

  0
ENDBLK
  5
112
 67
     1
  8
0
  0
BLOCK
  8
0
  2
_FILLED
 70
     0
 10
0.0
 20
0.0
 30
0.0
  3
_FILLED
  1

  0
SOLID
  5
3D
  8
0
  6
BYBLOCK
 62
     0
 10
0.0
 20
0.0
 30
0.0
 11
-1.0
 21
0.2
 31
0.0
 12
-1.0
 22
-0.2
 32
0.0
 13
-1.0
 23
-0.2
 33
0.0
  0
ENDBLK
  5
3E
  8
0
  6
BYBLOCK
 62
     0
  0
BLOCK
  8
0
  2
*X444
 70
     1
 10
0.0
 20
0.0
 30
0.0
  3
*X444
  1

  0
LINE
  5
28D4
  8
CUTOUT
 10
624.5000000000002
 20
624.5000000000002
 30
0.0
 11
656.9999999999999
 21
657.0
 31
0.0
  0
LINE
  5
28D5
  8
CUTOUT
 10
624.5000000000002
 20
549.3699044989296
 30
0.0
 11
732.1300955010705
 21
657.0
 31
0.0
  0
LINE
  5
28D6
  8
CUTOUT
 10
675.2601910021415
 20
525.0000000000002
 30
0.0
 11
807.2601910021413
 21
657.0
 31
0.0
  0
LINE
  5
28D7
  8
CUTOUT
 10
750.3902865032121
 20
525.0000000000002
 30
0.0
 11
882.3902865032119
 21
657.0
 31
0.0
  0
LINE
  5
28D8
  8
CUTOUT
 10
825.5203820042829
 20
525.0000000000002
 30
0.0
 11
956.5000000000002
 21
655.9796179957177
 31
0.0
  0
LINE
  5
28D9
  8
CUTOUT
 10
553.5000000000002
 20
177.8495224946469
 30
0.0
 11
607.6504775053536
 21
232.0000000000002
 31
0.0
  0
LINE
  5
28DA
  8
CUTOUT
 10
900.6504775053535
 20
525.0000000000002
 30
0.0
 11
956.5000000000002
 21
580.849522494647
 31
0.0
  0
LINE
  5
28DB
  8
CUTOUT
 10
553.5000000000002
 20
102.7194269935762
 30
0.0
 11
682.7805730064242
 21
232.0000000000002
 31
0.0
  0
LINE
  5
28DC
  8
CUTOUT
 10
572.9106685074948
 20
47.00000000000023
 30
0.0
 11
757.9106685074948
 21
232.0000000000002
 31
0.0
  0
LINE
  5
28DD
  8
CUTOUT
 10
648.0407640085656
 20
47.00000000000023
 30
0.0
 11
833.0407640085656
 21
232.0000000000002
 31
0.0
  0
LINE
  5
28DE
  8
CUTOUT
 10
723.1708595096363
 20
47.00000000000028
 30
0.0
 11
908.1708595096362
 21
232.0000000000003
 31
0.0
  0
LINE
  5
28DF
  8
CUTOUT
 10
798.300955010707
 20
47.00000000000028
 30
0.0
 11
956.5000000000002
 21
205.1990449892936
 31
0.0
  0
LINE
  5
28E0
  8
CUTOUT
 10
873.4310505117776
 20
47.00000000000023
 30
0.0
 11
956.5000000000002
 21
130.0689494882229
 31
0.0
  0
LINE
  5
28E1
  8
CUTOUT
 10
948.5611460128483
 20
47.00000000000028
 30
0.0
 11
956.5000000000002
 21
54.93885398715219
 31
0.0
  0
ENDBLK
  5
28E2
  8
0
  0
BLOCK
  8
0
  2
*D445
 70
     1
 10
0.0
 20
0.0
 30
0.0
  3
*D445
  1

  0
LINE
  5
2903
  8
DIMENSIONS
  6
BYBLOCK
 62
     0
 10
250.0309386341544
 20
1485.117208669808
 30
0.0
 11
250.0309386341544
 21
1514.423111871768
 31
0.0
  0
LINE
  5
2904
  8
DIMENSIONS
  6
BYBLOCK
 62
     0
 10
606.5309386341545
 20
1485.117208669807
 30
0.0
 11
606.5309386341545
 21
1514.423111871768
 31
0.0
  0
LINE
  5
2905
  8
DIMENSIONS
  6
BYBLOCK
 62
     0
 10
255.0309386341544
 20
1514.243111871767
 30
0.0
 11
601.5309386341545
 21
1514.243111871767
 31
0.0
  0
SOLID
  5
2906
  8
DIMENSIONS
 62
     0
 10
255.0309386341544
 20
1515.076445205101
 30
0.0
 11
255.0309386341544
 21
1513.409778538434
 31
0.0
 12
250.0309386341544
 22
1514.243111871767
 32
0.0
 13
250.0309386341544
 23
1514.243111871767
 33
0.0
  0
SOLID
  5
2907
  8
DIMENSIONS
 62
     0
 10
601.5309386341545
 20
1513.409778538434
 30
0.0
 11
601.5309386341545
 21
1515.076445205101
 31
0.0
 12
606.5309386341545
 22
1514.243111871767
 32
0.0
 13
606.5309386341545
 23
1514.243111871767
 33
0.0
  0
TEXT
  5
2908
  8
DIMENSIONS
  6
CONTINUOUS
 62
     5
 10
407.9909386341544
 20
1516.638111871768
 30
0.0
 40
5.0
  1
356.5 [14.04]
  0
POINT
  5
2909
  8
DEFPOINTS
 62
     0
 10
250.0309386341544
 20
1483.617208669808
 30
0.0
  0
POINT
  5
290A
  8
DEFPOINTS
 62
     0
 10
606.5309386341545
 20
1483.617208669807
 30
0.0
  0
POINT
  5
290B
  8
DEFPOINTS
 62
     0
 10
606.5309386341545
 20
1514.243111871767
 30
0.0
  0
ENDBLK
  5
2902
  8
0
  0
BLOCK
  8
0
  2
*D446
 70
     1
 10
0.0
 20
0.0
 30
0.0
  3
*D446
  1

  0
LINE
  5
2912
  8
DIMENSIONS
  6
BYBLOCK
 62
     0
 10
661.5309386341544
 20
1475.117208669807
 30
0.0
 11
661.5309386341544
 21
1534.657229923282
 31
0.0
  0
LINE
  5
2913
  8
DIMENSIONS
  6
BYBLOCK
 62
     0
 10
195.0309386341544
 20
1475.117208669807
 30
0.0
 11
195.0309386341544
 21
1534.657229923282
 31
0.0
  0
LINE
  5
2914
  8
DIMENSIONS
  6
BYBLOCK
 62
     0
 10
656.5309386341544
 20
1534.477229923282
 30
0.0
 11
200.0309386341544
 21
1534.477229923282
 31
0.0
  0
SOLID
  5
2915
  8
DIMENSIONS
 62
     0
 10
656.5309386341544
 20
1533.643896589948
 30
0.0
 11
656.5309386341544
 21
1535.310563256615
 31
0.0
 12
661.5309386341544
 22
1534.477229923282
 32
0.0
 13
661.5309386341544
 23
1534.477229923282
 33
0.0
  0
SOLID
  5
2916
  8
DIMENSIONS
 62
     0
 10
200.0309386341544
 20
1535.310563256615
 30
0.0
 11
200.0309386341544
 21
1533.643896589948
 31
0.0
 12
195.0309386341544
 22
1534.477229923282
 32
0.0
 13
195.0309386341544
 23
1534.477229923282
 33
0.0
  0
TEXT
  5
2917
  8
DIMENSIONS
  6
CONTINUOUS
 62
     5
 10
408.0934386341544
 20
1536.872229923282
 30
0.0
 40
5.0
  1
466.5 [18.37]
  0
POINT
  5
2918
  8
DEFPOINTS
 62
     0
 10
661.5309386341544
 20
1473.617208669807
 30
0.0
  0
POINT
  5
2919
  8
DEFPOINTS
 62
     0
 10
195.0309386341544
 20
1473.617208669807
 30
0.0
  0
POINT
  5
291A
  8
DEFPOINTS
 62
     0
 10
195.0309386341544
 20
1534.477229923282
 30
0.0
  0
ENDBLK
  5
2911
  8
0
  0
BLOCK
  8
0
  2
*D447
 70
     1
 10
0.0
 20
0.0
 30
0.0
  3
*D447
  1

  0
LINE
  5
2921
  8
DIMENSIONS
  6
BYBLOCK
 62
     0
 10
681.5309386341544
 20
1495.117208669807
 30
0.0
 11
681.5309386341544
 21
1554.358871183966
 31
0.0
  0
LINE
  5
2922
  8
DIMENSIONS
  6
BYBLOCK
 62
     0
 10
175.0309386341547
 20
1495.117208669807
 30
0.0
 11
175.0309386341547
 21
1554.358871183966
 31
0.0
  0
LINE
  5
2923
  8
DIMENSIONS
  6
BYBLOCK
 62
     0
 10
676.5309386341544
 20
1554.178871183966
 30
0.0
 11
180.0309386341547
 21
1554.178871183966
 31
0.0
  0
SOLID
  5
2924
  8
DIMENSIONS
 62
     0
 10
676.5309386341544
 20
1553.345537850633
 30
0.0
 11
676.5309386341544
 21
1555.0122045173
 31
0.0
 12
681.5309386341544
 22
1554.178871183966
 32
0.0
 13
681.5309386341544
 23
1554.178871183966
 33
0.0
  0
SOLID
  5
2925
  8
DIMENSIONS
 62
     0
 10
180.0309386341547
 20
1555.0122045173
 30
0.0
 11
180.0309386341547
 21
1553.345537850633
 31
0.0
 12
175.0309386341547
 22
1554.178871183966
 32
0.0
 13
175.0309386341547
 23
1554.178871183966
 33
0.0
  0
TEXT
  5
2926
  8
DIMENSIONS
  6
CONTINUOUS
 62
     5
 10
407.9934386341545
 20
1556.573871183967
 30
0.0
 40
5.0
  1
506.5 [19.94]
  0
POINT
  5
2927
  8
DEFPOINTS
 62
     0
 10
681.5309386341544
 20
1493.617208669807
 30
0.0
  0
POINT
  5
2928
  8
DEFPOINTS
 62
     0
 10
175.0309386341547
 20
1493.617208669807
 30
0.0
  0
POINT
  5
2929
  8
DEFPOINTS
 62
     0
 10
175.0309386341547
 20
1554.178871183966
 30
0.0
  0
ENDBLK
  5
2920
  8
0
  0
BLOCK
  8
0
  2
*D448
 70
     1
 10
0.0
 20
0.0
 30
0.0
  3
*D448
  1

  0
LINE
  5
2930
  8
DIMENSIONS
  6
BYBLOCK
 62
     0
 10
292.5309386341546
 20
1087.117208669807
 30
0.0
 11
292.5309386341546
 21
1105.19944758635
 31
0.0
  0
LINE
  5
2931
  8
DIMENSIONS
  6
BYBLOCK
 62
     0
 10
195.0309386341544
 20
1087.117208669807
 30
0.0
 11
195.0309386341544
 21
1105.19944758635
 31
0.0
  0
LINE
  5
2932
  8
DIMENSIONS
  6
BYBLOCK
 62
     0
 10
287.5309386341546
 20
1105.01944758635
 30
0.0
 11
200.0309386341544
 21
1105.01944758635
 31
0.0
  0
SOLID
  5
2933
  8
DIMENSIONS
 62
     0
 10
287.5309386341546
 20
1104.186114253017
 30
0.0
 11
287.5309386341546
 21
1105.852780919683
 31
0.0
 12
292.5309386341546
 22
1105.01944758635
 32
0.0
 13
292.5309386341546
 23
1105.01944758635
 33
0.0
  0
SOLID
  5
2934
  8
DIMENSIONS
 62
     0
 10
200.0309386341544
 20
1105.852780919683
 30
0.0
 11
200.0309386341544
 21
1104.186114253017
 31
0.0
 12
195.0309386341544
 22
1105.01944758635
 32
0.0
 13
195.0309386341544
 23
1105.01944758635
 33
0.0
  0
TEXT
  5
2935
  8
DIMENSIONS
  6
CONTINUOUS
 62
     5
 10
227.3734386341545
 20
1107.41444758635
 30
0.0
 40
5.0
  1
97.5 [3.84]
  0
POINT
  5
2936
  8
DEFPOINTS
 62
     0
 10
292.5309386341546
 20
1085.617208669807
 30
0.0
  0
POINT
  5
2937
  8
DEFPOINTS
 62
     0
 10
195.0309386341544
 20
1085.617208669807
 30
0.0
  0
POINT
  5
2938
  8
DEFPOINTS
 62
     0
 10
195.0309386341544
 20
1105.01944758635
 30
0.0
  0
ENDBLK
  5
292F
  8
0
  0
BLOCK
  8
0
  2
*D449
 70
     1
 10
0.0
 20
0.0
 30
0.0
  3
*D449
  1

  0
LINE
  5
293F
  8
DIMENSIONS
  6
BYBLOCK
 62
     0
 10
292.5309386341546
 20
1087.117208669807
 30
0.0
 11
292.5309386341546
 21
1105.19944758635
 31
0.0
  0
LINE
  5
2940
  8
DIMENSIONS
  6
BYBLOCK
 62
     0
 10
624.5309386341546
 20
1087.117208669807
 30
0.0
 11
624.5309386341546
 21
1105.19944758635
 31
0.0
  0
LINE
  5
2941
  8
DIMENSIONS
  6
BYBLOCK
 62
     0
 10
297.5309386341546
 20
1105.01944758635
 30
0.0
 11
619.5309386341546
 21
1105.01944758635
 31
0.0
  0
SOLID
  5
2942
  8
DIMENSIONS
 62
     0
 10
297.5309386341546
 20
1105.852780919683
 30
0.0
 11
297.5309386341546
 21
1104.186114253017
 31
0.0
 12
292.5309386341546
 22
1105.01944758635
 32
0.0
 13
292.5309386341546
 23
1105.01944758635
 33
0.0
  0
SOLID
  5
2943
  8
DIMENSIONS
 62
     0
 10
619.5309386341546
 20
1104.186114253017
 30
0.0
 11
619.5309386341546
 21
1105.852780919683
 31
0.0
 12
624.5309386341546
 22
1105.01944758635
 32
0.0
 13
624.5309386341546
 23
1105.01944758635
 33
0.0
  0
TEXT
  5
2944
  8
DIMENSIONS
  6
CONTINUOUS
 62
     5
 10
441.1509386341546
 20
1107.41444758635
 30
0.0
 40
5.0
  1
332 [13.07]
  0
POINT
  5
2945
  8
DEFPOINTS
 62
     0
 10
292.5309386341546
 20
1085.617208669807
 30
0.0
  0
POINT
  5
2946
  8
DEFPOINTS
 62
     0
 10
624.5309386341546
 20
1085.617208669807
 30
0.0
  0
POINT
  5
2947
  8
DEFPOINTS
 62
     0
 10
624.5309386341546
 20
1105.01944758635
 30
0.0
  0
ENDBLK
  5
293E
  8
0
  0
BLOCK
  8
0
  2
*D450
 70
     1
 10
0.0
 20
0.0
 30
0.0
  3
*D450
  1

  0
LINE
  5
294E
  8
DIMENSIONS
  6
BYBLOCK
 62
     0
 10
624.5309386341546
 20
1087.117208669807
 30
0.0
 11
624.5309386341546
 21
1105.19944758635
 31
0.0
  0
LINE
  5
294F
  8
DIMENSIONS
  6
BYBLOCK
 62
     0
 10
661.5309386341544
 20
1087.117208669807
 30
0.0
 11
661.5309386341544
 21
1105.19944758635
 31
0.0
  0
LINE
  5
2950
  8
DIMENSIONS
  6
BYBLOCK
 62
     0
 10
629.5309386341546
 20
1105.01944758635
 30
0.0
 11
656.5309386341544
 21
1105.01944758635
 31
0.0
  0
SOLID
  5
2951
  8
DIMENSIONS
 62
     0
 10
629.5309386341546
 20
1105.852780919683
 30
0.0
 11
629.5309386341546
 21
1104.186114253017
 31
0.0
 12
624.5309386341546
 22
1105.01944758635
 32
0.0
 13
624.5309386341546
 23
1105.01944758635
 33
0.0
  0
SOLID
  5
2952
  8
DIMENSIONS
 62
     0
 10
656.5309386341544
 20
1104.186114253017
 30
0.0
 11
656.5309386341544
 21
1105.852780919683
 31
0.0
 12
661.5309386341544
 22
1105.01944758635
 32
0.0
 13
661.5309386341544
 23
1105.01944758635
 33
0.0
  0
TEXT
  5
2953
  8
DIMENSIONS
  6
CONTINUOUS
 62
     5
 10
629.5309386341545
 20
1107.41444758635
 30
0.0
 40
5.0
  1
37 [1.46]
  0
POINT
  5
2954
  8
DEFPOINTS
 62
     0
 10
624.5309386341546
 20
1085.617208669807
 30
0.0
  0
POINT
  5
2955
  8
DEFPOINTS
 62
     0
 10
661.5309386341544
 20
1085.617208669807
 30
0.0
  0
POINT
  5
2956
  8
DEFPOINTS
 62
     0
 10
661.5309386341544
 20
1105.01944758635
 30
0.0
  0
ENDBLK
  5
294D
  8
0
  0
BLOCK
  8
0
  2
*D451
 70
     1
 10
0.0
 20
0.0
 30
0.0
  3
*D451
  1

  0
LINE
  5
295D
  8
DIMENSIONS
  6
BYBLOCK
 62
     0
 10
624.5309386341546
 20
662.1172086698066
 30
0.0
 11
624.5309386341546
 21
678.4295731508563
 31
0.0
  0
LINE
  5
295E
  8
DIMENSIONS
  6
BYBLOCK
 62
     0
 10
661.5309386341544
 20
662.1172086698066
 30
0.0
 11
661.5309386341544
 21
678.4295731508563
 31
0.0
  0
LINE
  5
295F
  8
DIMENSIONS
  6
BYBLOCK
 62
     0
 10
629.5309386341546
 20
678.2495731508563
 30
0.0
 11
656.5309386341544
 21
678.2495731508563
 31
0.0
  0
SOLID
  5
2960
  8
DIMENSIONS
 62
     0
 10
629.5309386341546
 20
679.0829064841897
 30
0.0
 11
629.5309386341546
 21
677.416239817523
 31
0.0
 12
624.5309386341546
 22
678.2495731508563
 32
0.0
 13
624.5309386341546
 23
678.2495731508563
 33
0.0
  0
SOLID
  5
2961
  8
DIMENSIONS
 62
     0
 10
656.5309386341544
 20
677.416239817523
 30
0.0
 11
656.5309386341544
 21
679.0829064841897
 31
0.0
 12
661.5309386341544
 22
678.2495731508563
 32
0.0
 13
661.5309386341544
 23
678.2495731508563
 33
0.0
  0
TEXT
  5
2962
  8
DIMENSIONS
  6
CONTINUOUS
 62
     5
 10
629.5309386341545
 20
680.6445731508563
 30
0.0
 40
5.0
  1
37 [1.46]
  0
POINT
  5
2963
  8
DEFPOINTS
 62
     0
 10
624.5309386341546
 20
660.6172086698066
 30
0.0
  0
POINT
  5
2964
  8
DEFPOINTS
 62
     0
 10
661.5309386341544
 20
660.6172086698066
 30
0.0
  0
POINT
  5
2965
  8
DEFPOINTS
 62
     0
 10
661.5309386341544
 20
678.2495731508563
 30
0.0
  0
ENDBLK
  5
295C
  8
0
  0
BLOCK
  8
0
  2
*D452
 70
     1
 10
0.0
 20
0.0
 30
0.0
  3
*D452
  1

  0
LINE
  5
296C
  8
DIMENSIONS
  6
BYBLOCK
 62
     0
 10
624.5309386341546
 20
662.1172086698066
 30
0.0
 11
624.5309386341546
 21
678.4295731508563
 31
0.0
  0
LINE
  5
296D
  8
DIMENSIONS
  6
BYBLOCK
 62
     0
 10
221.5309386341546
 20
662.1172086698066
 30
0.0
 11
221.5309386341546
 21
678.4295731508563
 31
0.0
  0
LINE
  5
296E
  8
DIMENSIONS
  6
BYBLOCK
 62
     0
 10
619.5309386341546
 20
678.2495731508563
 30
0.0
 11
226.5309386341546
 21
678.2495731508563
 31
0.0
  0
SOLID
  5
296F
  8
DIMENSIONS
 62
     0
 10
619.5309386341546
 20
677.416239817523
 30
0.0
 11
619.5309386341546
 21
679.0829064841897
 31
0.0
 12
624.5309386341546
 22
678.2495731508563
 32
0.0
 13
624.5309386341546
 23
678.2495731508563
 33
0.0
  0
SOLID
  5
2970
  8
DIMENSIONS
 62
     0
 10
226.5309386341546
 20
679.0829064841897
 30
0.0
 11
226.5309386341546
 21
677.416239817523
 31
0.0
 12
221.5309386341546
 22
678.2495731508563
 32
0.0
 13
221.5309386341546
 23
678.2495731508563
 33
0.0
  0
TEXT
  5
2971
  8
DIMENSIONS
  6
CONTINUOUS
 62
     5
 10
405.7534386341546
 20
680.6445731508563
 30
0.0
 40
5.0
  1
403 [15.87]
  0
POINT
  5
2972
  8
DEFPOINTS
 62
     0
 10
624.5309386341546
 20
660.6172086698066
 30
0.0
  0
POINT
  5
2973
  8
DEFPOINTS
 62
     0
 10
221.5309386341546
 20
660.6172086698066
 30
0.0
  0
POINT
  5
2974
  8
DEFPOINTS
 62
     0
 10
221.5309386341546
 20
678.2495731508563
 30
0.0
  0
ENDBLK
  5
296B
  8
0
  0
BLOCK
  8
0
  2
*D453
 70
     1
 10
0.0
 20
0.0
 30
0.0
  3
*D453
  1

  0
LINE
  5
297B
  8
DIMENSIONS
  6
BYBLOCK
 62
     0
 10
221.5309386341546
 20
662.1172086698066
 30
0.0
 11
221.5309386341546
 21
694.0271390677316
 31
0.0
  0
LINE
  5
297C
  8
DIMENSIONS
  6
BYBLOCK
 62
     0
 10
195.0309386341544
 20
662.1172086698066
 30
0.0
 11
195.0309386341544
 21
694.0271390677316
 31
0.0
  0
LINE
  5
297D
  8
DIMENSIONS
  6
BYBLOCK
 62
     0
 10
221.5309386341546
 20
693.8471390677316
 30
0.0
 11
260.8509386341546
 21
693.8471390677316
 31
0.0
  0
LINE
  5
297E
  8
DIMENSIONS
  6
BYBLOCK
 62
     0
 10
216.5309386341546
 20
693.8471390677316
 30
0.0
 11
200.0309386341544
 21
693.8471390677316
 31
0.0
  0
SOLID
  5
297F
  8
DIMENSIONS
 62
     0
 10
216.5309386341546
 20
693.0138057343983
 30
0.0
 11
216.5309386341546
 21
694.680472401065
 31
0.0
 12
221.5309386341546
 22
693.8471390677316
 32
0.0
 13
221.5309386341546
 23
693.8471390677316
 33
0.0
  0
SOLID
  5
2980
  8
DIMENSIONS
 62
     0
 10
200.0309386341544
 20
694.680472401065
 30
0.0
 11
200.0309386341544
 21
693.0138057343983
 31
0.0
 12
195.0309386341544
 22
693.8471390677316
 32
0.0
 13
195.0309386341544
 23
693.8471390677316
 33
0.0
  0
TEXT
  5
2981
  8
DIMENSIONS
  6
CONTINUOUS
 62
     5
 10
227.3259386341546
 20
696.2421390677316
 30
0.0
 40
5.0
  1
26.5 [1.04]
  0
POINT
  5
2982
  8
DEFPOINTS
 62
     0
 10
221.5309386341546
 20
660.6172086698066
 30
0.0
  0
POINT
  5
2983
  8
DEFPOINTS
 62
     0
 10
195.0309386341544
 20
660.6172086698066
 30
0.0
  0
POINT
  5
2984
  8
DEFPOINTS
 62
     0
 10
195.0309386341544
 20
693.8471390677316
 30
0.0
  0
ENDBLK
  5
297A
  8
0
  0
BLOCK
  8
0
  2
*D454
 70
     1
 10
0.0
 20
0.0
 30
0.0
  3
*D454
  1

  0
LINE
  5
29A7
  8
DIMENSIONS
  6
BYBLOCK
 62
     0
 10
173.5309386341547
 20
1493.617208669807
 30
0.0
 11
136.2209000689003
 21
1493.617208669807
 31
0.0
  0
LINE
  5
29A8
  8
DIMENSIONS
  6
BYBLOCK
 62
     0
 10
248.5309386341544
 20
1483.617208669808
 30
0.0
 11
136.2209000689003
 21
1483.617208669808
 31
0.0
  0
LINE
  5
29A9
  8
DIMENSIONS
  6
BYBLOCK
 62
     0
 10
136.4009000689003
 20
1483.617208669808
 30
0.0
 11
136.4009000689003
 21
1445.672208669808
 31
0.0
  0
LINE
  5
29AA
  8
DIMENSIONS
  6
BYBLOCK
 62
     0
 10
136.4009000689003
 20
1498.617208669807
 30
0.0
 11
136.4009000689003
 21
1503.617208669807
 31
0.0
  0
LINE
  5
29AB
  8
DIMENSIONS
  6
BYBLOCK
 62
     0
 10
136.4009000689003
 20
1478.617208669808
 30
0.0
 11
136.4009000689003
 21
1473.617208669808
 31
0.0
  0
SOLID
  5
29AC
  8
DIMENSIONS
 62
     0
 10
135.5675667355669
 20
1498.617208669807
 30
0.0
 11
137.2342334022336
 21
1498.617208669807
 31
0.0
 12
136.4009000689003
 22
1493.617208669807
 32
0.0
 13
136.4009000689003
 23
1493.617208669807
 33
0.0
  0
SOLID
  5
29AD
  8
DIMENSIONS
 62
     0
 10
137.2342334022336
 20
1478.617208669808
 30
0.0
 11
135.5675667355669
 21
1478.617208669808
 31
0.0
 12
136.4009000689003
 22
1483.617208669808
 32
0.0
 13
136.4009000689003
 23
1483.617208669808
 33
0.0
  0
TEXT
  5
29AE
  8
DIMENSIONS
  6
CONTINUOUS
 62
     5
 10
134.0059000689
 20
1445.912208669808
 30
0.0
 40
5.0
  1
10 [0.39]
 50
90.0
  0
POINT
  5
29AF
  8
DEFPOINTS
 62
     0
 10
175.0309386341547
 20
1493.617208669807
 30
0.0
  0
POINT
  5
29B0
  8
DEFPOINTS
 62
     0
 10
250.0309386341544
 20
1483.617208669808
 30
0.0
  0
POINT
  5
2A2A
  8
DEFPOINTS
 62
     0
 10
136.4009000689003
 20
1483.617208669808
 30
0.0
  0
ENDBLK
  5
29A6
  8
0
  0
BLOCK
  8
0
  2
*D455
 70
     1
 10
0.0
 20
0.0
 30
0.0
  3
*D455
  1

  0
LINE
  5
29B7
  8
DIMENSIONS
  6
BYBLOCK
 62
     0
 10
248.5309386341544
 20
1483.617208669808
 30
0.0
 11
155.3494387473239
 21
1483.617208669808
 31
0.0
  0
LINE
  5
29B8
  8
DIMENSIONS
  6
BYBLOCK
 62
     0
 10
183.5309386341546
 20
1418.617208669807
 30
0.0
 11
155.3494387473239
 21
1418.617208669807
 31
0.0
  0
LINE
  5
29B9
  8
DIMENSIONS
  6
BYBLOCK
 62
     0
 10
155.529438747324
 20
1478.617208669808
 30
0.0
 11
155.529438747324
 21
1423.617208669807
 31
0.0
  0
SOLID
  5
29BA
  8
DIMENSIONS
 62
     0
 10
156.3627720806573
 20
1478.617208669808
 30
0.0
 11
154.6961054139906
 21
1478.617208669808
 31
0.0
 12
155.529438747324
 22
1483.617208669808
 32
0.0
 13
155.529438747324
 23
1483.617208669808
 33
0.0
  0
SOLID
  5
29BB
  8
DIMENSIONS
 62
     0
 10
154.6961054139906
 20
1423.617208669807
 30
0.0
 11
156.3627720806573
 21
1423.617208669807
 31
0.0
 12
155.529438747324
 22
1418.617208669807
 32
0.0
 13
155.529438747324
 23
1418.617208669807
 33
0.0
  0
TEXT
  5
29BC
  8
DIMENSIONS
  6
CONTINUOUS
 62
     5
 10
153.1344387473237
 20
1437.634708669808
 30
0.0
 40
5.0
  1
65 [2.56]
 50
90.0
  0
POINT
  5
29BD
  8
DEFPOINTS
 62
     0
 10
250.0309386341544
 20
1483.617208669808
 30
0.0
  0
POINT
  5
29BE
  8
DEFPOINTS
 62
     0
 10
185.0309386341546
 20
1418.617208669807
 30
0.0
  0
POINT
  5
29BF
  8
DEFPOINTS
 62
     0
 10
155.529438747324
 20
1418.617208669807
 30
0.0
  0
ENDBLK
  5
29B6
  8
0
  0
BLOCK
  8
0
  2
*D456
 70
     1
 10
0.0
 20
0.0
 30
0.0
  3
*D456
  1

  0
LINE
  5
29C6
  8
DIMENSIONS
  6
BYBLOCK
 62
     0
 10
183.5309386341546
 20
1418.617208669807
 30
0.0
 11
155.3494387473239
 21
1418.617208669807
 31
0.0
  0
LINE
  5
29C7
  8
DIMENSIONS
  6
BYBLOCK
 62
     0
 10
183.5309386341546
 20
1235.617208669807
 30
0.0
 11
155.3494387473239
 21
1235.617208669807
 31
0.0
  0
LINE
  5
29C8
  8
DIMENSIONS
  6
BYBLOCK
 62
     0
 10
155.529438747324
 20
1413.617208669807
 30
0.0
 11
155.529438747324
 21
1240.617208669807
 31
0.0
  0
SOLID
  5
29C9
  8
DIMENSIONS
 62
     0
 10
156.3627720806573
 20
1413.617208669807
 30
0.0
 11
154.6961054139906
 21
1413.617208669807
 31
0.0
 12
155.529438747324
 22
1418.617208669807
 32
0.0
 13
155.529438747324
 23
1418.617208669807
 33
0.0
  0
SOLID
  5
29CA
  8
DIMENSIONS
 62
     0
 10
154.6961054139906
 20
1240.617208669807
 30
0.0
 11
156.3627720806573
 21
1240.617208669807
 31
0.0
 12
155.529438747324
 22
1235.617208669807
 32
0.0
 13
155.529438747324
 23
1235.617208669807
 33
0.0
  0
TEXT
  5
29CB
  8
DIMENSIONS
  6
CONTINUOUS
 62
     5
 10
153.1344387473237
 20
1311.444708669807
 30
0.0
 40
5.0
  1
183 [7.20]
 50
90.0
  0
POINT
  5
29CC
  8
DEFPOINTS
 62
     0
 10
185.0309386341546
 20
1418.617208669807
 30
0.0
  0
POINT
  5
29CD
  8
DEFPOINTS
 62
     0
 10
185.0309386341546
 20
1235.617208669807
 30
0.0
  0
POINT
  5
29CE
  8
DEFPOINTS
 62
     0
 10
155.529438747324
 20
1235.617208669807
 30
0.0
  0
ENDBLK
  5
29C5
  8
0
  0
BLOCK
  8
0
  2
*D457
 70
     1
 10
0.0
 20
0.0
 30
0.0
  3
*D457
  1

  0
LINE
  5
29D5
  8
DIMENSIONS
  6
BYBLOCK
 62
     0
 10
183.5309386341546
 20
1235.617208669807
 30
0.0
 11
155.3494387473239
 21
1235.617208669807
 31
0.0
  0
LINE
  5
29D6
  8
DIMENSIONS
  6
BYBLOCK
 62
     0
 10
183.5309386341546
 20
1052.617208669807
 30
0.0
 11
155.3494387473239
 21
1052.617208669807
 31
0.0
  0
LINE
  5
29D7
  8
DIMENSIONS
  6
BYBLOCK
 62
     0
 10
155.529438747324
 20
1230.617208669807
 30
0.0
 11
155.529438747324
 21
1057.617208669807
 31
0.0
  0
SOLID
  5
29D8
  8
DIMENSIONS
 62
     0
 10
156.3627720806573
 20
1230.617208669807
 30
0.0
 11
154.6961054139906
 21
1230.617208669807
 31
0.0
 12
155.529438747324
 22
1235.617208669807
 32
0.0
 13
155.529438747324
 23
1235.617208669807
 33
0.0
  0
SOLID
  5
29D9
  8
DIMENSIONS
 62
     0
 10
154.6961054139906
 20
1057.617208669807
 30
0.0
 11
156.3627720806573
 21
1057.617208669807
 31
0.0
 12
155.529438747324
 22
1052.617208669807
 32
0.0
 13
155.529438747324
 23
1052.617208669807
 33
0.0
  0
TEXT
  5
29DA
  8
DIMENSIONS
  6
CONTINUOUS
 62
     5
 10
153.1344387473237
 20
1128.444708669806
 30
0.0
 40
5.0
  1
183 [7.20]
 50
90.0
  0
POINT
  5
29DB
  8
DEFPOINTS
 62
     0
 10
185.0309386341546
 20
1235.617208669807
 30
0.0
  0
POINT
  5
29DC
  8
DEFPOINTS
 62
     0
 10
185.0309386341546
 20
1052.617208669807
 30
0.0
  0
POINT
  5
29DD
  8
DEFPOINTS
 62
     0
 10
155.529438747324
 20
1052.617208669807
 30
0.0
  0
ENDBLK
  5
29D4
  8
0
  0
BLOCK
  8
0
  2
*D458
 70
     1
 10
0.0
 20
0.0
 30
0.0
  3
*D458
  1

  0
LINE
  5
29E4
  8
DIMENSIONS
  6
BYBLOCK
 62
     0
 10
183.5309386341546
 20
1052.617208669807
 30
0.0
 11
155.3494387473239
 21
1052.617208669807
 31
0.0
  0
LINE
  5
29E5
  8
DIMENSIONS
  6
BYBLOCK
 62
     0
 10
183.5309386341546
 20
869.6172086698067
 30
0.0
 11
155.3494387473239
 21
869.6172086698067
 31
0.0
  0
LINE
  5
29E6
  8
DIMENSIONS
  6
BYBLOCK
 62
     0
 10
155.529438747324
 20
1047.617208669807
 30
0.0
 11
155.529438747324
 21
874.6172086698067
 31
0.0
  0
SOLID
  5
29E7
  8
DIMENSIONS
 62
     0
 10
156.3627720806573
 20
1047.617208669807
 30
0.0
 11
154.6961054139906
 21
1047.617208669807
 31
0.0
 12
155.529438747324
 22
1052.617208669807
 32
0.0
 13
155.529438747324
 23
1052.617208669807
 33
0.0
  0
SOLID
  5
29E8
  8
DIMENSIONS
 62
     0
 10
154.6961054139906
 20
874.6172086698067
 30
0.0
 11
156.3627720806573
 21
874.6172086698067
 31
0.0
 12
155.529438747324
 22
869.6172086698067
 32
0.0
 13
155.529438747324
 23
869.6172086698067
 33
0.0
  0
TEXT
  5
29E9
  8
DIMENSIONS
  6
CONTINUOUS
 62
     5
 10
153.134438747324
 20
945.4447086698066
 30
0.0
 40
5.0
  1
183 [7.20]
 50
90.0
  0
POINT
  5
29EA
  8
DEFPOINTS
 62
     0
 10
185.0309386341546
 20
1052.617208669807
 30
0.0
  0
POINT
  5
29EB
  8
DEFPOINTS
 62
     0
 10
185.0309386341546
 20
869.6172086698067
 30
0.0
  0
POINT
  5
29EC
  8
DEFPOINTS
 62
     0
 10
155.529438747324
 20
869.6172086698067
 30
0.0
  0
ENDBLK
  5
29E3
  8
0
  0
BLOCK
  8
0
  2
*D459
 70
     1
 10
0.0
 20
0.0
 30
0.0
  3
*D459
  1

  0
LINE
  5
29F3
  8
DIMENSIONS
  6
BYBLOCK
 62
     0
 10
183.5309386341546
 20
869.6172086698067
 30
0.0
 11
155.3494387473239
 21
869.6172086698067
 31
0.0
  0
LINE
  5
29F4
  8
DIMENSIONS
  6
BYBLOCK
 62
     0
 10
183.5309386341546
 20
686.6172086698067
 30
0.0
 11
155.3494387473239
 21
686.6172086698067
 31
0.0
  0
LINE
  5
29F5
  8
DIMENSIONS
  6
BYBLOCK
 62
     0
 10
155.529438747324
 20
864.6172086698067
 30
0.0
 11
155.529438747324
 21
691.6172086698067
 31
0.0
  0
SOLID
  5
29F6
  8
DIMENSIONS
 62
     0
 10
156.3627720806573
 20
864.6172086698067
 30
0.0
 11
154.6961054139906
 21
864.6172086698067
 31
0.0
 12
155.529438747324
 22
869.6172086698067
 32
0.0
 13
155.529438747324
 23
869.6172086698067
 33
0.0
  0
SOLID
  5
29F7
  8
DIMENSIONS
 62
     0
 10
154.6961054139906
 20
691.6172086698067
 30
0.0
 11
156.3627720806573
 21
691.6172086698067
 31
0.0
 12
155.529438747324
 22
686.6172086698067
 32
0.0
 13
155.529438747324
 23
686.6172086698067
 33
0.0
  0
TEXT
  5
29F8
  8
DIMENSIONS
  6
CONTINUOUS
 62
     5
 10
153.134438747324
 20
762.4447086698067
 30
0.0
 40
5.0
  1
183 [7.20]
 50
90.0
  0
POINT
  5
29F9
  8
DEFPOINTS
 62
     0
 10
185.0309386341546
 20
869.6172086698067
 30
0.0
  0
POINT
  5
29FA
  8
DEFPOINTS
 62
     0
 10
185.0309386341546
 20
686.6172086698067
 30
0.0
  0
POINT
  5
29FB
  8
DEFPOINTS
 62
     0
 10
155.529438747324
 20
686.6172086698067
 30
0.0
  0
ENDBLK
  5
29F2
  8
0
  0
BLOCK
  8
0
  2
*D460
 70
     1
 10
0.0
 20
0.0
 30
0.0
  3
*D460
  1

  0
LINE
  5
2A02
  8
DIMENSIONS
  6
BYBLOCK
 62
     0
 10
183.5309386341546
 20
686.6172086698067
 30
0.0
 11
155.3494387473239
 21
686.6172086698067
 31
0.0
  0
LINE
  5
2A03
  8
DIMENSIONS
  6
BYBLOCK
 62
     0
 10
183.5309386341546
 20
503.6172086698067
 30
0.0
 11
155.3494387473239
 21
503.6172086698067
 31
0.0
  0
LINE
  5
2A04
  8
DIMENSIONS
  6
BYBLOCK
 62
     0
 10
155.529438747324
 20
681.6172086698067
 30
0.0
 11
155.529438747324
 21
508.6172086698067
 31
0.0
  0
SOLID
  5
2A05
  8
DIMENSIONS
 62
     0
 10
156.3627720806573
 20
681.6172086698067
 30
0.0
 11
154.6961054139906
 21
681.6172086698067
 31
0.0
 12
155.529438747324
 22
686.6172086698067
 32
0.0
 13
155.529438747324
 23
686.6172086698067
 33
0.0
  0
SOLID
  5
2A06
  8
DIMENSIONS
 62
     0
 10
154.6961054139906
 20
508.6172086698067
 30
0.0
 11
156.3627720806573
 21
508.6172086698067
 31
0.0
 12
155.529438747324
 22
503.6172086698067
 32
0.0
 13
155.529438747324
 23
503.6172086698067
 33
0.0
  0
TEXT
  5
2A07
  8
DIMENSIONS
  6
CONTINUOUS
 62
     5
 10
153.134438747324
 20
579.4447086698067
 30
0.0
 40
5.0
  1
183 [7.20]
 50
90.0
  0
POINT
  5
2A08
  8
DEFPOINTS
 62
     0
 10
185.0309386341546
 20
686.6172086698067
 30
0.0
  0
POINT
  5
2A09
  8
DEFPOINTS
 62
     0
 10
185.0309386341546
 20
503.6172086698067
 30
0.0
  0
POINT
  5
2A0A
  8
DEFPOINTS
 62
     0
 10
155.529438747324
 20
503.6172086698067
 30
0.0
  0
ENDBLK
  5
2A01
  8
0
  0
BLOCK
  8
0
  2
*D461
 70
     1
 10
0.0
 20
0.0
 30
0.0
  3
*D461
  1

  0
LINE
  5
2A11
  8
DIMENSIONS
  6
BYBLOCK
 62
     0
 10
183.5309386341546
 20
503.6172086698067
 30
0.0
 11
155.3494387473239
 21
503.6172086698067
 31
0.0
  0
LINE
  5
2A12
  8
DIMENSIONS
  6
BYBLOCK
 62
     0
 10
248.5309386341544
 20
438.6172086698047
 30
0.0
 11
155.3494387473239
 21
438.6172086698047
 31
0.0
  0
LINE
  5
2A13
  8
DIMENSIONS
  6
BYBLOCK
 62
     0
 10
155.529438747324
 20
498.6172086698067
 30
0.0
 11
155.529438747324
 21
443.6172086698047
 31
0.0
  0
SOLID
  5
2A14
  8
DIMENSIONS
 62
     0
 10
156.3627720806573
 20
498.6172086698067
 30
0.0
 11
154.6961054139906
 21
498.6172086698067
 31
0.0
 12
155.529438747324
 22
503.6172086698067
 32
0.0
 13
155.529438747324
 23
503.6172086698067
 33
0.0
  0
SOLID
  5
2A15
  8
DIMENSIONS
 62
     0
 10
154.6961054139906
 20
443.6172086698047
 30
0.0
 11
156.3627720806573
 21
443.6172086698047
 31
0.0
 12
155.529438747324
 22
438.6172086698047
 32
0.0
 13
155.529438747324
 23
438.6172086698047
 33
0.0
  0
TEXT
  5
2A16
  8
DIMENSIONS
  6
CONTINUOUS
 62
     5
 10
153.134438747324
 20
457.6347086698057
 30
0.0
 40
5.0
  1
65 [2.56]
 50
90.0
  0
POINT
  5
2A17
  8
DEFPOINTS
 62
     0
 10
185.0309386341546
 20
503.6172086698067
 30
0.0
  0
POINT
  5
2A18
  8
DEFPOINTS
 62
     0
 10
250.0309386341544
 20
438.6172086698047
 30
0.0
  0
POINT
  5
2A19
  8
DEFPOINTS
 62
     0
 10
155.529438747324
 20
438.6172086698047
 30
0.0
  0
ENDBLK
  5
2A10
  8
0
  0
BLOCK
  8
0
  2
*D462
 70
     1
 10
0.0
 20
0.0
 30
0.0
  3
*D462
  1

  0
LINE
  5
2A20
  8
DIMENSIONS
  6
BYBLOCK
 62
     0
 10
248.5309386341544
 20
438.6172086698047
 30
0.0
 11
137.1009263500497
 21
438.6172086698047
 31
0.0
  0
LINE
  5
2A21
  8
DIMENSIONS
  6
BYBLOCK
 62
     0
 10
173.5309386341547
 20
428.6172086698067
 30
0.0
 11
137.1009263500497
 21
428.6172086698067
 31
0.0
  0
LINE
  5
2A22
  8
DIMENSIONS
  6
BYBLOCK
 62
     0
 10
137.2809263500497
 20
438.6172086698047
 30
0.0
 11
137.2809263500497
 21
476.5622086698046
 31
0.0
  0
LINE
  5
2A23
  8
DIMENSIONS
  6
BYBLOCK
 62
     0
 10
137.2809263500497
 20
443.6172086698047
 30
0.0
 11
137.2809263500497
 21
448.6172086698047
 31
0.0
  0
LINE
  5
2A24
  8
DIMENSIONS
  6
BYBLOCK
 62
     0
 10
137.2809263500497
 20
423.6172086698067
 30
0.0
 11
137.2809263500497
 21
418.6172086698067
 31
0.0
  0
SOLID
  5
2A25
  8
DIMENSIONS
 62
     0
 10
136.4475930167164
 20
443.6172086698047
 30
0.0
 11
138.1142596833831
 21
443.6172086698047
 31
0.0
 12
137.2809263500497
 22
438.6172086698047
 32
0.0
 13
137.2809263500497
 23
438.6172086698047
 33
0.0
  0
SOLID
  5
2A26
  8
DIMENSIONS
 62
     0
 10
138.1142596833831
 20
423.6172086698067
 30
0.0
 11
136.4475930167164
 21
423.6172086698067
 31
0.0
 12
137.2809263500497
 22
428.6172086698067
 32
0.0
 13
137.2809263500497
 23
428.6172086698067
 33
0.0
  0
TEXT
  5
2A27
  8
DIMENSIONS
  6
CONTINUOUS
 62
     5
 10
134.8859263500498
 20
448.8572086698046
 30
0.0
 40
5.0
  1
10 [0.39]
 50
90.0
  0
POINT
  5
2A28
  8
DEFPOINTS
 62
     0
 10
250.0309386341544
 20
438.6172086698047
 30
0.0
  0
POINT
  5
2A29
  8
DEFPOINTS
 62
     0
 10
175.0309386341547
 20
428.6172086698067
 30
0.0
  0
POINT
  5
2A2B
  8
DEFPOINTS
 62
     0
 10
137.2809263500497
 20
428.6172086698067
 30
0.0
  0
ENDBLK
  5
2A1F
  8
0
  0
BLOCK
  8
0
  2
*D463
 70
     1
 10
0.0
 20
0.0
 30
0.0
  3
*D463
  1

  0
LINE
  5
2A32
  8
DIMENSIONS
  6
BYBLOCK
 62
     0
 10
683.0309386341544
 20
1493.617208669807
 30
0.0
 11
721.8246436911753
 21
1493.617208669807
 31
0.0
  0
LINE
  5
2A33
  8
DIMENSIONS
  6
BYBLOCK
 62
     0
 10
663.0309386341544
 20
1473.617208669807
 30
0.0
 11
721.8246436911753
 21
1473.617208669807
 31
0.0
  0
LINE
  5
2A34
  8
DIMENSIONS
  6
BYBLOCK
 62
     0
 10
721.6446436911754
 20
1473.617208669807
 30
0.0
 11
721.6446436911754
 21
1439.098406665218
 31
0.0
  0
LINE
  5
2A35
  8
DIMENSIONS
  6
BYBLOCK
 62
     0
 10
721.6446436911754
 20
1488.617208669807
 30
0.0
 11
721.6446436911754
 21
1478.617208669807
 31
0.0
  0
SOLID
  5
2A36
  8
DIMENSIONS
 62
     0
 10
722.4779770245087
 20
1488.617208669807
 30
0.0
 11
720.811310357842
 21
1488.617208669807
 31
0.0
 12
721.6446436911754
 22
1493.617208669807
 32
0.0
 13
721.6446436911754
 23
1493.617208669807
 33
0.0
  0
SOLID
  5
2A37
  8
DIMENSIONS
 62
     0
 10
720.811310357842
 20
1478.617208669807
 30
0.0
 11
722.4779770245087
 21
1478.617208669807
 31
0.0
 12
721.6446436911754
 22
1473.617208669807
 32
0.0
 13
721.6446436911754
 23
1473.617208669807
 33
0.0
  0
TEXT
  5
2A38
  8
DIMENSIONS
  6
CONTINUOUS
 62
     5
 10
719.2496436911752
 20
1439.893406665218
 30
0.0
 40
5.0
  1
20 [0.79]
 50
90.0
  0
POINT
  5
2A39
  8
DEFPOINTS
 62
     0
 10
681.5309386341544
 20
1493.617208669807
 30
0.0
  0
POINT
  5
2A3A
  8
DEFPOINTS
 62
     0
 10
661.5309386341544
 20
1473.617208669807
 30
0.0
  0
POINT
  5
2A95
  8
DEFPOINTS
 62
     0
 10
721.6446436911754
 20
1473.617208669807
 30
0.0
  0
ENDBLK
  5
2A31
  8
0
  0
BLOCK
  8
0
  2
*D464
 70
     1
 10
0.0
 20
0.0
 30
0.0
  3
*D464
  1

  0
LINE
  5
2A41
  8
DIMENSIONS
  6
BYBLOCK
 62
     0
 10
663.0309386341544
 20
1473.617208669807
 30
0.0
 11
702.1688236278626
 21
1473.617208669807
 31
0.0
  0
LINE
  5
2A42
  8
DIMENSIONS
  6
BYBLOCK
 62
     0
 10
626.0309386341546
 20
1085.617208669807
 30
0.0
 11
702.1688236278626
 21
1085.617208669807
 31
0.0
  0
LINE
  5
2A43
  8
DIMENSIONS
  6
BYBLOCK
 62
     0
 10
701.9888236278626
 20
1468.617208669807
 30
0.0
 11
701.9888236278626
 21
1090.617208669807
 31
0.0
  0
SOLID
  5
2A44
  8
DIMENSIONS
 62
     0
 10
702.822156961196
 20
1468.617208669807
 30
0.0
 11
701.1554902945293
 21
1468.617208669807
 31
0.0
 12
701.9888236278626
 22
1473.617208669807
 32
0.0
 13
701.9888236278626
 23
1473.617208669807
 33
0.0
  0
SOLID
  5
2A45
  8
DIMENSIONS
 62
     0
 10
701.1554902945293
 20
1090.617208669807
 30
0.0
 11
702.822156961196
 21
1090.617208669807
 31
0.0
 12
701.9888236278626
 22
1085.617208669807
 32
0.0
 13
701.9888236278626
 23
1085.617208669807
 33
0.0
  0
TEXT
  5
2A46
  8
DIMENSIONS
  6
CONTINUOUS
 62
     5
 10
699.5938236278625
 20
1262.237208669806
 30
0.0
 40
5.0
  1
388 [15.28]
 50
90.0
  0
POINT
  5
2A47
  8
DEFPOINTS
 62
     0
 10
661.5309386341544
 20
1473.617208669807
 30
0.0
  0
POINT
  5
2A48
  8
DEFPOINTS
 62
     0
 10
624.5309386341546
 20
1085.617208669807
 30
0.0
  0
POINT
  5
2A49
  8
DEFPOINTS
 62
     0
 10
701.9888236278626
 20
1085.617208669807
 30
0.0
  0
ENDBLK
  5
2A40
  8
0
  0
BLOCK
  8
0
  2
*D465
 70
     1
 10
0.0
 20
0.0
 30
0.0
  3
*D465
  1

  0
LINE
  5
2A50
  8
DIMENSIONS
  6
BYBLOCK
 62
     0
 10
626.0309386341546
 20
1085.617208669807
 30
0.0
 11
702.1688236278626
 21
1085.617208669807
 31
0.0
  0
LINE
  5
2A51
  8
DIMENSIONS
  6
BYBLOCK
 62
     0
 10
626.0309386341546
 20
953.6172086698066
 30
0.0
 11
702.1688236278626
 21
953.6172086698066
 31
0.0
  0
LINE
  5
2A52
  8
DIMENSIONS
  6
BYBLOCK
 62
     0
 10
701.9888236278626
 20
1080.617208669807
 30
0.0
 11
701.9888236278626
 21
958.6172086698066
 31
0.0
  0
SOLID
  5
2A53
  8
DIMENSIONS
 62
     0
 10
702.822156961196
 20
1080.617208669807
 30
0.0
 11
701.1554902945293
 21
1080.617208669807
 31
0.0
 12
701.9888236278626
 22
1085.617208669807
 32
0.0
 13
701.9888236278626
 23
1085.617208669807
 33
0.0
  0
SOLID
  5
2A54
  8
DIMENSIONS
 62
     0
 10
701.1554902945293
 20
958.6172086698066
 30
0.0
 11
702.822156961196
 21
958.6172086698066
 31
0.0
 12
701.9888236278626
 22
953.6172086698066
 32
0.0
 13
701.9888236278626
 23
953.6172086698066
 33
0.0
  0
TEXT
  5
2A55
  8
DIMENSIONS
  6
CONTINUOUS
 62
     5
 10
699.5938236278627
 20
1003.944708669807
 30
0.0
 40
5.0
  1
132 [5.20]
 50
90.0
  0
POINT
  5
2A56
  8
DEFPOINTS
 62
     0
 10
624.5309386341546
 20
1085.617208669807
 30
0.0
  0
POINT
  5
2A57
  8
DEFPOINTS
 62
     0
 10
624.5309386341546
 20
953.6172086698066
 30
0.0
  0
POINT
  5
2A58
  8
DEFPOINTS
 62
     0
 10
701.9888236278626
 20
953.6172086698066
 30
0.0
  0
ENDBLK
  5
2A4F
  8
0
  0
BLOCK
  8
0
  2
*D466
 70
     1
 10
0.0
 20
0.0
 30
0.0
  3
*D466
  1

  0
LINE
  5
2A5F
  8
DIMENSIONS
  6
BYBLOCK
 62
     0
 10
626.0309386341546
 20
953.6172086698066
 30
0.0
 11
702.1688236278626
 21
953.6172086698066
 31
0.0
  0
LINE
  5
2A60
  8
DIMENSIONS
  6
BYBLOCK
 62
     0
 10
626.0309386341546
 20
660.6172086698066
 30
0.0
 11
702.1688236278626
 21
660.6172086698066
 31
0.0
  0
LINE
  5
2A61
  8
DIMENSIONS
  6
BYBLOCK
 62
     0
 10
701.9888236278626
 20
948.6172086698066
 30
0.0
 11
701.9888236278626
 21
665.6172086698066
 31
0.0
  0
SOLID
  5
2A62
  8
DIMENSIONS
 62
     0
 10
702.822156961196
 20
948.6172086698066
 30
0.0
 11
701.1554902945293
 21
948.6172086698066
 31
0.0
 12
701.9888236278626
 22
953.6172086698066
 32
0.0
 13
701.9888236278626
 23
953.6172086698066
 33
0.0
  0
SOLID
  5
2A63
  8
DIMENSIONS
 62
     0
 10
701.1554902945293
 20
665.6172086698066
 30
0.0
 11
702.822156961196
 21
665.6172086698066
 31
0.0
 12
701.9888236278626
 22
660.6172086698066
 32
0.0
 13
701.9888236278626
 23
660.6172086698066
 33
0.0
  0
TEXT
  5
2A64
  8
DIMENSIONS
  6
CONTINUOUS
 62
     5
 10
699.5938236278627
 20
789.7822086698066
 30
0.0
 40
5.0
  1
293 [11.54]
 50
90.0
  0
POINT
  5
2A65
  8
DEFPOINTS
 62
     0
 10
624.5309386341546
 20
953.6172086698066
 30
0.0
  0
POINT
  5
2A66
  8
DEFPOINTS
 62
     0
 10
624.5309386341546
 20
660.6172086698066
 30
0.0
  0
POINT
  5
2A67
  8
DEFPOINTS
 62
     0
 10
701.9888236278626
 20
660.6172086698066
 30
0.0
  0
ENDBLK
  5
2A5E
  8
0
  0
BLOCK
  8
0
  2
*D467
 70
     1
 10
0.0
 20
0.0
 30
0.0
  3
*D467
  1

  0
LINE
  5
2A6E
  8
DIMENSIONS
  6
BYBLOCK
 62
     0
 10
626.0309386341546
 20
660.6172086698066
 30
0.0
 11
702.1688236278626
 21
660.6172086698066
 31
0.0
  0
LINE
  5
2A6F
  8
DIMENSIONS
  6
BYBLOCK
 62
     0
 10
626.0309386341546
 20
475.6172086698067
 30
0.0
 11
702.1688236278626
 21
475.6172086698067
 31
0.0
  0
LINE
  5
2A70
  8
DIMENSIONS
  6
BYBLOCK
 62
     0
 10
701.9888236278626
 20
655.6172086698066
 30
0.0
 11
701.9888236278626
 21
480.6172086698067
 31
0.0
  0
SOLID
  5
2A71
  8
DIMENSIONS
 62
     0
 10
702.822156961196
 20
655.6172086698066
 30
0.0
 11
701.1554902945293
 21
655.6172086698066
 31
0.0
 12
701.9888236278626
 22
660.6172086698066
 32
0.0
 13
701.9888236278626
 23
660.6172086698066
 33
0.0
  0
SOLID
  5
2A72
  8
DIMENSIONS
 62
     0
 10
701.1554902945293
 20
480.6172086698067
 30
0.0
 11
702.822156961196
 21
480.6172086698067
 31
0.0
 12
701.9888236278626
 22
475.6172086698067
 32
0.0
 13
701.9888236278626
 23
475.6172086698067
 33
0.0
  0
TEXT
  5
2A73
  8
DIMENSIONS
  6
CONTINUOUS
 62
     5
 10
699.5938236278627
 20
552.4447086698066
 30
0.0
 40
5.0
  1
185 [7.28]
 50
90.0
  0
POINT
  5
2A74
  8
DEFPOINTS
 62
     0
 10
624.5309386341546
 20
660.6172086698066
 30
0.0
  0
POINT
  5
2A75
  8
DEFPOINTS
 62
     0
 10
624.5309386341546
 20
475.6172086698067
 30
0.0
  0
POINT
  5
2A76
  8
DEFPOINTS
 62
     0
 10
701.9888236278626
 20
475.6172086698067
 30
0.0
  0
ENDBLK
  5
2A6D
  8
0
  0
BLOCK
  8
0
  2
*D468
 70
     1
 10
0.0
 20
0.0
 30
0.0
  3
*D468
  1

  0
LINE
  5
2A7D
  8
DIMENSIONS
  6
BYBLOCK
 62
     0
 10
626.0309386341546
 20
475.6172086698067
 30
0.0
 11
723.4776449927402
 21
475.6172086698067
 31
0.0
  0
LINE
  5
2A7E
  8
DIMENSIONS
  6
BYBLOCK
 62
     0
 10
663.0309386341544
 20
448.6172086698066
 30
0.0
 11
723.4776449927402
 21
448.6172086698066
 31
0.0
  0
LINE
  5
2A7F
  8
DIMENSIONS
  6
BYBLOCK
 62
     0
 10
723.2976449927403
 20
475.6172086698067
 30
0.0
 11
723.2976449927403
 21
509.1172086698067
 31
0.0
  0
LINE
  5
2A80
  8
DIMENSIONS
  6
BYBLOCK
 62
     0
 10
723.2976449927403
 20
470.6172086698067
 30
0.0
 11
723.2976449927403
 21
453.6172086698066
 31
0.0
  0
SOLID
  5
2A81
  8
DIMENSIONS
 62
     0
 10
724.1309783260737
 20
470.6172086698067
 30
0.0
 11
722.4643116594069
 21
470.6172086698067
 31
0.0
 12
723.2976449927403
 22
475.6172086698067
 32
0.0
 13
723.2976449927403
 23
475.6172086698067
 33
0.0
  0
SOLID
  5
2A82
  8
DIMENSIONS
 62
     0
 10
722.4643116594069
 20
453.6172086698066
 30
0.0
 11
724.1309783260737
 21
453.6172086698066
 31
0.0
 12
723.2976449927403
 22
448.6172086698066
 32
0.0
 13
723.2976449927403
 23
448.6172086698066
 33
0.0
  0
TEXT
  5
2A83
  8
DIMENSIONS
  6
CONTINUOUS
 62
     5
 10
720.9026449927403
 20
481.4122086698067
 30
0.0
 40
5.0
  1
27 [1.06]
 50
90.0
  0
POINT
  5
2A84
  8
DEFPOINTS
 62
     0
 10
624.5309386341546
 20
475.6172086698067
 30
0.0
  0
POINT
  5
2A85
  8
DEFPOINTS
 62
     0
 10
661.5309386341544
 20
448.6172086698066
 30
0.0
  0
POINT
  5
2A97
  8
DEFPOINTS
 62
     0
 10
723.2976449927403
 20
448.6172086698066
 30
0.0
  0
ENDBLK
  5
2A7C
  8
0
  0
BLOCK
  8
0
  2
*D469
 70
     1
 10
0.0
 20
0.0
 30
0.0
  3
*D469
  1

  0
LINE
  5
2A8C
  8
DIMENSIONS
  6
BYBLOCK
 62
     0
 10
663.0309386341544
 20
448.6172086698066
 30
0.0
 11
744.6164353528628
 21
448.6172086698066
 31
0.0
  0
LINE
  5
2A8D
  8
DIMENSIONS
  6
BYBLOCK
 62
     0
 10
683.0309386341544
 20
428.6172086698066
 30
0.0
 11
744.6164353528628
 21
428.6172086698066
 31
0.0
  0
LINE
  5
2A8E
  8
DIMENSIONS
  6
BYBLOCK
 62
     0
 10
744.4364353528629
 20
448.6172086698066
 30
0.0
 11
744.4364353528629
 21
482.1172086698066
 31
0.0
  0
LINE
  5
2A8F
  8
DIMENSIONS
  6
BYBLOCK
 62
     0
 10
744.4364353528629
 20
443.6172086698066
 30
0.0
 11
744.4364353528629
 21
433.6172086698066
 31
0.0
  0
SOLID
  5
2A90
  8
DIMENSIONS
 62
     0
 10
745.2697686861962
 20
443.6172086698066
 30
0.0
 11
743.6031020195295
 21
443.6172086698066
 31
0.0
 12
744.4364353528629
 22
448.6172086698066
 32
0.0
 13
744.4364353528629
 23
448.6172086698066
 33
0.0
  0
SOLID
  5
2A91
  8
DIMENSIONS
 62
     0
 10
743.6031020195295
 20
433.6172086698066
 30
0.0
 11
745.2697686861962
 21
433.6172086698066
 31
0.0
 12
744.4364353528629
 22
428.6172086698066
 32
0.0
 13
744.4364353528629
 23
428.6172086698066
 33
0.0
  0
TEXT
  5
2A92
  8
DIMENSIONS
  6
CONTINUOUS
 62
     5
 10
742.0414353528628
 20
454.4122086698065
 30
0.0
 40
5.0
  1
20 [0.79]
 50
90.0
  0
POINT
  5
2A93
  8
DEFPOINTS
 62
     0
 10
661.5309386341544
 20
448.6172086698066
 30
0.0
  0
POINT
  5
2A94
  8
DEFPOINTS
 62
     0
 10
681.5309386341544
 20
428.6172086698066
 30
0.0
  0
POINT
  5
2A96
  8
DEFPOINTS
 62
     0
 10
744.4364353528629
 20
428.6172086698066
 30
0.0
  0
ENDBLK
  5
2A8B
  8
0
  0
BLOCK
  8
0
  2
*D470
 70
     1
 10
0.0
 20
0.0
 30
0.0
  3
*D470
  1

  0
LINE
  5
2A9E
  8
DIMENSIONS
  6
BYBLOCK
 62
     0
 10
598.0309489906211
 20
438.6304774235423
 30
0.0
 11
557.6259982203899
 21
438.6935508346819
 31
0.0
  0
TEXT
  5
2A9F
  8
DIMENSIONS
  6
CONTINUOUS
 62
     5
 10
558.349860892018
 20
441.1674238776296
 30
0.0
 40
5.0
  1
Ø7 [Ø0.28]
 50
359.9105595415047
  0
SOLID
  5
2AA0
  8
DIMENSIONS
 62
     0
 10
598.0296481324118
 20
437.7971451055489
 30
0.0
 11
598.0322498488305
 21
439.4638097415357
 31
0.0
 12
603.0309428985819
 22
438.6226722742861
 32
0.0
 13
603.0309428985819
 23
438.6226722742861
 33
0.0
  0
LINE
  5
2AA1
  8
DIMENSIONS
  6
BYBLOCK
 62
     0
 10
604.0309386341545
 20
438.6172086698067
 30
0.0
 11
609.0309386341545
 21
438.6172086698067
 31
0.0
  0
LINE
  5
2AA2
  8
DIMENSIONS
  6
BYBLOCK
 62
     0
 10
606.5309386341545
 20
436.1172086698067
 30
0.0
 11
606.5309386341545
 21
441.1172086698067
 31
0.0
  0
POINT
  5
2AA3
  8
DEFPOINTS
 62
     0
 10
603.0309428985819
 20
438.6226722742861
 30
0.0
  0
POINT
  5
2AA4
  8
DEFPOINTS
 62
     0
 10
610.0309343697271
 20
438.6117450653273
 30
0.0
  0
ENDBLK
  5
2A9D
  8
0
  0
BLOCK
  8
0
  2
*D471
 70
     1
 10
0.0
 20
0.0
 30
0.0
  3
*D471
  1

  0
LINE
  5
2AAE
  8
DIMENSIONS
  6
BYBLOCK
 62
     0
 10
173.5309386341547
 20
428.6172086698067
 30
0.0
 11
117.7895850191014
 21
428.6172086698066
 31
0.0
  0
LINE
  5
2AAF
  8
DIMENSIONS
  6
BYBLOCK
 62
     0
 10
173.5309386341547
 20
1493.617208669807
 30
0.0
 11
117.7895850191015
 21
1493.617208669807
 31
0.0
  0
LINE
  5
2AB0
  8
DIMENSIONS
  6
BYBLOCK
 62
     0
 10
117.9695850191014
 20
433.6172086698066
 30
0.0
 11
117.9695850191015
 21
1488.617208669807
 31
0.0
  0
SOLID
  5
2AB1
  8
DIMENSIONS
 62
     0
 10
117.1362516857681
 20
433.6172086698066
 30
0.0
 11
118.8029183524347
 21
433.6172086698066
 31
0.0
 12
117.9695850191014
 22
428.6172086698066
 32
0.0
 13
117.9695850191014
 23
428.6172086698066
 33
0.0
  0
SOLID
  5
2AB2
  8
DIMENSIONS
 62
     0
 10
118.8029183524348
 20
1488.617208669807
 30
0.0
 11
117.1362516857681
 21
1488.617208669807
 31
0.0
 12
117.9695850191015
 22
1493.617208669807
 32
0.0
 13
117.9695850191015
 23
1493.617208669807
 33
0.0
  0
TEXT
  5
2AB3
  8
DIMENSIONS
  6
CONTINUOUS
 62
     5
 10
115.5745850191014
 20
941.5647086698066
 30
0.0
 40
5.0
  1
1065 [41.93]
 50
90.0
  0
POINT
  5
2AB4
  8
DEFPOINTS
 62
     0
 10
175.0309386341547
 20
428.6172086698067
 30
0.0
  0
POINT
  5
2AB5
  8
DEFPOINTS
 62
     0
 10
175.0309386341547
 20
1493.617208669807
 30
0.0
  0
POINT
  5
2AB6
  8
DEFPOINTS
 62
     0
 10
117.9695850191015
 20
1493.617208669807
 30
0.0
  0
ENDBLK
  5
2AAD
  8
0
  0
ENDSEC
  0
SECTION
  2
ENTITIES
  0
TEXT
  5
25BF
  8
DIMENSIONS
  6
BYBLOCK
 10
177.0453220085568
 20
400.943812311563
 30
0.0
 40
5.0
  1
Note:
  0
TEXT
  5
25C0
  8
DIMENSIONS
  6
BYBLOCK
 10
177.1792480488423
 20
390.4148444635699
 30
0.0
 40
5.0
  1
Primary dimensions in millimeters.
  0
TEXT
  5
25C1
  8
DIMENSIONS
  6
BYBLOCK
 10
177.4006619852323
 20
379.8428188547859
 30
0.0
 40
5.0
  1
Secondary dimensions in inches.
  0
POLYLINE
  5
28E6
  8
0
 66
     1
 10
0.0
 20
0.0
 30
0.0
 70
     1
  0
VERTEX
  5
2AD6
  8
0
 10
681.5309386341544
 20
1493.617208669807
 30
0.0
  0
VERTEX
  5
2AD7
  8
0
 10
681.5309386341544
 20
428.6172086698067
 30
0.0
  0
VERTEX
  5
2AD8
  8
0
 10
175.0309386341547
 20
428.6172086698067
 30
0.0
  0
VERTEX
  5
2AD9
  8
0
 10
175.0309386341547
 20
1493.617208669807
 30
0.0
  0
SEQEND
  5
2AEA
  8
0
  0
POLYLINE
  5
28E7
  8
0
 66
     1
 10
0.0
 20
0.0
 30
0.0
 70
     1
  0
VERTEX
  5
2ADA
  8
0
 10
195.0309386341544
 20
448.6172086698065
 30
0.0
  0
VERTEX
  5
2ADB
  8
0
 10
195.0309386341544
 20
1473.617208669807
 30
0.0
  0
VERTEX
  5
2ADC
  8
0
 10
661.5309386341544
 20
1473.617208669807
 30
0.0
  0
VERTEX
  5
2ADD
  8
0
 10
661.5309386341544
 20
448.6172086698065
 30
0.0
  0
SEQEND
  5
2AEB
  8
0
  0
POLYLINE
  5
28E8
  8
0
 66
     1
 10
0.0
 20
0.0
 30
0.0
 70
     1
  0
VERTEX
  5
2ADE
  8
0
 10
221.5309386341546
 20
475.6172086698067
 30
0.0
  0
VERTEX
  5
2ADF
  8
0
 10
221.5309386341546
 20
660.6172086698066
 30
0.0
  0
VERTEX
  5
2AE0
  8
0
 10
624.5309386341546
 20
660.6172086698066
 30
0.0
  0
VERTEX
  5
2AE1
  8
0
 10
624.5309386341546
 20
475.6172086698067
 30
0.0
  0
SEQEND
  5
2AEC
  8
0
  0
POLYLINE
  5
28E9
  8
0
 66
     1
 10
0.0
 20
0.0
 30
0.0
 70
     1
  0
VERTEX
  5
2AE2
  8
0
 10
624.5309386341546
 20
953.6172086698066
 30
0.0
  0
VERTEX
  5
2AE3
  8
0
 10
624.5309386341546
 20
1085.617208669807
 30
0.0
  0
VERTEX
  5
2AE4
  8
0
 10
292.5309386341546
 20
1085.617208669807
 30
0.0
  0
VERTEX
  5
2AE5
  8
0
 10
292.5309386341546
 20
953.6172086698066
 30
0.0
  0
SEQEND
  5
2AED
  8
0
  0
CIRCLE
  5
28EA
  8
0
 10
428.2809386341545
 20
438.6172086698067
 30
0.0
 40
3.5
  0
CIRCLE
  5
28EB
  8
0
 10
606.5309386341545
 20
438.6172086698067
 30
0.0
 40
3.5
  0
CIRCLE
  5
28EC
  8
0
 10
250.0309386341544
 20
438.6172086698047
 30
0.0
 40
3.5
  0
CIRCLE
  5
28ED
  8
0
 10
250.0309386341544
 20
1483.617208669808
 30
0.0
 40
3.5
  0
CIRCLE
  5
28EE
  8
0
 10
428.2809386341545
 20
1483.617208669807
 30
0.0
 40
3.5
  0
CIRCLE
  5
28EF
  8
0
 10
606.5309386341545
 20
1483.617208669807
 30
0.0
 40
3.5
  0
CIRCLE
  5
28F0
  8
0
 10
185.0309386341546
 20
1418.617208669807
 30
0.0
 40
3.5
  0
CIRCLE
  5
28F1
  8
0
 10
185.0309386341546
 20
1235.617208669807
 30
0.0
 40
3.5
  0
CIRCLE
  5
28F2
  8
0
 10
185.0309386341546
 20
1052.617208669807
 30
0.0
 40
3.5
  0
CIRCLE
  5
28F3
  8
0
 10
185.0309386341546
 20
503.6172086698067
 30
0.0
 40
3.5
  0
CIRCLE
  5
28F4
  8
0
 10
185.0309386341546
 20
686.6172086698067
 30
0.0
 40
3.5
  0
CIRCLE
  5
28F5
  8
0
 10
185.0309386341546
 20
869.6172086698067
 30
0.0
 40
3.5
  0
CIRCLE
  5
28F6
  8
0
 10
671.5309386341542
 20
1418.617208669807
 30
0.0
 40
3.5
  0
CIRCLE
  5
28F7
  8
0
 10
671.5309386341542
 20
1235.617208669807
 30
0.0
 40
3.5
  0
CIRCLE
  5
28F8
  8
0
 10
671.5309386341542
 20
1052.617208669807
 30
0.0
 40
3.5
  0
CIRCLE
  5
28F9
  8
0
 10
671.5309386341542
 20
869.6172086698067
 30
0.0
 40
3.5
  0
CIRCLE
  5
28FA
  8
0
 10
671.5309386341542
 20
686.6172086698067
 30
0.0
 40
3.5
  0
CIRCLE
  5
28FB
  8
0
 10
671.5309386341542
 20
503.6172086698067
 30
0.0
 40
3.5
  0
INSERT
  5
28FC
  8
0
  2
*X444
 10
-331.9690613658456
 20
428.6172086698065
 30
0.0
  0
DIMENSION
  5
28FD
  8
DIMENSIONS
  6
BYBLOCK
  2
*D445
 10
606.5309386341545
 20
1514.243111871767
 30
0.0
 11
428.2809386341544
 21
1518.445611871768
 31
0.0
 70
    32
  3
DUAL-DIM
 13
250.0309386341544
 23
1483.617208669808
 33
0.0
 14
606.5309386341545
 24
1483.617208669807
 34
0.0
1001
ACAD
1000
DSTYLE
1002
{
1070
   287
1070
     5
1070
   279
1070
     2
1002
}
  0
DIMENSION
  5
290C
  8
DIMENSIONS
  6
BYBLOCK
  2
*D446
 10
195.0309386341544
 20
1534.477229923282
 30
0.0
 11
428.2809386341544
 21
1538.679729923282
 31
0.0
 70
    32
  3
DUAL-DIM
 13
661.5309386341544
 23
1473.617208669807
 33
0.0
 14
195.0309386341544
 24
1473.617208669807
 34
0.0
1001
ACAD
1000
DSTYLE
1002
{
1070
   287
1070
     5
1070
   279
1070
     2
1002
}
  0
DIMENSION
  5
291B
  8
DIMENSIONS
  6
BYBLOCK
  2
*D447
 10
175.0309386341547
 20
1554.178871183966
 30
0.0
 11
428.2809386341545
 21
1558.381371183966
 31
0.0
 70
    32
  3
DUAL-DIM
 13
681.5309386341544
 23
1493.617208669807
 33
0.0
 14
175.0309386341547
 24
1493.617208669807
 34
0.0
1001
ACAD
1000
DSTYLE
1002
{
1070
   287
1070
     5
1070
   279
1070
     2
1002
}
  0
DIMENSION
  5
292A
  8
DIMENSIONS
  6
BYBLOCK
  2
*D448
 10
195.0309386341544
 20
1105.01944758635
 30
0.0
 11
243.7809386341545
 21
1109.22194758635
 31
0.0
 70
    32
  3
DUAL-DIM
 13
292.5309386341546
 23
1085.617208669807
 33
0.0
 14
195.0309386341544
 24
1085.617208669807
 34
0.0
1001
ACAD
1000
DSTYLE
1002
{
1070
   287
1070
     5
1070
   279
1070
     2
1002
}
  0
DIMENSION
  5
2939
  8
DIMENSIONS
  6
BYBLOCK
  2
*D449
 10
624.5309386341546
 20
1105.01944758635
 30
0.0
 11
458.5309386341546
 21
1109.22194758635
 31
0.0
 70
    32
  3
DUAL-DIM
 13
292.5309386341546
 23
1085.617208669807
 33
0.0
 14
624.5309386341546
 24
1085.617208669807
 34
0.0
1001
ACAD
1000
DSTYLE
1002
{
1070
   287
1070
     5
1070
   279
1070
     2
1002
}
  0
DIMENSION
  5
2948
  8
DIMENSIONS
  6
BYBLOCK
  2
*D450
 10
661.5309386341544
 20
1105.01944758635
 30
0.0
 11
643.0309386341545
 21
1109.22194758635
 31
0.0
 70
    32
  3
DUAL-DIM
 13
624.5309386341546
 23
1085.617208669807
 33
0.0
 14
661.5309386341544
 24
1085.617208669807
 34
0.0
1001
ACAD
1000
DSTYLE
1002
{
1070
   287
1070
     5
1070
   279
1070
     2
1002
}
  0
DIMENSION
  5
2957
  8
DIMENSIONS
  6
BYBLOCK
  2
*D451
 10
661.5309386341544
 20
678.2495731508563
 30
0.0
 11
643.0309386341545
 21
682.4520731508563
 31
0.0
 70
    32
  3
DUAL-DIM
 13
624.5309386341546
 23
660.6172086698066
 33
0.0
 14
661.5309386341544
 24
660.6172086698066
 34
0.0
1001
ACAD
1000
DSTYLE
1002
{
1070
   287
1070
     5
1070
   279
1070
     2
1002
}
  0
DIMENSION
  5
2966
  8
DIMENSIONS
  6
BYBLOCK
  2
*D452
 10
221.5309386341546
 20
678.2495731508563
 30
0.0
 11
423.0309386341546
 21
682.4520731508563
 31
0.0
 70
    32
  3
DUAL-DIM
 13
624.5309386341546
 23
660.6172086698066
 33
0.0
 14
221.5309386341546
 24
660.6172086698066
 34
0.0
1001
ACAD
1000
DSTYLE
1002
{
1070
   287
1070
     5
1070
   279
1070
     2
1002
}
  0
DIMENSION
  5
2975
  8
DIMENSIONS
  6
BYBLOCK
  2
*D453
 10
195.0309386341544
 20
693.8471390677316
 30
0.0
 11
243.6909386341546
 21
693.8471390677316
 31
0.0
 70
   160
  3
DUAL-DIM
 13
221.5309386341546
 23
660.6172086698066
 33
0.0
 14
195.0309386341544
 24
660.6172086698066
 34
0.0
1001
ACAD
1000
DSTYLE
1002
{
1070
   287
1070
     3
1070
   279
1070
     0
1002
}
  0
DIMENSION
  5
29A1
  8
DIMENSIONS
  6
BYBLOCK
  2
*D454
 10
136.4009000689003
 20
1483.617208669808
 30
0.0
 11
136.4009000689003
 21
1459.644708669808
 31
0.0
 70
   160
  3
DUAL-DIM
 13
175.0309386341547
 23
1493.617208669807
 33
0.0
 14
250.0309386341544
 24
1483.617208669808
 34
0.0
 50
90.0
1001
ACAD
1000
DSTYLE
1002
{
1070
   287
1070
     3
1070
   279
1070
     0
1002
}
  0
DIMENSION
  5
29B1
  8
DIMENSIONS
  6
BYBLOCK
  2
*D455
 10
155.529438747324
 20
1418.617208669807
 30
0.0
 11
151.3269387473239
 21
1451.117208669807
 31
0.0
 70
    32
  3
DUAL-DIM
 13
250.0309386341544
 23
1483.617208669808
 33
0.0
 14
185.0309386341546
 24
1418.617208669807
 34
0.0
 50
90.0
1001
ACAD
1000
DSTYLE
1002
{
1070
   287
1070
     5
1070
   279
1070
     2
1002
}
  0
DIMENSION
  5
29C0
  8
DIMENSIONS
  6
BYBLOCK
  2
*D456
 10
155.529438747324
 20
1235.617208669807
 30
0.0
 11
151.3269387473239
 21
1327.117208669807
 31
0.0
 70
    32
  3
DUAL-DIM
 13
185.0309386341546
 23
1418.617208669807
 33
0.0
 14
185.0309386341546
 24
1235.617208669807
 34
0.0
 50
90.0
1001
ACAD
1000
DSTYLE
1002
{
1070
   287
1070
     5
1070
   279
1070
     2
1002
}
  0
DIMENSION
  5
29CF
  8
DIMENSIONS
  6
BYBLOCK
  2
*D457
 10
155.529438747324
 20
1052.617208669807
 30
0.0
 11
151.3269387473239
 21
1144.117208669807
 31
0.0
 70
    32
  3
DUAL-DIM
 13
185.0309386341546
 23
1235.617208669807
 33
0.0
 14
185.0309386341546
 24
1052.617208669807
 34
0.0
 50
90.0
1001
ACAD
1000
DSTYLE
1002
{
1070
   287
1070
     5
1070
   279
1070
     2
1002
}
  0
DIMENSION
  5
29DE
  8
DIMENSIONS
  6
BYBLOCK
  2
*D458
 10
155.529438747324
 20
869.6172086698067
 30
0.0
 11
151.326938747324
 21
961.1172086698066
 31
0.0
 70
    32
  3
DUAL-DIM
 13
185.0309386341546
 23
1052.617208669807
 33
0.0
 14
185.0309386341546
 24
869.6172086698067
 34
0.0
 50
90.0
1001
ACAD
1000
DSTYLE
1002
{
1070
   287
1070
     5
1070
   279
1070
     2
1002
}
  0
DIMENSION
  5
29ED
  8
DIMENSIONS
  6
BYBLOCK
  2
*D459
 10
155.529438747324
 20
686.6172086698067
 30
0.0
 11
151.326938747324
 21
778.1172086698067
 31
0.0
 70
    32
  3
DUAL-DIM
 13
185.0309386341546
 23
869.6172086698067
 33
0.0
 14
185.0309386341546
 24
686.6172086698067
 34
0.0
 50
90.0
1001
ACAD
1000
DSTYLE
1002
{
1070
   287
1070
     5
1070
   279
1070
     2
1002
}
  0
DIMENSION
  5
29FC
  8
DIMENSIONS
  6
BYBLOCK
  2
*D460
 10
155.529438747324
 20
503.6172086698067
 30
0.0
 11
151.326938747324
 21
595.1172086698067
 31
0.0
 70
    32
  3
DUAL-DIM
 13
185.0309386341546
 23
686.6172086698067
 33
0.0
 14
185.0309386341546
 24
503.6172086698067
 34
0.0
 50
90.0
1001
ACAD
1000
DSTYLE
1002
{
1070
   287
1070
     5
1070
   279
1070
     2
1002
}
  0
DIMENSION
  5
2A0B
  8
DIMENSIONS
  6
BYBLOCK
  2
*D461
 10
155.529438747324
 20
438.6172086698047
 30
0.0
 11
151.326938747324
 21
471.1172086698057
 31
0.0
 70
    32
  3
DUAL-DIM
 13
185.0309386341546
 23
503.6172086698067
 33
0.0
 14
250.0309386341544
 24
438.6172086698047
 34
0.0
 50
90.0
1001
ACAD
1000
DSTYLE
1002
{
1070
   287
1070
     5
1070
   279
1070
     2
1002
}
  0
DIMENSION
  5
2A1A
  8
DIMENSIONS
  6
BYBLOCK
  2
*D462
 10
137.2809263500497
 20
428.6172086698067
 30
0.0
 11
137.2809263500497
 21
462.5897086698046
 31
0.0
 70
   160
  3
DUAL-DIM
 13
250.0309386341544
 23
438.6172086698047
 33
0.0
 14
175.0309386341547
 24
428.6172086698067
 34
0.0
 50
90.0
1001
ACAD
1000
DSTYLE
1002
{
1070
   287
1070
     3
1070
   279
1070
     0
1002
}
  0
DIMENSION
  5
2A2C
  8
DIMENSIONS
  6
BYBLOCK
  2
*D463
 10
721.6446436911754
 20
1473.617208669807
 30
0.0
 11
721.6446436911754
 21
1453.348406665218
 31
0.0
 70
   160
  3
DUAL-DIM
 13
681.5309386341544
 23
1493.617208669807
 33
0.0
 14
661.5309386341544
 24
1473.617208669807
 34
0.0
 50
90.0
1001
ACAD
1000
DSTYLE
1002
{
1070
   287
1070
     3
1070
   279
1070
     0
1002
}
  0
DIMENSION
  5
2A3B
  8
DIMENSIONS
  6
BYBLOCK
  2
*D464
 10
701.9888236278626
 20
1085.617208669807
 30
0.0
 11
697.7863236278625
 21
1279.617208669807
 31
0.0
 70
    32
  3
DUAL-DIM
 13
661.5309386341544
 23
1473.617208669807
 33
0.0
 14
624.5309386341546
 24
1085.617208669807
 34
0.0
 50
90.0
1001
ACAD
1000
DSTYLE
1002
{
1070
   287
1070
     5
1070
   279
1070
     2
1002
}
  0
DIMENSION
  5
2A4A
  8
DIMENSIONS
  6
BYBLOCK
  2
*D465
 10
701.9888236278626
 20
953.6172086698066
 30
0.0
 11
697.7863236278627
 21
1019.617208669807
 31
0.0
 70
    32
  3
DUAL-DIM
 13
624.5309386341546
 23
1085.617208669807
 33
0.0
 14
624.5309386341546
 24
953.6172086698066
 34
0.0
 50
90.0
1001
ACAD
1000
DSTYLE
1002
{
1070
   287
1070
     5
1070
   279
1070
     2
1002
}
  0
DIMENSION
  5
2A59
  8
DIMENSIONS
  6
BYBLOCK
  2
*D466
 10
701.9888236278626
 20
660.6172086698066
 30
0.0
 11
697.7863236278627
 21
807.1172086698066
 31
0.0
 70
    32
  3
DUAL-DIM
 13
624.5309386341546
 23
953.6172086698066
 33
0.0
 14
624.5309386341546
 24
660.6172086698066
 34
0.0
 50
90.0
1001
ACAD
1000
DSTYLE
1002
{
1070
   287
1070
     5
1070
   279
1070
     2
1002
}
  0
DIMENSION
  5
2A68
  8
DIMENSIONS
  6
BYBLOCK
  2
*D467
 10
701.9888236278626
 20
475.6172086698067
 30
0.0
 11
697.7863236278627
 21
568.1172086698066
 31
0.0
 70
    32
  3
DUAL-DIM
 13
624.5309386341546
 23
660.6172086698066
 33
0.0
 14
624.5309386341546
 24
475.6172086698067
 34
0.0
 50
90.0
1001
ACAD
1000
DSTYLE
1002
{
1070
   287
1070
     5
1070
   279
1070
     2
1002
}
  0
DIMENSION
  5
2A77
  8
DIMENSIONS
  6
BYBLOCK
  2
*D468
 10
723.2976449927403
 20
448.6172086698066
 30
0.0
 11
723.2976449927403
 21
494.8672086698067
 31
0.0
 70
   160
  3
DUAL-DIM
 13
624.5309386341546
 23
475.6172086698067
 33
0.0
 14
661.5309386341544
 24
448.6172086698066
 34
0.0
 50
90.0
1001
ACAD
1000
DSTYLE
1002
{
1070
   287
1070
     3
1070
   279
1070
     0
1002
}
  0
DIMENSION
  5
2A86
  8
DIMENSIONS
  6
BYBLOCK
  2
*D469
 10
744.4364353528629
 20
428.6172086698066
 30
0.0
 11
744.4364353528629
 21
467.8672086698066
 31
0.0
 70
   160
  3
DUAL-DIM
 13
661.5309386341544
 23
448.6172086698066
 33
0.0
 14
681.5309386341544
 24
428.6172086698066
 34
0.0
 50
90.0
1001
ACAD
1000
DSTYLE
1002
{
1070
   287
1070
     3
1070
   279
1070
     0
1002
}
  0
DIMENSION
  5
2A98
  8
DIMENSIONS
  6
BYBLOCK
  2
*D470
 10
610.0309343697271
 20
438.6117450653273
 30
0.0
 11
575.3284766515251
 21
438.6659167037402
 31
0.0
 70
   163
  1
<>
  3
DUAL-DIM
 15
603.0309428985819
 25
438.6226722742861
 35
0.0
 40
0.0
1001
ACAD
1000
DSTYLE
1002
{
1070
   287
1070
     3
1070
   279
1070
     0
1002
}
1001
ACAD_DSTYLE_DIMRADIAL_EXT0
1070
   387
1070
     1
1070
   388
1040
0.0
1070
   390
1040
6.283185307179586
  0
DIMENSION
  5
2AA8
  8
DIMENSIONS
  6
BYBLOCK
  2
*D471
 10
117.9695850191015
 20
1493.617208669807
 30
0.0
 11
113.7670850191014
 21
961.1172086698066
 31
0.0
 70
    32
  3
DUAL-DIM
 13
175.0309386341547
 23
428.6172086698067
 33
0.0
 14
175.0309386341547
 24
1493.617208669807
 34
0.0
 50
90.0
1001
ACAD
1000
DSTYLE
1002
{
1070
   287
1070
     5
1070
   279
1070
     2
1002
}
  0
POLYLINE
  5
2AB7
  8
0
  6
BYBLOCK
 66
     1
 10
0.0
 20
0.0
 30
0.0
 70
     1
  0
VERTEX
  5
2AE6
  8
0
  6
BYBLOCK
 10
15.69789006586018
 20
361.7356782435963
 30
0.0
  0
VERTEX
  5
2AE7
  8
0
  6
BYBLOCK
 10
15.69789006586018
 20
1592.349100918956
 30
0.0
  0
VERTEX
  5
2AE8
  8
0
  6
BYBLOCK
 10
818.057841650195
 20
1592.349100918956
 30
0.0
  0
VERTEX
  5
2AE9
  8
0
  6
BYBLOCK
 10
818.057841650195
 20
361.7356782435963
 30
0.0
  0
SEQEND
  5
2AEE
  8
0
  6
BYBLOCK
  0
VIEWPORT
  5
B1C
 67
     1
  8
0
 10
5.25
 20
3.5
 30
0.0
 40
12.6
 41
8.4
 68
     1
 69
     1
1001
ACAD
1000
MVIEW
1002
{
1070
    16
1010
0.0
1020
0.0
1030
0.0
1010
0.0
1020
0.0
1030
1.0
1040
0.0
1040
8.4
1040
5.25
1040
3.5
1040
50.0
1040
0.0
1040
0.0
1070
     0
1070
   100
1070
     0
1070
     3
1070
     0
1070
     0
1070
     0
1070
     0
1040
0.0
1040
0.0
1040
0.0
1040
0.5
1040
0.5
1040
0.0
1040
0.0
1070
     0
1002
{
1002
}
1002
}
  0
VIEWPORT
  5
B1D
 67
     1
  8
0
 10
5.25
 20
3.5
 30
0.0
 40
8.4
 41
5.600000000000001
 68
     2
 69
     2
1001
ACAD
1000
MVIEW
1002
{
1070
    16
1010
0.0
1020
0.0
1030
0.0
1010
0.0
1020
0.0
1030
1.0
1040
0.0
1040
278.6419840998563
1040
207.1268606538857
1040
36.27547653054833
1040
50.0
1040
0.0
1040
0.0
1070
     0
1070
   100
1070
     0
1070
     3
1070
     0
1070
     0
1070
     0
1070
     0
1040
0.0
1040
0.0
1040
0.0
1040
0.5
1040
0.5
1040
0.0
1040
0.0
1070
     0
1002
{
1002
}
1002
}
  0
ENDSEC
  0
EOF
