  0
SECTION
  2
HEADER
  9
$ACADVER
  1
AC1009
  9
$DWGCODEPAGE
  3
ansi_1252
  9
$INSBASE
 10
0.0
 20
0.0
 30
0.0
  9
$EXTMIN
 10
1.000000000000000E+20
 20
1.000000000000000E+20
 30
1.000000000000000E+20
  9
$EXTMAX
 10
-1.000000000000000E+20
 20
-1.000000000000000E+20
 30
-1.000000000000000E+20
  9
$LIMMIN
 10
0.0
 20
0.0
  9
$LIMMAX
 10
594.0
 20
420.0
  9
$ORTHOMODE
 70
     0
  9
$REGENMODE
 70
     1
  9
$FILLMODE
 70
     1
  9
$QTEXTMODE
 70
     0
  9
$MIRRTEXT
 70
     1
  9
$DRAGMODE
 70
     2
  9
$LTSCALE
 40
32.67
  9
$OSMODE
 70
   511
  9
$ATTMODE
 70
     1
  9
$TEXTSIZE
 40
0.2
  9
$TRACEWID
 40
0.05
  9
$TEXTSTYLE
  7
STANDARD
  9
$CLAYER
  8
DIMENSIONS
  9
$CELTYPE
  6
BYBLOCK
  9
$CECOLOR
 62
   256
  9
$DIMSCALE
 40
1.0
  9
$DIMASZ
 40
5.0
  9
$DIMEXO
 40
1.5
  9
$DIMDLI
 40
1.0
  9
$DIMRND
 40
0.0
  9
$DIMDLE
 40
0.0
  9
$DIMEXE
 40
0.18
  9
$DIMTP
 40
0.0
  9
$DIMTM
 40
0.0
  9
$DIMTXT
 40
5.0
  9
$DIMCEN
 40
2.5
  9
$DIMTSZ
 40
0.0
  9
$DIMTOL
 70
     0
  9
$DIMLIM
 70
     0
  9
$DIMTIH
 70
     0
  9
$DIMTOH
 70
     0
  9
$DIMSE1
 70
     0
  9
$DIMSE2
 70
     0
  9
$DIMTAD
 70
     1
  9
$DIMZIN
 70
     8
  9
$DIMBLK
  1

  9
$DIMASO
 70
     1
  9
$DIMSHO
 70
     1
  9
$DIMPOST
  1

  9
$DIMAPOST
  1

  9
$DIMALT
 70
     1
  9
$DIMALTD
 70
     2
  9
$DIMALTF
 40
0.03937
  9
$DIMLFAC
 40
1.0
  9
$DIMTOFL
 70
     0
  9
$DIMTVP
 40
0.0
  9
$DIMTIX
 70
     0
  9
$DIMSOXD
 70
     0
  9
$DIMSAH
 70
     0
  9
$DIMBLK1
  1

  9
$DIMBLK2
  1

  9
$DIMSTYLE
  2
DUAL-DIM
  9
$DIMCLRD
 70
     0
  9
$DIMCLRE
 70
     0
  9
$DIMCLRT
 70
     5
  9
$DIMTFAC
 40
1.0
  9
$DIMGAP
 40
1.0
  9
$LUNITS
 70
     2
  9
$LUPREC
 70
     4
  9
$SKETCHINC
 40
0.1
  9
$FILLETRAD
 40
15.0
  9
$AUNITS
 70
     0
  9
$AUPREC
 70
     0
  9
$MENU
  1
.
  9
$ELEVATION
 40
0.0
  9
$PELEVATION
 40
0.0
  9
$THICKNESS
 40
0.0
  9
$LIMCHECK
 70
     0
  9
$CHAMFERA
 40
0.0
  9
$CHAMFERB
 40
0.0
  9
$SKPOLY
 70
     0
  9
$TDCREATE
 40
2457428.354677859
  9
$TDUPDATE
 40
2457434.568377917
  9
$TDINDWG
 40
0.1348141204
  9
$TDUSRTIMER
 40
2457434.526358322
  9
$USRTIMER
 70
     1
  9
$ANGBASE
 50
0.0
  9
$ANGDIR
 70
     0
  9
$PDMODE
 70
     3
  9
$PDSIZE
 40
0.3125
  9
$PLINEWID
 40
0.0
  9
$COORDS
 70
     1
  9
$SPLFRAME
 70
     0
  9
$SPLINETYPE
 70
     6
  9
$SPLINESEGS
 70
     8
  9
$ATTDIA
 70
     0
  9
$ATTREQ
 70
     1
  9
$HANDLING
 70
     1
  9
$HANDSEED
  5
399D
  9
$SURFTAB1
 70
     6
  9
$SURFTAB2
 70
     6
  9
$SURFTYPE
 70
     6
  9
$SURFU
 70
     6
  9
$SURFV
 70
     6
  9
$UCSNAME
  2

  9
$UCSORG
 10
0.0
 20
0.0
 30
0.0
  9
$UCSXDIR
 10
1.0
 20
0.0
 30
0.0
  9
$UCSYDIR
 10
0.0
 20
1.0
 30
0.0
  9
$PUCSNAME
  2

  9
$PUCSORG
 10
0.0
 20
0.0
 30
0.0
  9
$PUCSXDIR
 10
1.0
 20
0.0
 30
0.0
  9
$PUCSYDIR
 10
0.0
 20
1.0
 30
0.0
  9
$USERI1
 70
     0
  9
$USERI2
 70
     0
  9
$USERI3
 70
     0
  9
$USERI4
 70
     0
  9
$USERI5
 70
     0
  9
$USERR1
 40
0.0
  9
$USERR2
 40
0.0
  9
$USERR3
 40
0.0
  9
$USERR4
 40
0.0
  9
$USERR5
 40
0.0
  9
$WORLDVIEW
 70
     1
  9
$SHADEDGE
 70
     3
  9
$SHADEDIF
 70
    70
  9
$TILEMODE
 70
     1
  9
$MAXACTVP
 70
    64
  9
$PLIMCHECK
 70
     0
  9
$PEXTMIN
 10
1.05
 20
0.6999999999999997
 30
0.0
  9
$PEXTMAX
 10
9.45
 20
6.300000000000001
 30
0.0
  9
$PLIMMIN
 10
-0.25
 20
-0.7499999999999999
  9
$PLIMMAX
 10
10.75
 20
7.75
  9
$UNITMODE
 70
     0
  9
$VISRETAIN
 70
     1
  9
$PLINEGEN
 70
     0
  9
$PSLTSCALE
 70
     1
  0
ENDSEC
  0
SECTION
  2
TABLES
  0
TABLE
  2
VPORT
 70
     1
  0
VPORT
  2
*ACTIVE
 70
     0
 10
0.0
 20
0.0
 11
1.0
 21
1.0
 12
2386.49218498487
 22
678.6854989429511
 13
0.0
 23
0.0
 14
0.5
 24
0.5
 15
0.5
 25
0.5
 16
0.0
 26
0.0
 36
1.0
 17
0.0
 27
0.0
 37
0.0
 40
2644.985453686111
 41
2.792291220556745
 42
50.0
 43
0.0
 44
0.0
 50
0.0
 51
0.0
 71
    16
 72
   100
 73
     1
 74
     3
 75
     0
 76
     0
 77
     0
 78
     0
  0
ENDTAB
  0
TABLE
  2
LTYPE
 70
     7
  0
LTYPE
  2
CONTINUOUS
 70
     0
  3
Solid line
 72
    65
 73
     0
 40
0.0
  0
LTYPE
  2
CENTER
 70
     0
  3
____ _ ____ _ ____ _ ____ _ ____ _ ____ _ ____
 72
    65
 73
     4
 40
0.6
 49
0.375
 49
-0.075
 49
0.075
 49
-0.075
  0
LTYPE
  2
HIDDEN
 70
     0
  3
- - - - - - - - - - - - - - - - - - - -
 72
    65
 73
     2
 40
0.2
 49
0.1
 49
-0.1
  0
LTYPE
  2
PHANTOM
 70
     0
  3
_____ _ _ _____ _ _ _____ _ _ _____
 72
    65
 73
     6
 40
0.8
 49
0.45
 49
-0.05
 49
0.1
 49
-0.05
 49
0.1
 49
-0.05
  0
LTYPE
  2
DOT
 70
     0
  3
. . . . . . . . . . . . . . . . . . . .
 72
    65
 73
     2
 40
0.2
 49
0.1
 49
-0.1
  0
LTYPE
  2
DASHED
 70
     0
  3
- - - - - - - - - - - - - - - - - - - -
 72
    65
 73
     2
 40
0.2
 49
0.1
 49
-0.1
  0
LTYPE
  2
STRICHPUNKT
 70
     0
  3
__ . __ . __ . __ . __ . __ . __ . __ . __ . __
 72
    65
 73
     4
 40
1.0
 49
0.5
 49
-0.25
 49
0.0
 49
-0.25
  0
ENDTAB
  0
TABLE
  2
LAYER
 70
    19
  0
LAYER
  2
0
 70
     0
 62
     7
  6
CONTINUOUS
  0
LAYER
  2
DEFAULT_1
 70
     0
 62
     7
  6
CENTER
  0
LAYER
  2
DEFAULT_2
 70
     0
 62
     7
  6
HIDDEN
  0
LAYER
  2
DEFAULT_3
 70
     0
 62
     7
  6
PHANTOM
  0
LAYER
  2
01___PRT_ALL_DTM_PLN
 70
     0
 62
     7
  6
CONTINUOUS
  0
LAYER
  2
01___PRT_DEF_DTM_PLN
 70
     0
 62
     7
  6
CONTINUOUS
  0
LAYER
  2
02___PRT_ALL_AXES
 70
     0
 62
     7
  6
CONTINUOUS
  0
LAYER
  2
03___PRT_ALL_CURVES
 70
     0
 62
     7
  6
CONTINUOUS
  0
LAYER
  2
04___PRT_ALL_DTM_PNT
 70
     0
 62
     7
  6
CONTINUOUS
  0
LAYER
  2
05___PRT_ALL_DTM_CSYS
 70
     0
 62
     7
  6
CONTINUOUS
  0
LAYER
  2
05___PRT_DEF_DTM_CSYS
 70
     0
 62
     7
  6
CONTINUOUS
  0
LAYER
  2
06___PRT_ALL_SURFS
 70
     0
 62
     7
  6
CONTINUOUS
  0
LAYER
  2
DEFPOINTS
 70
     0
 62
     7
  6
CONTINUOUS
  0
LAYER
  2
DIMENSIONS
 70
     0
 62
     2
  6
CONTINUOUS
  0
LAYER
  2
AM_5
 70
     0
 62
     3
  6
CONTINUOUS
  0
LAYER
  2
CUTOUT
 70
     0
 62
     7
  6
CONTINUOUS
  0
LAYER
  2
EXTERNAL_OUTFIT
 70
     0
 62
     7
  6
CENTER
  0
LAYER
  2
OUTLINES
 70
     0
 62
     4
  6
CONTINUOUS
  0
LAYER
  2
3
 70
     0
 62
     4
  6
CONTINUOUS
  0
ENDTAB
  0
TABLE
  2
STYLE
 70
     2
  0
STYLE
  2
STANDARD
 70
     0
 40
0.0
 41
1.0
 50
0.0
 71
     0
 42
0.2
  3
arial.ttf
  4

  0
STYLE
  2
TEXTSTYLE_1
 70
     0
 40
0.0
 41
0.8
 50
0.0
 71
     0
 42
0.2
  3
gdt
  4

  0
ENDTAB
  0
TABLE
  2
VIEW
 70
     0
  0
ENDTAB
  0
TABLE
  2
UCS
 70
     0
  0
ENDTAB
  0
TABLE
  2
APPID
 70
    11
  0
APPID
  2
ACAD
 70
     0
  0
APPID
  2
ACAECLAYERSTANDARD
 70
     0
  0
APPID
  2
ACAD_DSTYLE_DIMRADIAL_EXTE
 70
     0
  0
APPID
  2
ACAD_DSTYLE_DIMJOGGED_JOGA
 70
     0
  0
APPID
  2
ACAD_DSTYLE_DIMJAG
 70
     0
  0
APPID
  2
ACAD_DSTYLE_DIMBREAK
 70
     0
  0
APPID
  2
ACAD_PSEXT
 70
     0
  0
APPID
  2
ACAD_DSTYLE_DIMINSPECT
 70
     0
  0
APPID
  2
ACAD_DSTYLE_DIMRADIAL_EXT0
 70
     0
  0
APPID
  2
ACAD_DSTYLE_DIMJOGGED_JOG0
 70
     0
  0
APPID
  2
PLOTTRANSPARENCY
 70
     0
  0
ENDTAB
  0
TABLE
  2
DIMSTYLE
 70
     5
  0
DIMSTYLE
  2
STANDARD
 70
     0
  3

  4

  5

  6

  7

 40
1.0
 41
0.18
 42
0.0625
 43
0.38
 44
0.18
 45
0.0
 46
0.0
 47
0.0
 48
0.0
140
0.18
141
0.09
142
0.0
143
25.4
144
1.0
145
0.0
146
1.0
147
0.09
 71
     0
 72
     0
 73
     1
 74
     1
 75
     0
 76
     0
 77
     0
 78
     0
170
     0
171
     2
172
     0
173
     0
174
     0
175
     0
176
     0
177
     0
178
     0
  0
DIMSTYLE
  2
DUAL-DIM
 70
     0
  3

  4

  5

  6

  7

 40
1.0
 41
5.0
 42
1.5
 43
1.0
 44
0.18
 45
0.0
 46
0.0
 47
0.0
 48
0.0
140
5.0
141
2.5
142
0.0
143
0.03937
144
1.0
145
0.0
146
1.0
147
1.0
 71
     0
 72
     0
 73
     0
 74
     0
 75
     0
 76
     0
 77
     1
 78
     8
170
     1
171
     2
172
     0
173
     0
174
     0
175
     0
176
     0
177
     0
178
     5
  0
DIMSTYLE
  2
AM_ISO
 70
     0
  3

  4
"
  5

  6

  7

 40
1.0
 41
3.5
 42
1.0
 43
10.0
 44
1.0
 45
0.0
 46
0.0
 47
0.1
 48
0.1
140
3.5
141
0.0
142
0.0
143
0.0393701
144
1.0
145
0.0
146
0.71
147
1.5
 71
     0
 72
     0
 73
     0
 74
     0
 75
     0
 76
     0
 77
     1
 78
     8
170
     0
171
     2
172
     1
173
     0
174
     0
175
     0
176
   256
177
   256
178
     2
  0
DIMSTYLE
  2
AM_ISO$3
 70
     0
  3

  4
"
  5

  6

  7

 40
1.0
 41
3.5
 42
1.0
 43
10.0
 44
1.0
 45
0.0
 46
0.0
 47
0.1
 48
0.1
140
3.5
141
0.0
142
0.0
143
0.0393701
144
1.0
145
0.0
146
0.71
147
1.5
 71
     0
 72
     0
 73
     0
 74
     1
 75
     0
 76
     0
 77
     1
 78
     8
170
     0
171
     2
172
     0
173
     0
174
     0
175
     0
176
   256
177
   256
178
     2
  0
DIMSTYLE
  2
AM_ISO$0
 70
     0
  3

  4
"
  5

  6

  7

 40
1.0
 41
3.5
 42
1.0
 43
10.0
 44
1.0
 45
0.0
 46
0.0
 47
0.1
 48
0.1
140
3.5
141
0.0
142
0.0
143
0.0393701
144
1.0
145
0.0
146
0.71
147
1.5
 71
     0
 72
     0
 73
     0
 74
     0
 75
     0
 76
     0
 77
     1
 78
     8
170
     0
171
     2
172
     1
173
     0
174
     0
175
     0
176
   256
177
   256
178
     2
  0
ENDTAB
  0
ENDSEC
  0
SECTION
  2
BLOCKS
  0
BLOCK
  8
0
  2
$MODEL_SPACE
 70
     0
 10
0.0
 20
0.0
 30
0.0
  3
$MODEL_SPACE
  1

  0
ENDBLK
  5
110
  8
0
  0
BLOCK
 67
     1
  8
0
  2
$PAPER_SPACE
 70
     0
 10
0.0
 20
0.0
 30
0.0
  3
$PAPER_SPACE
  1

  0
ENDBLK
  5
112
 67
     1
  8
0
  0
BLOCK
  8
0
  2
_FILLED
 70
     0
 10
0.0
 20
0.0
 30
0.0
  3
_FILLED
  1

  0
SOLID
  5
3D
  8
0
  6
BYBLOCK
 62
     0
 10
0.0
 20
0.0
 30
0.0
 11
-1.0
 21
0.2
 31
0.0
 12
-1.0
 22
-0.2
 32
0.0
 13
-1.0
 23
-0.2
 33
0.0
  0
ENDBLK
  5
3E
  8
0
  6
BYBLOCK
 62
     0
  0
BLOCK
  8
0
  2
*D524
 70
     1
 10
0.0
 20
0.0
 30
0.0
  3
*D524
  1

  0
LINE
  5
302E
  8
DIMENSIONS
  6
BYBLOCK
 62
     0
 10
193.0167140146839
 20
1226.327705594966
 30
0.0
 11
193.0167140146839
 21
1274.635057099838
 31
0.0
  0
LINE
  5
302F
  8
DIMENSIONS
  6
BYBLOCK
 62
     0
 10
458.0167140146839
 20
1226.327705594966
 30
0.0
 11
458.0167140146839
 21
1274.635057099838
 31
0.0
  0
LINE
  5
3030
  8
DIMENSIONS
  6
BYBLOCK
 62
     0
 10
198.0167140146839
 20
1274.455057099838
 30
0.0
 11
453.0167140146839
 21
1274.455057099838
 31
0.0
  0
SOLID
  5
3031
  8
DIMENSIONS
 62
     0
 10
198.0167140146839
 20
1275.288390433171
 30
0.0
 11
198.0167140146839
 21
1273.621723766505
 31
0.0
 12
193.0167140146839
 22
1274.455057099838
 32
0.0
 13
193.0167140146839
 23
1274.455057099838
 33
0.0
  0
SOLID
  5
3032
  8
DIMENSIONS
 62
     0
 10
453.0167140146839
 20
1273.621723766505
 30
0.0
 11
453.0167140146839
 21
1275.288390433171
 31
0.0
 12
458.0167140146839
 22
1274.455057099838
 32
0.0
 13
458.0167140146839
 23
1274.455057099838
 33
0.0
  0
TEXT
  5
3033
  8
DIMENSIONS
  6
CONTINUOUS
 62
     5
 10
308.1817140146839
 20
1276.850057099838
 30
0.0
 40
5.0
  1
265 [10.43]
  0
POINT
  5
3034
  8
DEFPOINTS
 62
     0
 10
193.0167140146839
 20
1224.827705594966
 30
0.0
  0
POINT
  5
3035
  8
DEFPOINTS
 62
     0
 10
458.0167140146839
 20
1224.827705594966
 30
0.0
  0
POINT
  5
3036
  8
DEFPOINTS
 62
     0
 10
458.0167140146839
 20
1274.455057099838
 30
0.0
  0
ENDBLK
  5
302D
  8
0
  0
BLOCK
  8
0
  2
*D525
 70
     1
 10
0.0
 20
0.0
 30
0.0
  3
*D525
  1

  0
LINE
  5
303D
  8
DIMENSIONS
  6
BYBLOCK
 62
     0
 10
173.5167140146839
 20
1258.327705594966
 30
0.0
 11
173.5167140146839
 21
1291.857848593282
 31
0.0
  0
LINE
  5
303E
  8
DIMENSIONS
  6
BYBLOCK
 62
     0
 10
477.5167140146839
 20
1258.327705594966
 30
0.0
 11
477.5167140146839
 21
1291.857848593282
 31
0.0
  0
LINE
  5
303F
  8
DIMENSIONS
  6
BYBLOCK
 62
     0
 10
178.5167140146839
 20
1291.677848593282
 30
0.0
 11
472.5167140146839
 21
1291.677848593282
 31
0.0
  0
SOLID
  5
3040
  8
DIMENSIONS
 62
     0
 10
178.5167140146839
 20
1292.511181926616
 30
0.0
 11
178.5167140146839
 21
1290.844515259949
 31
0.0
 12
173.5167140146839
 22
1291.677848593282
 32
0.0
 13
173.5167140146839
 23
1291.677848593282
 33
0.0
  0
SOLID
  5
3041
  8
DIMENSIONS
 62
     0
 10
472.5167140146839
 20
1290.844515259949
 30
0.0
 11
472.5167140146839
 21
1292.511181926616
 31
0.0
 12
477.5167140146839
 22
1291.677848593282
 32
0.0
 13
477.5167140146839
 23
1291.677848593282
 33
0.0
  0
TEXT
  5
3042
  8
DIMENSIONS
  6
CONTINUOUS
 62
     5
 10
308.1367140146839
 20
1294.072848593283
 30
0.0
 40
5.0
  1
304 [11.97]
  0
POINT
  5
3043
  8
DEFPOINTS
 62
     0
 10
173.5167140146839
 20
1256.827705594966
 30
0.0
  0
POINT
  5
3044
  8
DEFPOINTS
 62
     0
 10
477.5167140146839
 20
1256.827705594966
 30
0.0
  0
POINT
  5
3045
  8
DEFPOINTS
 62
     0
 10
477.5167140146839
 20
1291.677848593282
 30
0.0
  0
ENDBLK
  5
303C
  8
0
  0
BLOCK
  8
0
  2
*D526
 70
     1
 10
0.0
 20
0.0
 30
0.0
  3
*D526
  1

  0
LINE
  5
304C
  8
DIMENSIONS
  6
BYBLOCK
 62
     0
 10
172.0167140146839
 20
1256.827705594966
 30
0.0
 11
139.8258496344196
 21
1256.827705594966
 31
0.0
  0
LINE
  5
304D
  8
DIMENSIONS
  6
BYBLOCK
 62
     0
 10
191.5167140146839
 20
1236.827705594966
 30
0.0
 11
139.8258496344196
 21
1236.827705594966
 31
0.0
  0
LINE
  5
304E
  8
DIMENSIONS
  6
BYBLOCK
 62
     0
 10
140.0058496344196
 20
1236.827705594966
 30
0.0
 11
140.0058496344196
 21
1203.327705594966
 31
0.0
  0
LINE
  5
304F
  8
DIMENSIONS
  6
BYBLOCK
 62
     0
 10
140.0058496344196
 20
1251.827705594966
 30
0.0
 11
140.0058496344196
 21
1241.827705594966
 31
0.0
  0
SOLID
  5
3050
  8
DIMENSIONS
 62
     0
 10
140.839182967753
 20
1251.827705594966
 30
0.0
 11
139.1725163010863
 21
1251.827705594966
 31
0.0
 12
140.0058496344196
 22
1256.827705594966
 32
0.0
 13
140.0058496344196
 23
1256.827705594966
 33
0.0
  0
SOLID
  5
3051
  8
DIMENSIONS
 62
     0
 10
139.1725163010863
 20
1241.827705594966
 30
0.0
 11
140.839182967753
 21
1241.827705594966
 31
0.0
 12
140.0058496344196
 22
1236.827705594966
 32
0.0
 13
140.0058496344196
 23
1236.827705594966
 33
0.0
  0
TEXT
  5
3052
  8
DIMENSIONS
  6
CONTINUOUS
 62
     5
 10
137.6108496344195
 20
1204.122705594966
 30
0.0
 40
5.0
  1
20 [0.79]
 50
90.0
  0
POINT
  5
3053
  8
DEFPOINTS
 62
     0
 10
173.5167140146839
 20
1256.827705594966
 30
0.0
  0
POINT
  5
3054
  8
DEFPOINTS
 62
     0
 10
193.0167140146839
 20
1236.827705594966
 30
0.0
  0
POINT
  5
30DC
  8
DEFPOINTS
 62
     0
 10
140.0058496344196
 20
1236.827705594966
 30
0.0
  0
ENDBLK
  5
304B
  8
0
  0
BLOCK
  8
0
  2
*D527
 70
     1
 10
0.0
 20
0.0
 30
0.0
  3
*D527
  1

  0
LINE
  5
305B
  8
DIMENSIONS
  6
BYBLOCK
 62
     0
 10
191.5167140146839
 20
1236.827705594966
 30
0.0
 11
155.6185172115028
 21
1236.827705594966
 31
0.0
  0
LINE
  5
305C
  8
DIMENSIONS
  6
BYBLOCK
 62
     0
 10
191.5167140146839
 20
1036.827705594966
 30
0.0
 11
155.6185172115028
 21
1036.827705594966
 31
0.0
  0
LINE
  5
305D
  8
DIMENSIONS
  6
BYBLOCK
 62
     0
 10
155.7985172115028
 20
1231.827705594966
 30
0.0
 11
155.7985172115028
 21
1041.827705594966
 31
0.0
  0
SOLID
  5
305E
  8
DIMENSIONS
 62
     0
 10
156.6318505448361
 20
1231.827705594966
 30
0.0
 11
154.9651838781694
 21
1231.827705594966
 31
0.0
 12
155.7985172115028
 22
1236.827705594966
 32
0.0
 13
155.7985172115028
 23
1236.827705594966
 33
0.0
  0
SOLID
  5
305F
  8
DIMENSIONS
 62
     0
 10
154.9651838781694
 20
1041.827705594966
 30
0.0
 11
156.6318505448361
 21
1041.827705594966
 31
0.0
 12
155.7985172115028
 22
1036.827705594966
 32
0.0
 13
155.7985172115028
 23
1036.827705594966
 33
0.0
  0
TEXT
  5
3060
  8
DIMENSIONS
  6
CONTINUOUS
 62
     5
 10
153.4035172115025
 20
1121.432705594966
 30
0.0
 40
5.0
  1
200 [7.87]
 50
90.0
  0
POINT
  5
3061
  8
DEFPOINTS
 62
     0
 10
193.0167140146839
 20
1236.827705594966
 30
0.0
  0
POINT
  5
3062
  8
DEFPOINTS
 62
     0
 10
193.0167140146839
 20
1036.827705594966
 30
0.0
  0
POINT
  5
3063
  8
DEFPOINTS
 62
     0
 10
155.7985172115028
 20
1036.827705594966
 30
0.0
  0
ENDBLK
  5
305A
  8
0
  0
BLOCK
  8
0
  2
*D528
 70
     1
 10
0.0
 20
0.0
 30
0.0
  3
*D528
  1

  0
LINE
  5
306A
  8
DIMENSIONS
  6
BYBLOCK
 62
     0
 10
191.5167140146839
 20
1036.827705594966
 30
0.0
 11
155.6185172115028
 21
1036.827705594966
 31
0.0
  0
LINE
  5
306B
  8
DIMENSIONS
  6
BYBLOCK
 62
     0
 10
191.5167140146839
 20
801.827705594966
 30
0.0
 11
155.6185172115027
 21
801.827705594966
 31
0.0
  0
LINE
  5
306C
  8
DIMENSIONS
  6
BYBLOCK
 62
     0
 10
155.7985172115028
 20
1031.827705594966
 30
0.0
 11
155.7985172115027
 21
806.827705594966
 31
0.0
  0
SOLID
  5
306D
  8
DIMENSIONS
 62
     0
 10
156.6318505448361
 20
1031.827705594966
 30
0.0
 11
154.9651838781694
 21
1031.827705594966
 31
0.0
 12
155.7985172115028
 22
1036.827705594966
 32
0.0
 13
155.7985172115028
 23
1036.827705594966
 33
0.0
  0
SOLID
  5
306E
  8
DIMENSIONS
 62
     0
 10
154.9651838781694
 20
806.827705594966
 30
0.0
 11
156.6318505448361
 21
806.827705594966
 31
0.0
 12
155.7985172115027
 22
801.827705594966
 32
0.0
 13
155.7985172115027
 23
801.827705594966
 33
0.0
  0
TEXT
  5
306F
  8
DIMENSIONS
  6
CONTINUOUS
 62
     5
 10
153.4035172115028
 20
903.9327055949661
 30
0.0
 40
5.0
  1
235 [9.25]
 50
90.0
  0
POINT
  5
3070
  8
DEFPOINTS
 62
     0
 10
193.0167140146839
 20
1036.827705594966
 30
0.0
  0
POINT
  5
3071
  8
DEFPOINTS
 62
     0
 10
193.0167140146839
 20
801.827705594966
 30
0.0
  0
POINT
  5
3072
  8
DEFPOINTS
 62
     0
 10
155.7985172115027
 20
801.827705594966
 30
0.0
  0
ENDBLK
  5
3069
  8
0
  0
BLOCK
  8
0
  2
*D529
 70
     1
 10
0.0
 20
0.0
 30
0.0
  3
*D529
  1

  0
LINE
  5
3079
  8
DIMENSIONS
  6
BYBLOCK
 62
     0
 10
191.5167140146839
 20
801.827705594966
 30
0.0
 11
155.6185172115027
 21
801.827705594966
 31
0.0
  0
LINE
  5
307A
  8
DIMENSIONS
  6
BYBLOCK
 62
     0
 10
191.5167140146839
 20
451.827705594966
 30
0.0
 11
155.6185172115027
 21
451.827705594966
 31
0.0
  0
LINE
  5
307B
  8
DIMENSIONS
  6
BYBLOCK
 62
     0
 10
155.7985172115027
 20
796.827705594966
 30
0.0
 11
155.7985172115027
 21
456.827705594966
 31
0.0
  0
SOLID
  5
307C
  8
DIMENSIONS
 62
     0
 10
156.6318505448361
 20
796.827705594966
 30
0.0
 11
154.9651838781694
 21
796.827705594966
 31
0.0
 12
155.7985172115027
 22
801.827705594966
 32
0.0
 13
155.7985172115027
 23
801.827705594966
 33
0.0
  0
SOLID
  5
307D
  8
DIMENSIONS
 62
     0
 10
154.9651838781694
 20
456.827705594966
 30
0.0
 11
156.6318505448361
 21
456.827705594966
 31
0.0
 12
155.7985172115027
 22
451.827705594966
 32
0.0
 13
155.7985172115027
 23
451.827705594966
 33
0.0
  0
TEXT
  5
307E
  8
DIMENSIONS
  6
CONTINUOUS
 62
     5
 10
153.4035172115027
 20
609.447705594966
 30
0.0
 40
5.0
  1
350 [13.78]
 50
90.0
  0
POINT
  5
307F
  8
DEFPOINTS
 62
     0
 10
193.0167140146839
 20
801.827705594966
 30
0.0
  0
POINT
  5
3080
  8
DEFPOINTS
 62
     0
 10
193.0167140146839
 20
451.827705594966
 30
0.0
  0
POINT
  5
3081
  8
DEFPOINTS
 62
     0
 10
155.7985172115027
 20
451.827705594966
 30
0.0
  0
ENDBLK
  5
3078
  8
0
  0
BLOCK
  8
0
  2
*D530
 70
     1
 10
0.0
 20
0.0
 30
0.0
  3
*D530
  1

  0
LINE
  5
3088
  8
DIMENSIONS
  6
BYBLOCK
 62
     0
 10
191.5167140146839
 20
451.827705594966
 30
0.0
 11
140.1376350754311
 21
451.827705594966
 31
0.0
  0
LINE
  5
3089
  8
DIMENSIONS
  6
BYBLOCK
 62
     0
 10
172.0167140146839
 20
426.827705594966
 30
0.0
 11
140.1376350754311
 21
426.827705594966
 31
0.0
  0
LINE
  5
308A
  8
DIMENSIONS
  6
BYBLOCK
 62
     0
 10
140.3176350754311
 20
451.827705594966
 30
0.0
 11
140.3176350754311
 21
485.327705594966
 31
0.0
  0
LINE
  5
308B
  8
DIMENSIONS
  6
BYBLOCK
 62
     0
 10
140.3176350754311
 20
446.827705594966
 30
0.0
 11
140.3176350754311
 21
431.827705594966
 31
0.0
  0
SOLID
  5
308C
  8
DIMENSIONS
 62
     0
 10
141.1509684087644
 20
446.827705594966
 30
0.0
 11
139.4843017420977
 21
446.827705594966
 31
0.0
 12
140.3176350754311
 22
451.827705594966
 32
0.0
 13
140.3176350754311
 23
451.827705594966
 33
0.0
  0
SOLID
  5
308D
  8
DIMENSIONS
 62
     0
 10
139.4843017420977
 20
431.827705594966
 30
0.0
 11
141.1509684087644
 21
431.827705594966
 31
0.0
 12
140.3176350754311
 22
426.827705594966
 32
0.0
 13
140.3176350754311
 23
426.827705594966
 33
0.0
  0
TEXT
  5
308E
  8
DIMENSIONS
  6
CONTINUOUS
 62
     5
 10
137.9226350754311
 20
457.622705594966
 30
0.0
 40
5.0
  1
25 [0.98]
 50
90.0
  0
POINT
  5
308F
  8
DEFPOINTS
 62
     0
 10
193.0167140146839
 20
451.827705594966
 30
0.0
  0
POINT
  5
3090
  8
DEFPOINTS
 62
     0
 10
173.5167140146839
 20
426.827705594966
 30
0.0
  0
POINT
  5
30DD
  8
DEFPOINTS
 62
     0
 10
140.3176350754311
 20
426.827705594966
 30
0.0
  0
ENDBLK
  5
3087
  8
0
  0
BLOCK
  8
0
  2
*D531
 70
     1
 10
0.0
 20
0.0
 30
0.0
  3
*D531
  1

  0
LINE
  5
3097
  8
DIMENSIONS
  6
BYBLOCK
 62
     0
 10
479.0167140146839
 20
1256.827705594966
 30
0.0
 11
498.2637194471139
 21
1256.827705594966
 31
0.0
  0
LINE
  5
3098
  8
DIMENSIONS
  6
BYBLOCK
 62
     0
 10
459.5167140146839
 20
1224.827705594966
 30
0.0
 11
498.2637194471139
 21
1224.827705594966
 31
0.0
  0
LINE
  5
3099
  8
DIMENSIONS
  6
BYBLOCK
 62
     0
 10
498.0837194471139
 20
1251.827705594966
 30
0.0
 11
498.0837194471139
 21
1229.827705594966
 31
0.0
  0
SOLID
  5
309A
  8
DIMENSIONS
 62
     0
 10
498.9170527804472
 20
1251.827705594966
 30
0.0
 11
497.2503861137806
 21
1251.827705594966
 31
0.0
 12
498.0837194471139
 22
1256.827705594966
 32
0.0
 13
498.0837194471139
 23
1256.827705594966
 33
0.0
  0
SOLID
  5
309B
  8
DIMENSIONS
 62
     0
 10
497.2503861137806
 20
1229.827705594966
 30
0.0
 11
498.9170527804472
 21
1229.827705594966
 31
0.0
 12
498.0837194471139
 22
1224.827705594966
 32
0.0
 13
498.0837194471139
 23
1224.827705594966
 33
0.0
  0
TEXT
  5
309C
  8
DIMENSIONS
  6
CONTINUOUS
 62
     5
 10
495.6887194471137
 20
1227.327705594966
 30
0.0
 40
5.0
  1
32 [1.26]
 50
90.0
  0
POINT
  5
309D
  8
DEFPOINTS
 62
     0
 10
477.5167140146839
 20
1256.827705594966
 30
0.0
  0
POINT
  5
309E
  8
DEFPOINTS
 62
     0
 10
458.0167140146839
 20
1224.827705594966
 30
0.0
  0
POINT
  5
309F
  8
DEFPOINTS
 62
     0
 10
498.0837194471139
 20
1224.827705594966
 30
0.0
  0
ENDBLK
  5
3096
  8
0
  0
BLOCK
  8
0
  2
*D532
 70
     1
 10
0.0
 20
0.0
 30
0.0
  3
*D532
  1

  0
LINE
  5
30A6
  8
DIMENSIONS
  6
BYBLOCK
 62
     0
 10
459.5167140146839
 20
1224.827705594966
 30
0.0
 11
498.2637194471139
 21
1224.827705594966
 31
0.0
  0
LINE
  5
30A7
  8
DIMENSIONS
  6
BYBLOCK
 62
     0
 10
459.5167140146839
 20
1044.827705594966
 30
0.0
 11
498.2637194471139
 21
1044.827705594966
 31
0.0
  0
LINE
  5
30A8
  8
DIMENSIONS
  6
BYBLOCK
 62
     0
 10
498.0837194471139
 20
1219.827705594966
 30
0.0
 11
498.0837194471139
 21
1049.827705594966
 31
0.0
  0
SOLID
  5
30A9
  8
DIMENSIONS
 62
     0
 10
498.9170527804472
 20
1219.827705594966
 30
0.0
 11
497.2503861137806
 21
1219.827705594966
 31
0.0
 12
498.0837194471139
 22
1224.827705594966
 32
0.0
 13
498.0837194471139
 23
1224.827705594966
 33
0.0
  0
SOLID
  5
30AA
  8
DIMENSIONS
 62
     0
 10
497.2503861137806
 20
1049.827705594966
 30
0.0
 11
498.9170527804472
 21
1049.827705594966
 31
0.0
 12
498.0837194471139
 22
1044.827705594966
 32
0.0
 13
498.0837194471139
 23
1044.827705594966
 33
0.0
  0
TEXT
  5
30AB
  8
DIMENSIONS
  6
CONTINUOUS
 62
     5
 10
495.6887194471137
 20
1119.155205594966
 30
0.0
 40
5.0
  1
180 [7.09]
 50
90.0
  0
POINT
  5
30AC
  8
DEFPOINTS
 62
     0
 10
458.0167140146839
 20
1224.827705594966
 30
0.0
  0
POINT
  5
30AD
  8
DEFPOINTS
 62
     0
 10
458.0167140146839
 20
1044.827705594966
 30
0.0
  0
POINT
  5
30AE
  8
DEFPOINTS
 62
     0
 10
498.0837194471139
 20
1044.827705594966
 30
0.0
  0
ENDBLK
  5
30A5
  8
0
  0
BLOCK
  8
0
  2
*D533
 70
     1
 10
0.0
 20
0.0
 30
0.0
  3
*D533
  1

  0
LINE
  5
30B5
  8
DIMENSIONS
  6
BYBLOCK
 62
     0
 10
459.5167140146839
 20
1044.827705594966
 30
0.0
 11
498.2637194471139
 21
1044.827705594966
 31
0.0
  0
LINE
  5
30B6
  8
DIMENSIONS
  6
BYBLOCK
 62
     0
 10
459.5167140146839
 20
994.827705594966
 30
0.0
 11
498.2637194471139
 21
994.827705594966
 31
0.0
  0
LINE
  5
30B7
  8
DIMENSIONS
  6
BYBLOCK
 62
     0
 10
498.0837194471139
 20
1039.827705594966
 30
0.0
 11
498.0837194471139
 21
999.827705594966
 31
0.0
  0
SOLID
  5
30B8
  8
DIMENSIONS
 62
     0
 10
498.9170527804472
 20
1039.827705594966
 30
0.0
 11
497.2503861137806
 21
1039.827705594966
 31
0.0
 12
498.0837194471139
 22
1044.827705594966
 32
0.0
 13
498.0837194471139
 23
1044.827705594966
 33
0.0
  0
SOLID
  5
30B9
  8
DIMENSIONS
 62
     0
 10
497.2503861137806
 20
999.827705594966
 30
0.0
 11
498.9170527804472
 21
999.827705594966
 31
0.0
 12
498.0837194471139
 22
994.827705594966
 32
0.0
 13
498.0837194471139
 23
994.827705594966
 33
0.0
  0
TEXT
  5
30BA
  8
DIMENSIONS
  6
CONTINUOUS
 62
     5
 10
495.6887194471138
 20
1006.330205594966
 30
0.0
 40
5.0
  1
50 [1.97]
 50
90.0
  0
POINT
  5
30BB
  8
DEFPOINTS
 62
     0
 10
458.0167140146839
 20
1044.827705594966
 30
0.0
  0
POINT
  5
30BC
  8
DEFPOINTS
 62
     0
 10
458.0167140146839
 20
994.827705594966
 30
0.0
  0
POINT
  5
30BD
  8
DEFPOINTS
 62
     0
 10
498.0837194471139
 20
994.827705594966
 30
0.0
  0
ENDBLK
  5
30B4
  8
0
  0
BLOCK
  8
0
  2
*D534
 70
     1
 10
0.0
 20
0.0
 30
0.0
  3
*D534
  1

  0
LINE
  5
30C4
  8
DIMENSIONS
  6
BYBLOCK
 62
     0
 10
459.5167140146839
 20
994.827705594966
 30
0.0
 11
498.2637194471139
 21
994.827705594966
 31
0.0
  0
LINE
  5
30C5
  8
DIMENSIONS
  6
BYBLOCK
 62
     0
 10
459.5167140146839
 20
834.827705594966
 30
0.0
 11
498.2637194471139
 21
834.827705594966
 31
0.0
  0
LINE
  5
30C6
  8
DIMENSIONS
  6
BYBLOCK
 62
     0
 10
498.0837194471139
 20
989.827705594966
 30
0.0
 11
498.0837194471139
 21
839.827705594966
 31
0.0
  0
SOLID
  5
30C7
  8
DIMENSIONS
 62
     0
 10
498.9170527804472
 20
989.827705594966
 30
0.0
 11
497.2503861137806
 21
989.827705594966
 31
0.0
 12
498.0837194471139
 22
994.827705594966
 32
0.0
 13
498.0837194471139
 23
994.827705594966
 33
0.0
  0
SOLID
  5
30C8
  8
DIMENSIONS
 62
     0
 10
497.2503861137806
 20
839.827705594966
 30
0.0
 11
498.9170527804472
 21
839.827705594966
 31
0.0
 12
498.0837194471139
 22
834.827705594966
 32
0.0
 13
498.0837194471139
 23
834.827705594966
 33
0.0
  0
TEXT
  5
30C9
  8
DIMENSIONS
  6
CONTINUOUS
 62
     5
 10
495.688719447114
 20
899.155205594966
 30
0.0
 40
5.0
  1
160 [6.30]
 50
90.0
  0
POINT
  5
30CA
  8
DEFPOINTS
 62
     0
 10
458.0167140146839
 20
994.827705594966
 30
0.0
  0
POINT
  5
30CB
  8
DEFPOINTS
 62
     0
 10
458.0167140146839
 20
834.827705594966
 30
0.0
  0
POINT
  5
30CC
  8
DEFPOINTS
 62
     0
 10
498.0837194471139
 20
834.827705594966
 30
0.0
  0
ENDBLK
  5
30C3
  8
0
  0
BLOCK
  8
0
  2
*D535
 70
     1
 10
0.0
 20
0.0
 30
0.0
  3
*D535
  1

  0
LINE
  5
30D3
  8
DIMENSIONS
  6
BYBLOCK
 62
     0
 10
459.5167140146839
 20
834.827705594966
 30
0.0
 11
498.2637194471139
 21
834.827705594966
 31
0.0
  0
LINE
  5
30D4
  8
DIMENSIONS
  6
BYBLOCK
 62
     0
 10
479.0167140146839
 20
426.827705594966
 30
0.0
 11
498.2637194471139
 21
426.827705594966
 31
0.0
  0
LINE
  5
30D5
  8
DIMENSIONS
  6
BYBLOCK
 62
     0
 10
498.0837194471139
 20
829.827705594966
 30
0.0
 11
498.0837194471139
 21
431.827705594966
 31
0.0
  0
SOLID
  5
30D6
  8
DIMENSIONS
 62
     0
 10
498.9170527804472
 20
829.827705594966
 30
0.0
 11
497.2503861137806
 21
829.827705594966
 31
0.0
 12
498.0837194471139
 22
834.827705594966
 32
0.0
 13
498.0837194471139
 23
834.827705594966
 33
0.0
  0
SOLID
  5
30D7
  8
DIMENSIONS
 62
     0
 10
497.2503861137806
 20
431.827705594966
 30
0.0
 11
498.9170527804472
 21
431.827705594966
 31
0.0
 12
498.0837194471139
 22
426.827705594966
 32
0.0
 13
498.0837194471139
 23
426.827705594966
 33
0.0
  0
TEXT
  5
30D8
  8
DIMENSIONS
  6
CONTINUOUS
 62
     5
 10
495.688719447114
 20
613.550205594966
 30
0.0
 40
5.0
  1
408 [16.06]
 50
90.0
  0
POINT
  5
30D9
  8
DEFPOINTS
 62
     0
 10
458.0167140146839
 20
834.827705594966
 30
0.0
  0
POINT
  5
30DA
  8
DEFPOINTS
 62
     0
 10
477.5167140146839
 20
426.827705594966
 30
0.0
  0
POINT
  5
30DB
  8
DEFPOINTS
 62
     0
 10
498.0837194471139
 20
426.827705594966
 30
0.0
  0
ENDBLK
  5
30D2
  8
0
  0
BLOCK
  8
0
  2
*D536
 70
     1
 10
0.0
 20
0.0
 30
0.0
  3
*D536
  1

  0
LINE
  5
30E7
  8
DIMENSIONS
  6
BYBLOCK
 62
     0
 10
449.7667172100568
 20
451.8349666997614
 30
0.0
 11
403.5417351138281
 21
451.8756508899631
 31
0.0
  0
TEXT
  5
30E8
  8
DIMENSIONS
  6
CONTINUOUS
 62
     5
 10
404.2639131663977
 20
454.3500162349328
 30
0.0
 40
5.0
  1
Ø6.5 [Ø0.26]
 50
359.9495720347774
  0
SOLID
  5
30E9
  8
DIMENSIONS
 62
     0
 10
449.765983765128
 20
451.0016336891931
 30
0.0
 11
449.7674506549856
 21
452.6682997103298
 31
0.0
 12
454.7667152734672
 22
451.8305660301885
 32
0.0
 13
454.7667152734672
 23
451.8305660301885
 33
0.0
  0
LINE
  5
30EA
  8
DIMENSIONS
  6
BYBLOCK
 62
     0
 10
455.5167140146839
 20
451.8277055949661
 30
0.0
 11
460.5167140146839
 21
451.8277055949661
 31
0.0
  0
LINE
  5
30EB
  8
DIMENSIONS
  6
BYBLOCK
 62
     0
 10
458.0167140146839
 20
449.3277055949661
 30
0.0
 11
458.0167140146839
 21
454.3277055949661
 31
0.0
  0
POINT
  5
30EC
  8
DEFPOINTS
 62
     0
 10
454.7667152734672
 20
451.8305660301885
 30
0.0
  0
POINT
  5
30ED
  8
DEFPOINTS
 62
     0
 10
461.2667127559006
 20
451.8248451597437
 30
0.0
  0
ENDBLK
  5
30E6
  8
0
  0
BLOCK
  8
0
  2
*D538
 70
     1
 10
0.0
 20
0.0
 30
0.0
  3
*D538
  1

  0
LINE
  5
3144
  8
DIMENSIONS
  6
BYBLOCK
 62
     0
 10
197.638199250486
 20
1291.798950553712
 30
0.0
 11
197.638199250486
 21
1339.000011439505
 31
0.0
  0
LINE
  5
3145
  8
DIMENSIONS
  6
BYBLOCK
 62
     0
 10
462.638199250486
 20
1291.798950553712
 30
0.0
 11
462.638199250486
 21
1339.000011439505
 31
0.0
  0
LINE
  5
3146
  8
DIMENSIONS
  6
BYBLOCK
 62
     0
 10
202.638199250486
 20
1338.820011439504
 30
0.0
 11
457.638199250486
 21
1338.820011439504
 31
0.0
  0
SOLID
  5
3147
  8
DIMENSIONS
 62
     0
 10
202.638199250486
 20
1339.653344772838
 30
0.0
 11
202.638199250486
 21
1337.986678106171
 31
0.0
 12
197.638199250486
 22
1338.820011439504
 32
0.0
 13
197.638199250486
 23
1338.820011439504
 33
0.0
  0
SOLID
  5
3148
  8
DIMENSIONS
 62
     0
 10
457.638199250486
 20
1337.986678106171
 30
0.0
 11
457.638199250486
 21
1339.653344772838
 31
0.0
 12
462.638199250486
 22
1338.820011439504
 32
0.0
 13
462.638199250486
 23
1338.820011439504
 33
0.0
  0
TEXT
  5
3149
  8
DIMENSIONS
  6
CONTINUOUS
 62
     5
 10
312.803199250486
 20
1341.215011439505
 30
0.0
 40
5.0
  1
265 [10.43]
  0
POINT
  5
314A
  8
DEFPOINTS
 62
     0
 10
197.638199250486
 20
1290.298950553712
 30
0.0
  0
POINT
  5
314B
  8
DEFPOINTS
 62
     0
 10
462.638199250486
 20
1290.298950553712
 30
0.0
  0
POINT
  5
314C
  8
DEFPOINTS
 62
     0
 10
462.638199250486
 20
1338.820011439504
 30
0.0
  0
ENDBLK
  5
3143
  8
0
  0
BLOCK
  8
0
  2
*D539
 70
     1
 10
0.0
 20
0.0
 30
0.0
  3
*D539
  1

  0
LINE
  5
3153
  8
DIMENSIONS
  6
BYBLOCK
 62
     0
 10
487.638199250486
 20
1323.798950553712
 30
0.0
 11
487.638199250486
 21
1356.558948060214
 31
0.0
  0
LINE
  5
3154
  8
DIMENSIONS
  6
BYBLOCK
 62
     0
 10
172.638199250486
 20
1323.798950553712
 30
0.0
 11
172.638199250486
 21
1356.558948060214
 31
0.0
  0
LINE
  5
3155
  8
DIMENSIONS
  6
BYBLOCK
 62
     0
 10
482.638199250486
 20
1356.378948060214
 30
0.0
 11
177.638199250486
 21
1356.378948060214
 31
0.0
  0
SOLID
  5
3156
  8
DIMENSIONS
 62
     0
 10
482.638199250486
 20
1355.54561472688
 30
0.0
 11
482.638199250486
 21
1357.212281393547
 31
0.0
 12
487.638199250486
 22
1356.378948060214
 32
0.0
 13
487.638199250486
 23
1356.378948060214
 33
0.0
  0
SOLID
  5
3157
  8
DIMENSIONS
 62
     0
 10
177.638199250486
 20
1357.212281393547
 30
0.0
 11
177.638199250486
 21
1355.54561472688
 31
0.0
 12
172.638199250486
 22
1356.378948060214
 32
0.0
 13
172.638199250486
 23
1356.378948060214
 33
0.0
  0
TEXT
  5
3158
  8
DIMENSIONS
  6
CONTINUOUS
 62
     5
 10
312.758199250486
 20
1358.773948060214
 30
0.0
 40
5.0
  1
315 [12.40]
  0
POINT
  5
3159
  8
DEFPOINTS
 62
     0
 10
487.638199250486
 20
1322.298950553712
 30
0.0
  0
POINT
  5
315A
  8
DEFPOINTS
 62
     0
 10
172.638199250486
 20
1322.298950553712
 30
0.0
  0
POINT
  5
315B
  8
DEFPOINTS
 62
     0
 10
172.638199250486
 20
1356.378948060214
 30
0.0
  0
ENDBLK
  5
3152
  8
0
  0
BLOCK
  8
0
  2
*D540
 70
     1
 10
0.0
 20
0.0
 30
0.0
  3
*D540
  1

  0
LINE
  5
3162
  8
DIMENSIONS
  6
BYBLOCK
 62
     0
 10
171.138199250486
 20
1322.298950553712
 30
0.0
 11
135.195421033556
 21
1322.298950553712
 31
0.0
  0
LINE
  5
3163
  8
DIMENSIONS
  6
BYBLOCK
 62
     0
 10
196.138199250486
 20
1302.298950553712
 30
0.0
 11
135.195421033556
 21
1302.298950553712
 31
0.0
  0
LINE
  5
3164
  8
DIMENSIONS
  6
BYBLOCK
 62
     0
 10
135.375421033556
 20
1302.298950553712
 30
0.0
 11
135.375421033556
 21
1268.798950553712
 31
0.0
  0
LINE
  5
3165
  8
DIMENSIONS
  6
BYBLOCK
 62
     0
 10
135.375421033556
 20
1317.298950553712
 30
0.0
 11
135.375421033556
 21
1307.298950553712
 31
0.0
  0
SOLID
  5
3166
  8
DIMENSIONS
 62
     0
 10
136.2087543668893
 20
1317.298950553712
 30
0.0
 11
134.5420877002227
 21
1317.298950553712
 31
0.0
 12
135.375421033556
 22
1322.298950553712
 32
0.0
 13
135.375421033556
 23
1322.298950553712
 33
0.0
  0
SOLID
  5
3167
  8
DIMENSIONS
 62
     0
 10
134.5420877002227
 20
1307.298950553712
 30
0.0
 11
136.2087543668893
 21
1307.298950553712
 31
0.0
 12
135.375421033556
 22
1302.298950553712
 32
0.0
 13
135.375421033556
 23
1302.298950553712
 33
0.0
  0
TEXT
  5
3168
  8
DIMENSIONS
  6
CONTINUOUS
 62
     5
 10
132.9804210335558
 20
1269.593950553712
 30
0.0
 40
5.0
  1
20 [0.79]
 50
90.0
  0
POINT
  5
3169
  8
DEFPOINTS
 62
     0
 10
172.638199250486
 20
1322.298950553712
 30
0.0
  0
POINT
  5
316A
  8
DEFPOINTS
 62
     0
 10
197.638199250486
 20
1302.298950553712
 30
0.0
  0
POINT
  5
31F2
  8
DEFPOINTS
 62
     0
 10
135.375421033556
 20
1302.298950553712
 30
0.0
  0
ENDBLK
  5
3161
  8
0
  0
BLOCK
  8
0
  2
*D541
 70
     1
 10
0.0
 20
0.0
 30
0.0
  3
*D541
  1

  0
LINE
  5
3171
  8
DIMENSIONS
  6
BYBLOCK
 62
     0
 10
196.138199250486
 20
1302.298950553712
 30
0.0
 11
153.1910699659228
 21
1302.298950553712
 31
0.0
  0
LINE
  5
3172
  8
DIMENSIONS
  6
BYBLOCK
 62
     0
 10
196.138199250486
 20
1042.298950553713
 30
0.0
 11
153.1910699659228
 21
1042.298950553713
 31
0.0
  0
LINE
  5
3173
  8
DIMENSIONS
  6
BYBLOCK
 62
     0
 10
153.3710699659228
 20
1297.298950553712
 30
0.0
 11
153.3710699659228
 21
1047.298950553713
 31
0.0
  0
SOLID
  5
3174
  8
DIMENSIONS
 62
     0
 10
154.2044032992561
 20
1297.298950553712
 30
0.0
 11
152.5377366325895
 21
1297.298950553712
 31
0.0
 12
153.3710699659228
 22
1302.298950553712
 32
0.0
 13
153.3710699659228
 23
1302.298950553712
 33
0.0
  0
SOLID
  5
3175
  8
DIMENSIONS
 62
     0
 10
152.5377366325894
 20
1047.298950553713
 30
0.0
 11
154.2044032992561
 21
1047.298950553713
 31
0.0
 12
153.3710699659228
 22
1042.298950553713
 32
0.0
 13
153.3710699659228
 23
1042.298950553713
 33
0.0
  0
TEXT
  5
3176
  8
DIMENSIONS
  6
CONTINUOUS
 62
     5
 10
150.9760699659225
 20
1154.963950553712
 30
0.0
 40
5.0
  1
260 [10.24]
 50
90.0
  0
POINT
  5
3177
  8
DEFPOINTS
 62
     0
 10
197.638199250486
 20
1302.298950553712
 30
0.0
  0
POINT
  5
3178
  8
DEFPOINTS
 62
     0
 10
197.638199250486
 20
1042.298950553713
 30
0.0
  0
POINT
  5
3179
  8
DEFPOINTS
 62
     0
 10
153.3710699659228
 20
1042.298950553713
 30
0.0
  0
ENDBLK
  5
3170
  8
0
  0
BLOCK
  8
0
  2
*D542
 70
     1
 10
0.0
 20
0.0
 30
0.0
  3
*D542
  1

  0
LINE
  5
3180
  8
DIMENSIONS
  6
BYBLOCK
 62
     0
 10
196.138199250486
 20
1042.298950553713
 30
0.0
 11
153.1910699659228
 21
1042.298950553713
 31
0.0
  0
LINE
  5
3181
  8
DIMENSIONS
  6
BYBLOCK
 62
     0
 10
196.138199250486
 20
802.2989505537125
 30
0.0
 11
153.1910699659227
 21
802.2989505537125
 31
0.0
  0
LINE
  5
3182
  8
DIMENSIONS
  6
BYBLOCK
 62
     0
 10
153.3710699659228
 20
1037.298950553713
 30
0.0
 11
153.3710699659227
 21
807.2989505537125
 31
0.0
  0
SOLID
  5
3183
  8
DIMENSIONS
 62
     0
 10
154.2044032992561
 20
1037.298950553713
 30
0.0
 11
152.5377366325894
 21
1037.298950553713
 31
0.0
 12
153.3710699659228
 22
1042.298950553713
 32
0.0
 13
153.3710699659228
 23
1042.298950553713
 33
0.0
  0
SOLID
  5
3184
  8
DIMENSIONS
 62
     0
 10
152.5377366325894
 20
807.2989505537125
 30
0.0
 11
154.2044032992561
 21
807.2989505537125
 31
0.0
 12
153.3710699659227
 22
802.2989505537125
 32
0.0
 13
153.3710699659227
 23
802.2989505537125
 33
0.0
  0
TEXT
  5
3185
  8
DIMENSIONS
  6
CONTINUOUS
 62
     5
 10
150.9760699659229
 20
906.9039505537125
 30
0.0
 40
5.0
  1
240 [9.45]
 50
90.0
  0
POINT
  5
3186
  8
DEFPOINTS
 62
     0
 10
197.638199250486
 20
1042.298950553713
 30
0.0
  0
POINT
  5
3187
  8
DEFPOINTS
 62
     0
 10
197.638199250486
 20
802.2989505537125
 30
0.0
  0
POINT
  5
3188
  8
DEFPOINTS
 62
     0
 10
153.3710699659227
 20
802.2989505537125
 30
0.0
  0
ENDBLK
  5
317F
  8
0
  0
BLOCK
  8
0
  2
*D543
 70
     1
 10
0.0
 20
0.0
 30
0.0
  3
*D543
  1

  0
LINE
  5
318F
  8
DIMENSIONS
  6
BYBLOCK
 62
     0
 10
196.138199250486
 20
802.2989505537125
 30
0.0
 11
153.1910699659227
 21
802.2989505537125
 31
0.0
  0
LINE
  5
3190
  8
DIMENSIONS
  6
BYBLOCK
 62
     0
 10
196.138199250486
 20
442.2989505537125
 30
0.0
 11
153.1910699659227
 21
442.2989505537125
 31
0.0
  0
LINE
  5
3191
  8
DIMENSIONS
  6
BYBLOCK
 62
     0
 10
153.3710699659227
 20
797.2989505537125
 30
0.0
 11
153.3710699659227
 21
447.2989505537125
 31
0.0
  0
SOLID
  5
3192
  8
DIMENSIONS
 62
     0
 10
154.2044032992561
 20
797.2989505537125
 30
0.0
 11
152.5377366325894
 21
797.2989505537125
 31
0.0
 12
153.3710699659227
 22
802.2989505537125
 32
0.0
 13
153.3710699659227
 23
802.2989505537125
 33
0.0
  0
SOLID
  5
3193
  8
DIMENSIONS
 62
     0
 10
152.5377366325894
 20
447.2989505537125
 30
0.0
 11
154.2044032992561
 21
447.2989505537125
 31
0.0
 12
153.3710699659227
 22
442.2989505537125
 32
0.0
 13
153.3710699659227
 23
442.2989505537125
 33
0.0
  0
TEXT
  5
3194
  8
DIMENSIONS
  6
CONTINUOUS
 62
     5
 10
150.9760699659228
 20
604.9189505537125
 30
0.0
 40
5.0
  1
360 [14.17]
 50
90.0
  0
POINT
  5
3195
  8
DEFPOINTS
 62
     0
 10
197.638199250486
 20
802.2989505537125
 30
0.0
  0
POINT
  5
3196
  8
DEFPOINTS
 62
     0
 10
197.638199250486
 20
442.2989505537125
 30
0.0
  0
POINT
  5
3197
  8
DEFPOINTS
 62
     0
 10
153.3710699659227
 20
442.2989505537125
 30
0.0
  0
ENDBLK
  5
318E
  8
0
  0
BLOCK
  8
0
  2
*D544
 70
     1
 10
0.0
 20
0.0
 30
0.0
  3
*D544
  1

  0
LINE
  5
319E
  8
DIMENSIONS
  6
BYBLOCK
 62
     0
 10
196.138199250486
 20
442.2989505537125
 30
0.0
 11
134.1630364460102
 21
442.2989505537125
 31
0.0
  0
LINE
  5
319F
  8
DIMENSIONS
  6
BYBLOCK
 62
     0
 10
171.138199250486
 20
422.2989505537125
 30
0.0
 11
134.1630364460102
 21
422.2989505537125
 31
0.0
  0
LINE
  5
31A0
  8
DIMENSIONS
  6
BYBLOCK
 62
     0
 10
134.3430364460102
 20
442.2989505537125
 30
0.0
 11
134.3430364460102
 21
475.7989505537125
 31
0.0
  0
LINE
  5
31A1
  8
DIMENSIONS
  6
BYBLOCK
 62
     0
 10
134.3430364460102
 20
437.2989505537125
 30
0.0
 11
134.3430364460102
 21
427.2989505537125
 31
0.0
  0
SOLID
  5
31A2
  8
DIMENSIONS
 62
     0
 10
135.1763697793435
 20
437.2989505537125
 30
0.0
 11
133.5097031126768
 21
437.2989505537125
 31
0.0
 12
134.3430364460102
 22
442.2989505537125
 32
0.0
 13
134.3430364460102
 23
442.2989505537125
 33
0.0
  0
SOLID
  5
31A3
  8
DIMENSIONS
 62
     0
 10
133.5097031126768
 20
427.2989505537125
 30
0.0
 11
135.1763697793435
 21
427.2989505537125
 31
0.0
 12
134.3430364460102
 22
422.2989505537125
 32
0.0
 13
134.3430364460102
 23
422.2989505537125
 33
0.0
  0
TEXT
  5
31A4
  8
DIMENSIONS
  6
CONTINUOUS
 62
     5
 10
131.9480364460102
 20
448.0939505537125
 30
0.0
 40
5.0
  1
20 [0.79]
 50
90.0
  0
POINT
  5
31A5
  8
DEFPOINTS
 62
     0
 10
197.638199250486
 20
442.2989505537125
 30
0.0
  0
POINT
  5
31A6
  8
DEFPOINTS
 62
     0
 10
172.638199250486
 20
422.2989505537125
 30
0.0
  0
POINT
  5
31F3
  8
DEFPOINTS
 62
     0
 10
134.3430364460102
 20
422.2989505537125
 30
0.0
  0
ENDBLK
  5
319D
  8
0
  0
BLOCK
  8
0
  2
*D545
 70
     1
 10
0.0
 20
0.0
 30
0.0
  3
*D545
  1

  0
LINE
  5
31AD
  8
DIMENSIONS
  6
BYBLOCK
 62
     0
 10
489.138199250486
 20
1322.298950553712
 30
0.0
 11
510.5223294915718
 21
1322.298950553712
 31
0.0
  0
LINE
  5
31AE
  8
DIMENSIONS
  6
BYBLOCK
 62
     0
 10
464.138199250486
 20
1290.298950553712
 30
0.0
 11
510.5223294915718
 21
1290.298950553712
 31
0.0
  0
LINE
  5
31AF
  8
DIMENSIONS
  6
BYBLOCK
 62
     0
 10
510.3423294915718
 20
1317.298950553712
 30
0.0
 11
510.3423294915718
 21
1295.298950553712
 31
0.0
  0
SOLID
  5
31B0
  8
DIMENSIONS
 62
     0
 10
511.1756628249051
 20
1317.298950553712
 30
0.0
 11
509.5089961582385
 21
1317.298950553712
 31
0.0
 12
510.3423294915718
 22
1322.298950553712
 32
0.0
 13
510.3423294915718
 23
1322.298950553712
 33
0.0
  0
SOLID
  5
31B1
  8
DIMENSIONS
 62
     0
 10
509.5089961582385
 20
1295.298950553712
 30
0.0
 11
511.1756628249051
 21
1295.298950553712
 31
0.0
 12
510.3423294915718
 22
1290.298950553712
 32
0.0
 13
510.3423294915718
 23
1290.298950553712
 33
0.0
  0
TEXT
  5
31B2
  8
DIMENSIONS
  6
CONTINUOUS
 62
     5
 10
507.9473294915717
 20
1292.798950553712
 30
0.0
 40
5.0
  1
32 [1.26]
 50
90.0
  0
POINT
  5
31B3
  8
DEFPOINTS
 62
     0
 10
487.638199250486
 20
1322.298950553712
 30
0.0
  0
POINT
  5
31B4
  8
DEFPOINTS
 62
     0
 10
462.638199250486
 20
1290.298950553712
 30
0.0
  0
POINT
  5
31B5
  8
DEFPOINTS
 62
     0
 10
510.3423294915718
 20
1290.298950553712
 30
0.0
  0
ENDBLK
  5
31AC
  8
0
  0
BLOCK
  8
0
  2
*D546
 70
     1
 10
0.0
 20
0.0
 30
0.0
  3
*D546
  1

  0
LINE
  5
31BC
  8
DIMENSIONS
  6
BYBLOCK
 62
     0
 10
464.138199250486
 20
1290.298950553712
 30
0.0
 11
510.5223294915718
 21
1290.298950553712
 31
0.0
  0
LINE
  5
31BD
  8
DIMENSIONS
  6
BYBLOCK
 62
     0
 10
464.138199250486
 20
1050.298950553713
 30
0.0
 11
510.5223294915718
 21
1050.298950553713
 31
0.0
  0
LINE
  5
31BE
  8
DIMENSIONS
  6
BYBLOCK
 62
     0
 10
510.3423294915718
 20
1285.298950553712
 30
0.0
 11
510.3423294915718
 21
1055.298950553713
 31
0.0
  0
SOLID
  5
31BF
  8
DIMENSIONS
 62
     0
 10
511.1756628249051
 20
1285.298950553712
 30
0.0
 11
509.5089961582385
 21
1285.298950553712
 31
0.0
 12
510.3423294915718
 22
1290.298950553712
 32
0.0
 13
510.3423294915718
 23
1290.298950553712
 33
0.0
  0
SOLID
  5
31C0
  8
DIMENSIONS
 62
     0
 10
509.5089961582385
 20
1055.298950553713
 30
0.0
 11
511.1756628249051
 21
1055.298950553713
 31
0.0
 12
510.3423294915718
 22
1050.298950553713
 32
0.0
 13
510.3423294915718
 23
1050.298950553713
 33
0.0
  0
TEXT
  5
31C1
  8
DIMENSIONS
  6
CONTINUOUS
 62
     5
 10
507.9473294915715
 20
1154.903950553713
 30
0.0
 40
5.0
  1
240 [9.45]
 50
90.0
  0
POINT
  5
31C2
  8
DEFPOINTS
 62
     0
 10
462.638199250486
 20
1290.298950553712
 30
0.0
  0
POINT
  5
31C3
  8
DEFPOINTS
 62
     0
 10
462.638199250486
 20
1050.298950553713
 30
0.0
  0
POINT
  5
31C4
  8
DEFPOINTS
 62
     0
 10
510.3423294915718
 20
1050.298950553713
 30
0.0
  0
ENDBLK
  5
31BB
  8
0
  0
BLOCK
  8
0
  2
*D547
 70
     1
 10
0.0
 20
0.0
 30
0.0
  3
*D547
  1

  0
LINE
  5
31CB
  8
DIMENSIONS
  6
BYBLOCK
 62
     0
 10
464.138199250486
 20
1050.298950553713
 30
0.0
 11
533.7211733142872
 21
1050.298950553713
 31
0.0
  0
LINE
  5
31CC
  8
DIMENSIONS
  6
BYBLOCK
 62
     0
 10
464.138199250486
 20
1025.298950553713
 30
0.0
 11
533.7211733142872
 21
1025.298950553713
 31
0.0
  0
LINE
  5
31CD
  8
DIMENSIONS
  6
BYBLOCK
 62
     0
 10
533.5411733142872
 20
1025.298950553713
 30
0.0
 11
533.5411733142872
 21
991.7989505537125
 31
0.0
  0
LINE
  5
31CE
  8
DIMENSIONS
  6
BYBLOCK
 62
     0
 10
533.5411733142872
 20
1045.298950553713
 30
0.0
 11
533.5411733142872
 21
1030.298950553713
 31
0.0
  0
SOLID
  5
31CF
  8
DIMENSIONS
 62
     0
 10
534.3745066476206
 20
1045.298950553713
 30
0.0
 11
532.7078399809538
 21
1045.298950553713
 31
0.0
 12
533.5411733142872
 22
1050.298950553713
 32
0.0
 13
533.5411733142872
 23
1050.298950553713
 33
0.0
  0
SOLID
  5
31D0
  8
DIMENSIONS
 62
     0
 10
532.7078399809538
 20
1030.298950553713
 30
0.0
 11
534.3745066476206
 21
1030.298950553713
 31
0.0
 12
533.5411733142872
 22
1025.298950553713
 32
0.0
 13
533.5411733142872
 23
1025.298950553713
 33
0.0
  0
TEXT
  5
31D1
  8
DIMENSIONS
  6
CONTINUOUS
 62
     5
 10
531.1461733142872
 20
992.5939505537125
 30
0.0
 40
5.0
  1
25 [0.98]
 50
90.0
  0
POINT
  5
31D2
  8
DEFPOINTS
 62
     0
 10
462.638199250486
 20
1050.298950553713
 30
0.0
  0
POINT
  5
31D3
  8
DEFPOINTS
 62
     0
 10
462.638199250486
 20
1025.298950553713
 30
0.0
  0
POINT
  5
31F4
  8
DEFPOINTS
 62
     0
 10
533.5411733142872
 20
1025.298950553713
 30
0.0
  0
ENDBLK
  5
31CA
  8
0
  0
BLOCK
  8
0
  2
*D548
 70
     1
 10
0.0
 20
0.0
 30
0.0
  3
*D548
  1

  0
LINE
  5
31DA
  8
DIMENSIONS
  6
BYBLOCK
 62
     0
 10
464.138199250486
 20
1025.298950553713
 30
0.0
 11
510.5223294915718
 21
1025.298950553713
 31
0.0
  0
LINE
  5
31DB
  8
DIMENSIONS
  6
BYBLOCK
 62
     0
 10
464.138199250486
 20
835.2989505537125
 30
0.0
 11
510.5223294915718
 21
835.2989505537125
 31
0.0
  0
LINE
  5
31DC
  8
DIMENSIONS
  6
BYBLOCK
 62
     0
 10
510.3423294915718
 20
1020.298950553713
 30
0.0
 11
510.3423294915718
 21
840.2989505537125
 31
0.0
  0
SOLID
  5
31DD
  8
DIMENSIONS
 62
     0
 10
511.1756628249051
 20
1020.298950553713
 30
0.0
 11
509.5089961582385
 21
1020.298950553713
 31
0.0
 12
510.3423294915718
 22
1025.298950553713
 32
0.0
 13
510.3423294915718
 23
1025.298950553713
 33
0.0
  0
SOLID
  5
31DE
  8
DIMENSIONS
 62
     0
 10
509.5089961582385
 20
840.2989505537125
 30
0.0
 11
511.1756628249051
 21
840.2989505537125
 31
0.0
 12
510.3423294915718
 22
835.2989505537125
 32
0.0
 13
510.3423294915718
 23
835.2989505537125
 33
0.0
  0
TEXT
  5
31DF
  8
DIMENSIONS
  6
CONTINUOUS
 62
     5
 10
507.9473294915718
 20
914.6264505537125
 30
0.0
 40
5.0
  1
190 [7.48]
 50
90.0
  0
POINT
  5
31E0
  8
DEFPOINTS
 62
     0
 10
462.638199250486
 20
1025.298950553713
 30
0.0
  0
POINT
  5
31E1
  8
DEFPOINTS
 62
     0
 10
462.638199250486
 20
835.2989505537125
 30
0.0
  0
POINT
  5
31E2
  8
DEFPOINTS
 62
     0
 10
510.3423294915718
 20
835.2989505537125
 30
0.0
  0
ENDBLK
  5
31D9
  8
0
  0
BLOCK
  8
0
  2
*D549
 70
     1
 10
0.0
 20
0.0
 30
0.0
  3
*D549
  1

  0
LINE
  5
31E9
  8
DIMENSIONS
  6
BYBLOCK
 62
     0
 10
464.138199250486
 20
835.2989505537125
 30
0.0
 11
510.5223294915718
 21
835.2989505537125
 31
0.0
  0
LINE
  5
31EA
  8
DIMENSIONS
  6
BYBLOCK
 62
     0
 10
489.138199250486
 20
422.2989505537125
 30
0.0
 11
510.5223294915718
 21
422.2989505537125
 31
0.0
  0
LINE
  5
31EB
  8
DIMENSIONS
  6
BYBLOCK
 62
     0
 10
510.3423294915718
 20
830.2989505537125
 30
0.0
 11
510.3423294915718
 21
427.2989505537125
 31
0.0
  0
SOLID
  5
31EC
  8
DIMENSIONS
 62
     0
 10
511.1756628249051
 20
830.2989505537125
 30
0.0
 11
509.5089961582385
 21
830.2989505537125
 31
0.0
 12
510.3423294915718
 22
835.2989505537125
 32
0.0
 13
510.3423294915718
 23
835.2989505537125
 33
0.0
  0
SOLID
  5
31ED
  8
DIMENSIONS
 62
     0
 10
509.5089961582385
 20
427.2989505537125
 30
0.0
 11
511.1756628249051
 21
427.2989505537125
 31
0.0
 12
510.3423294915718
 22
422.2989505537125
 32
0.0
 13
510.3423294915718
 23
422.2989505537125
 33
0.0
  0
TEXT
  5
31EE
  8
DIMENSIONS
  6
CONTINUOUS
 62
     5
 10
507.9473294915718
 20
611.5214505537126
 30
0.0
 40
5.0
  1
413 [16.26]
 50
90.0
  0
POINT
  5
31EF
  8
DEFPOINTS
 62
     0
 10
462.638199250486
 20
835.2989505537125
 30
0.0
  0
POINT
  5
31F0
  8
DEFPOINTS
 62
     0
 10
487.638199250486
 20
422.2989505537125
 30
0.0
  0
POINT
  5
31F1
  8
DEFPOINTS
 62
     0
 10
510.3423294915718
 20
422.2989505537125
 30
0.0
  0
ENDBLK
  5
31E8
  8
0
  0
BLOCK
  8
0
  2
*D550
 70
     1
 10
0.0
 20
0.0
 30
0.0
  3
*D550
  1

  0
LINE
  5
31FB
  8
DIMENSIONS
  6
BYBLOCK
 62
     0
 10
454.3882086982148
 20
442.3114360427477
 30
0.0
 11
408.1632616341258
 21
442.3813926161604
 31
0.0
  0
TEXT
  5
31FC
  8
DIMENSIONS
  6
CONTINUOUS
 62
     5
 10
408.8870064563073
 20
444.8553001391624
 30
0.0
 40
5.0
  1
Ø6.5 [Ø0.26]
 50
359.9132889575817
  0
SOLID
  5
31FD
  8
DIMENSIONS
 62
     0
 10
454.3869475377062
 20
441.4781036637304
 30
0.0
 11
454.3894698587234
 21
443.144768421765
 31
0.0
 12
459.3882029723186
 22
442.303869079696
 32
0.0
 13
459.3882029723186
 23
442.303869079696
 33
0.0
  0
LINE
  5
31FE
  8
DIMENSIONS
  6
BYBLOCK
 62
     0
 10
460.138199250486
 20
442.2989505537124
 30
0.0
 11
465.138199250486
 21
442.2989505537124
 31
0.0
  0
LINE
  5
31FF
  8
DIMENSIONS
  6
BYBLOCK
 62
     0
 10
462.638199250486
 20
439.7989505537124
 30
0.0
 11
462.638199250486
 21
444.7989505537124
 31
0.0
  0
POINT
  5
3200
  8
DEFPOINTS
 62
     0
 10
459.3882029723186
 20
442.303869079696
 30
0.0
  0
POINT
  5
3201
  8
DEFPOINTS
 62
     0
 10
465.8881955286535
 20
442.2940320277289
 30
0.0
  0
ENDBLK
  5
31FA
  8
0
  0
BLOCK
  8
0
  2
*D552
 70
     1
 10
0.0
 20
0.0
 30
0.0
  3
*D552
  1

  0
LINE
  5
3272
  8
DIMENSIONS
  6
BYBLOCK
 62
     0
 10
214.9199057476207
 20
1533.210595331312
 30
0.0
 11
214.9199057476208
 21
1589.856289813712
 31
0.0
  0
LINE
  5
3273
  8
DIMENSIONS
  6
BYBLOCK
 62
     0
 10
529.9199057476206
 20
1533.210595331312
 30
0.0
 11
529.9199057476206
 21
1589.856289813712
 31
0.0
  0
LINE
  5
3274
  8
DIMENSIONS
  6
BYBLOCK
 62
     0
 10
219.9199057476208
 20
1589.676289813712
 30
0.0
 11
524.9199057476206
 21
1589.676289813712
 31
0.0
  0
SOLID
  5
3275
  8
DIMENSIONS
 62
     0
 10
219.9199057476208
 20
1590.509623147046
 30
0.0
 11
219.9199057476208
 21
1588.842956480379
 31
0.0
 12
214.9199057476208
 22
1589.676289813712
 32
0.0
 13
214.9199057476208
 23
1589.676289813712
 33
0.0
  0
SOLID
  5
3276
  8
DIMENSIONS
 62
     0
 10
524.9199057476206
 20
1588.842956480379
 30
0.0
 11
524.9199057476206
 21
1590.509623147046
 31
0.0
 12
529.9199057476206
 22
1589.676289813712
 32
0.0
 13
529.9199057476206
 23
1589.676289813712
 33
0.0
  0
TEXT
  5
3277
  8
DIMENSIONS
  6
CONTINUOUS
 62
     5
 10
355.0399057476207
 20
1592.071289813713
 30
0.0
 40
5.0
  1
315 [12.40]
  0
POINT
  5
3278
  8
DEFPOINTS
 62
     0
 10
214.9199057476207
 20
1531.710595331312
 30
0.0
  0
POINT
  5
3279
  8
DEFPOINTS
 62
     0
 10
529.9199057476206
 20
1531.710595331312
 30
0.0
  0
POINT
  5
327A
  8
DEFPOINTS
 62
     0
 10
529.9199057476206
 20
1589.676289813712
 30
0.0
  0
ENDBLK
  5
3271
  8
0
  0
BLOCK
  8
0
  2
*D553
 70
     1
 10
0.0
 20
0.0
 30
0.0
  3
*D553
  1

  0
LINE
  5
3281
  8
DIMENSIONS
  6
BYBLOCK
 62
     0
 10
549.9199057476206
 20
1548.210595331312
 30
0.0
 11
549.9199057476206
 21
1607.96249400201
 31
0.0
  0
LINE
  5
3282
  8
DIMENSIONS
  6
BYBLOCK
 62
     0
 10
194.9199057476207
 20
1548.210595331312
 30
0.0
 11
194.9199057476207
 21
1607.96249400201
 31
0.0
  0
LINE
  5
3283
  8
DIMENSIONS
  6
BYBLOCK
 62
     0
 10
544.9199057476206
 20
1607.78249400201
 30
0.0
 11
199.9199057476207
 21
1607.78249400201
 31
0.0
  0
SOLID
  5
3284
  8
DIMENSIONS
 62
     0
 10
544.9199057476206
 20
1606.949160668677
 30
0.0
 11
544.9199057476206
 21
1608.615827335343
 31
0.0
 12
549.9199057476206
 22
1607.78249400201
 32
0.0
 13
549.9199057476206
 23
1607.78249400201
 33
0.0
  0
SOLID
  5
3285
  8
DIMENSIONS
 62
     0
 10
199.9199057476207
 20
1608.615827335343
 30
0.0
 11
199.9199057476207
 21
1606.949160668677
 31
0.0
 12
194.9199057476207
 22
1607.78249400201
 32
0.0
 13
194.9199057476207
 23
1607.78249400201
 33
0.0
  0
TEXT
  5
3286
  8
DIMENSIONS
  6
CONTINUOUS
 62
     5
 10
355.0399057476207
 20
1610.17749400201
 30
0.0
 40
5.0
  1
355 [13.98]
  0
POINT
  5
3287
  8
DEFPOINTS
 62
     0
 10
549.9199057476206
 20
1546.710595331312
 30
0.0
  0
POINT
  5
3288
  8
DEFPOINTS
 62
     0
 10
194.9199057476207
 20
1546.710595331312
 30
0.0
  0
POINT
  5
3289
  8
DEFPOINTS
 62
     0
 10
194.9199057476207
 20
1607.78249400201
 30
0.0
  0
ENDBLK
  5
3280
  8
0
  0
BLOCK
  8
0
  2
*D554
 70
     1
 10
0.0
 20
0.0
 30
0.0
  3
*D554
  1

  0
LINE
  5
3290
  8
DIMENSIONS
  6
BYBLOCK
 62
     0
 10
569.9199057476206
 20
1573.210595331312
 30
0.0
 11
569.9199057476206
 21
1624.821792003645
 31
0.0
  0
LINE
  5
3291
  8
DIMENSIONS
  6
BYBLOCK
 62
     0
 10
174.9199057476207
 20
1573.210595331312
 30
0.0
 11
174.9199057476207
 21
1624.821792003645
 31
0.0
  0
LINE
  5
3292
  8
DIMENSIONS
  6
BYBLOCK
 62
     0
 10
564.9199057476206
 20
1624.641792003645
 30
0.0
 11
179.9199057476207
 21
1624.641792003645
 31
0.0
  0
SOLID
  5
3293
  8
DIMENSIONS
 62
     0
 10
564.9199057476206
 20
1623.808458670312
 30
0.0
 11
564.9199057476206
 21
1625.475125336978
 31
0.0
 12
569.9199057476206
 22
1624.641792003645
 32
0.0
 13
569.9199057476206
 23
1624.641792003645
 33
0.0
  0
SOLID
  5
3294
  8
DIMENSIONS
 62
     0
 10
179.9199057476207
 20
1625.475125336978
 30
0.0
 11
179.9199057476207
 21
1623.808458670312
 31
0.0
 12
174.9199057476207
 22
1624.641792003645
 32
0.0
 13
174.9199057476207
 23
1624.641792003645
 33
0.0
  0
TEXT
  5
3295
  8
DIMENSIONS
  6
CONTINUOUS
 62
     5
 10
355.0399057476207
 20
1627.036792003645
 30
0.0
 40
5.0
  1
395 [15.55]
  0
POINT
  5
3296
  8
DEFPOINTS
 62
     0
 10
569.9199057476206
 20
1571.710595331312
 30
0.0
  0
POINT
  5
3297
  8
DEFPOINTS
 62
     0
 10
174.9199057476207
 20
1571.710595331312
 30
0.0
  0
POINT
  5
3298
  8
DEFPOINTS
 62
     0
 10
174.9199057476207
 20
1624.641792003645
 30
0.0
  0
ENDBLK
  5
328F
  8
0
  0
BLOCK
  8
0
  2
*D555
 70
     1
 10
0.0
 20
0.0
 30
0.0
  3
*D555
  1

  0
LINE
  5
329F
  8
DIMENSIONS
  6
BYBLOCK
 62
     0
 10
193.4199057476207
 20
721.7105953313123
 30
0.0
 11
157.211676763483
 21
721.7105953313123
 31
0.0
  0
LINE
  5
32A0
  8
DIMENSIONS
  6
BYBLOCK
 62
     0
 10
193.4199057476207
 20
1271.710595331312
 30
0.0
 11
157.211676763483
 21
1271.710595331312
 31
0.0
  0
LINE
  5
32A1
  8
DIMENSIONS
  6
BYBLOCK
 62
     0
 10
157.391676763483
 20
726.7105953313123
 30
0.0
 11
157.391676763483
 21
1266.710595331312
 31
0.0
  0
SOLID
  5
32A2
  8
DIMENSIONS
 62
     0
 10
156.5583434301497
 20
726.7105953313123
 30
0.0
 11
158.2250100968164
 21
726.7105953313123
 31
0.0
 12
157.391676763483
 22
721.7105953313123
 32
0.0
 13
157.391676763483
 23
721.7105953313123
 33
0.0
  0
SOLID
  5
32A3
  8
DIMENSIONS
 62
     0
 10
158.2250100968164
 20
1266.710595331312
 30
0.0
 11
156.5583434301497
 21
1266.710595331312
 31
0.0
 12
157.391676763483
 22
1271.710595331312
 32
0.0
 13
157.391676763483
 23
1271.710595331312
 33
0.0
  0
TEXT
  5
32A4
  8
DIMENSIONS
  6
CONTINUOUS
 62
     5
 10
154.996676763483
 20
979.3330953313123
 30
0.0
 40
5.0
  1
550 [21.65]
 50
90.0
  0
POINT
  5
32A5
  8
DEFPOINTS
 62
     0
 10
194.9199057476207
 20
721.7105953313123
 30
0.0
  0
POINT
  5
32A6
  8
DEFPOINTS
 62
     0
 10
194.9199057476207
 20
1271.710595331312
 30
0.0
  0
POINT
  5
32A7
  8
DEFPOINTS
 62
     0
 10
157.391676763483
 20
1271.710595331312
 30
0.0
  0
ENDBLK
  5
329E
  8
0
  0
BLOCK
  8
0
  2
*D556
 70
     1
 10
0.0
 20
0.0
 30
0.0
  3
*D556
  1

  0
LINE
  5
32AE
  8
DIMENSIONS
  6
BYBLOCK
 62
     0
 10
193.4199057476207
 20
446.7105953313123
 30
0.0
 11
140.3639645687551
 21
446.7105953313123
 31
0.0
  0
LINE
  5
32AF
  8
DIMENSIONS
  6
BYBLOCK
 62
     0
 10
193.4199057476207
 20
1546.710595331312
 30
0.0
 11
140.3639645687552
 21
1546.710595331312
 31
0.0
  0
LINE
  5
32B0
  8
DIMENSIONS
  6
BYBLOCK
 62
     0
 10
140.5439645687551
 20
451.7105953313123
 30
0.0
 11
140.5439645687552
 21
1541.710595331312
 31
0.0
  0
SOLID
  5
32B1
  8
DIMENSIONS
 62
     0
 10
139.7106312354218
 20
451.7105953313123
 30
0.0
 11
141.3772979020885
 21
451.7105953313123
 31
0.0
 12
140.5439645687551
 22
446.7105953313123
 32
0.0
 13
140.5439645687551
 23
446.7105953313123
 33
0.0
  0
SOLID
  5
32B2
  8
DIMENSIONS
 62
     0
 10
141.3772979020885
 20
1541.710595331312
 30
0.0
 11
139.7106312354218
 21
1541.710595331312
 31
0.0
 12
140.5439645687552
 22
1546.710595331312
 32
0.0
 13
140.5439645687552
 23
1546.710595331312
 33
0.0
  0
TEXT
  5
32B3
  8
DIMENSIONS
  6
CONTINUOUS
 62
     5
 10
138.1489645687551
 20
977.1580953313123
 30
0.0
 40
5.0
  1
1100 [43.31]
 50
90.0
  0
POINT
  5
32B4
  8
DEFPOINTS
 62
     0
 10
194.9199057476207
 20
446.7105953313123
 30
0.0
  0
POINT
  5
32B5
  8
DEFPOINTS
 62
     0
 10
194.9199057476207
 20
1546.710595331312
 30
0.0
  0
POINT
  5
32B6
  8
DEFPOINTS
 62
     0
 10
140.5439645687552
 20
1546.710595331312
 30
0.0
  0
ENDBLK
  5
32AD
  8
0
  0
BLOCK
  8
0
  2
*D557
 70
     1
 10
0.0
 20
0.0
 30
0.0
  3
*D557
  1

  0
LINE
  5
32BD
  8
DIMENSIONS
  6
BYBLOCK
 62
     0
 10
173.4199057476207
 20
421.7105953313123
 30
0.0
 11
124.2165473249208
 21
421.7105953313123
 31
0.0
  0
LINE
  5
32BE
  8
DIMENSIONS
  6
BYBLOCK
 62
     0
 10
173.4199057476207
 20
1571.710595331312
 30
0.0
 11
124.2165473249209
 21
1571.710595331312
 31
0.0
  0
LINE
  5
32BF
  8
DIMENSIONS
  6
BYBLOCK
 62
     0
 10
124.3965473249208
 20
426.7105953313123
 30
0.0
 11
124.3965473249209
 21
1566.710595331312
 31
0.0
  0
SOLID
  5
32C0
  8
DIMENSIONS
 62
     0
 10
123.5632139915875
 20
426.7105953313123
 30
0.0
 11
125.2298806582541
 21
426.7105953313123
 31
0.0
 12
124.3965473249208
 22
421.7105953313123
 32
0.0
 13
124.3965473249208
 23
421.7105953313123
 33
0.0
  0
SOLID
  5
32C1
  8
DIMENSIONS
 62
     0
 10
125.2298806582542
 20
1566.710595331312
 30
0.0
 11
123.5632139915876
 21
1566.710595331312
 31
0.0
 12
124.3965473249209
 22
1571.710595331312
 32
0.0
 13
124.3965473249209
 23
1571.710595331312
 33
0.0
  0
TEXT
  5
32C2
  8
DIMENSIONS
  6
CONTINUOUS
 62
     5
 10
122.0015473249208
 20
977.1580953313123
 30
0.0
 40
5.0
  1
1150 [45.28]
 50
90.0
  0
POINT
  5
32C3
  8
DEFPOINTS
 62
     0
 10
174.9199057476207
 20
421.7105953313123
 30
0.0
  0
POINT
  5
32C4
  8
DEFPOINTS
 62
     0
 10
174.9199057476207
 20
1571.710595331312
 30
0.0
  0
POINT
  5
32C5
  8
DEFPOINTS
 62
     0
 10
124.3965473249209
 20
1571.710595331312
 30
0.0
  0
ENDBLK
  5
32BC
  8
0
  0
BLOCK
  8
0
  2
*D558
 70
     1
 10
0.0
 20
0.0
 30
0.0
  3
*D558
  1

  0
LINE
  5
32CC
  8
DIMENSIONS
  6
BYBLOCK
 62
     0
 10
571.4199057476206
 20
1571.710595331312
 30
0.0
 11
593.1334090269334
 21
1571.710595331312
 31
0.0
  0
LINE
  5
32CD
  8
DIMENSIONS
  6
BYBLOCK
 62
     0
 10
531.4199057476206
 20
1531.710595331312
 30
0.0
 11
593.1334090269334
 21
1531.710595331312
 31
0.0
  0
LINE
  5
32CE
  8
DIMENSIONS
  6
BYBLOCK
 62
     0
 10
592.9534090269334
 20
1566.710595331312
 30
0.0
 11
592.9534090269334
 21
1536.710595331312
 31
0.0
  0
SOLID
  5
32CF
  8
DIMENSIONS
 62
     0
 10
593.7867423602668
 20
1566.710595331312
 30
0.0
 11
592.1200756936
 21
1566.710595331312
 31
0.0
 12
592.9534090269334
 22
1571.710595331312
 32
0.0
 13
592.9534090269334
 23
1571.710595331312
 33
0.0
  0
SOLID
  5
32D0
  8
DIMENSIONS
 62
     0
 10
592.1200756936
 20
1536.710595331312
 30
0.0
 11
593.7867423602668
 21
1536.710595331312
 31
0.0
 12
592.9534090269334
 22
1531.710595331312
 32
0.0
 13
592.9534090269334
 23
1531.710595331312
 33
0.0
  0
TEXT
  5
32D1
  8
DIMENSIONS
  6
CONTINUOUS
 62
     5
 10
590.5584090269333
 20
1538.313095331312
 30
0.0
 40
5.0
  1
40 [1.57]
 50
90.0
  0
POINT
  5
32D2
  8
DEFPOINTS
 62
     0
 10
569.9199057476206
 20
1571.710595331312
 30
0.0
  0
POINT
  5
32D3
  8
DEFPOINTS
 62
     0
 10
529.9199057476206
 20
1531.710595331312
 30
0.0
  0
POINT
  5
32D4
  8
DEFPOINTS
 62
     0
 10
592.9534090269334
 20
1531.710595331312
 30
0.0
  0
ENDBLK
  5
32CB
  8
0
  0
BLOCK
  8
0
  2
*D559
 70
     1
 10
0.0
 20
0.0
 30
0.0
  3
*D559
  1

  0
LINE
  5
32DB
  8
DIMENSIONS
  6
BYBLOCK
 62
     0
 10
531.4199057476206
 20
1531.710595331312
 30
0.0
 11
593.1334090269334
 21
1531.710595331312
 31
0.0
  0
LINE
  5
32DC
  8
DIMENSIONS
  6
BYBLOCK
 62
     0
 10
531.4199057476206
 20
1266.710595331312
 30
0.0
 11
593.1334090269334
 21
1266.710595331312
 31
0.0
  0
LINE
  5
32DD
  8
DIMENSIONS
  6
BYBLOCK
 62
     0
 10
592.9534090269334
 20
1526.710595331312
 30
0.0
 11
592.9534090269334
 21
1271.710595331312
 31
0.0
  0
SOLID
  5
32DE
  8
DIMENSIONS
 62
     0
 10
593.7867423602668
 20
1526.710595331312
 30
0.0
 11
592.1200756936
 21
1526.710595331312
 31
0.0
 12
592.9534090269334
 22
1531.710595331312
 32
0.0
 13
592.9534090269334
 23
1531.710595331312
 33
0.0
  0
SOLID
  5
32DF
  8
DIMENSIONS
 62
     0
 10
592.1200756936
 20
1271.710595331312
 30
0.0
 11
593.7867423602668
 21
1271.710595331312
 31
0.0
 12
592.9534090269334
 22
1266.710595331312
 32
0.0
 13
592.9534090269334
 23
1266.710595331312
 33
0.0
  0
TEXT
  5
32E0
  8
DIMENSIONS
  6
CONTINUOUS
 62
     5
 10
590.5584090269331
 20
1381.875595331312
 30
0.0
 40
5.0
  1
265 [10.43]
 50
90.0
  0
POINT
  5
32E1
  8
DEFPOINTS
 62
     0
 10
529.9199057476206
 20
1531.710595331312
 30
0.0
  0
POINT
  5
32E2
  8
DEFPOINTS
 62
     0
 10
529.9199057476206
 20
1266.710595331312
 30
0.0
  0
POINT
  5
32E3
  8
DEFPOINTS
 62
     0
 10
592.9534090269334
 20
1266.710595331312
 30
0.0
  0
ENDBLK
  5
32DA
  8
0
  0
BLOCK
  8
0
  2
*D560
 70
     1
 10
0.0
 20
0.0
 30
0.0
  3
*D560
  1

  0
LINE
  5
32EA
  8
DIMENSIONS
  6
BYBLOCK
 62
     0
 10
531.4199057476206
 20
1266.710595331312
 30
0.0
 11
593.1334090269334
 21
1266.710595331312
 31
0.0
  0
LINE
  5
32EB
  8
DIMENSIONS
  6
BYBLOCK
 62
     0
 10
531.4199057476206
 20
1166.710595331312
 30
0.0
 11
593.1334090269334
 21
1166.710595331312
 31
0.0
  0
LINE
  5
32EC
  8
DIMENSIONS
  6
BYBLOCK
 62
     0
 10
592.9534090269334
 20
1261.710595331312
 30
0.0
 11
592.9534090269334
 21
1171.710595331312
 31
0.0
  0
SOLID
  5
32ED
  8
DIMENSIONS
 62
     0
 10
593.7867423602668
 20
1261.710595331312
 30
0.0
 11
592.1200756936
 21
1261.710595331312
 31
0.0
 12
592.9534090269334
 22
1266.710595331312
 32
0.0
 13
592.9534090269334
 23
1266.710595331312
 33
0.0
  0
SOLID
  5
32EE
  8
DIMENSIONS
 62
     0
 10
592.1200756936
 20
1171.710595331312
 30
0.0
 11
593.7867423602668
 21
1171.710595331312
 31
0.0
 12
592.9534090269334
 22
1166.710595331312
 32
0.0
 13
592.9534090269334
 23
1166.710595331312
 33
0.0
  0
TEXT
  5
32EF
  8
DIMENSIONS
  6
CONTINUOUS
 62
     5
 10
590.5584090269331
 20
1201.038095331312
 30
0.0
 40
5.0
  1
100 [3.94]
 50
90.0
  0
POINT
  5
32F0
  8
DEFPOINTS
 62
     0
 10
529.9199057476206
 20
1266.710595331312
 30
0.0
  0
POINT
  5
32F1
  8
DEFPOINTS
 62
     0
 10
529.9199057476206
 20
1166.710595331312
 30
0.0
  0
POINT
  5
32F2
  8
DEFPOINTS
 62
     0
 10
592.9534090269334
 20
1166.710595331312
 30
0.0
  0
ENDBLK
  5
32E9
  8
0
  0
BLOCK
  8
0
  2
*D561
 70
     1
 10
0.0
 20
0.0
 30
0.0
  3
*D561
  1

  0
LINE
  5
32F9
  8
DIMENSIONS
  6
BYBLOCK
 62
     0
 10
531.4199057476206
 20
1166.710595331312
 30
0.0
 11
593.1334090269334
 21
1166.710595331312
 31
0.0
  0
LINE
  5
32FA
  8
DIMENSIONS
  6
BYBLOCK
 62
     0
 10
531.4199057476206
 20
956.7105953313123
 30
0.0
 11
593.1334090269334
 21
956.7105953313123
 31
0.0
  0
LINE
  5
32FB
  8
DIMENSIONS
  6
BYBLOCK
 62
     0
 10
592.9534090269334
 20
1161.710595331312
 30
0.0
 11
592.9534090269334
 21
961.7105953313123
 31
0.0
  0
SOLID
  5
32FC
  8
DIMENSIONS
 62
     0
 10
593.7867423602668
 20
1161.710595331312
 30
0.0
 11
592.1200756936
 21
1161.710595331312
 31
0.0
 12
592.9534090269334
 22
1166.710595331312
 32
0.0
 13
592.9534090269334
 23
1166.710595331312
 33
0.0
  0
SOLID
  5
32FD
  8
DIMENSIONS
 62
     0
 10
592.1200756936
 20
961.7105953313123
 30
0.0
 11
593.7867423602668
 21
961.7105953313123
 31
0.0
 12
592.9534090269334
 22
956.7105953313123
 32
0.0
 13
592.9534090269334
 23
956.7105953313123
 33
0.0
  0
TEXT
  5
32FE
  8
DIMENSIONS
  6
CONTINUOUS
 62
     5
 10
590.5584090269331
 20
1046.315595331312
 30
0.0
 40
5.0
  1
210 [8.27]
 50
90.0
  0
POINT
  5
32FF
  8
DEFPOINTS
 62
     0
 10
529.9199057476206
 20
1166.710595331312
 30
0.0
  0
POINT
  5
3300
  8
DEFPOINTS
 62
     0
 10
529.9199057476206
 20
956.7105953313123
 30
0.0
  0
POINT
  5
3301
  8
DEFPOINTS
 62
     0
 10
592.9534090269334
 20
956.7105953313123
 30
0.0
  0
ENDBLK
  5
32F8
  8
0
  0
BLOCK
  8
0
  2
*D562
 70
     1
 10
0.0
 20
0.0
 30
0.0
  3
*D562
  1

  0
LINE
  5
3308
  8
DIMENSIONS
  6
BYBLOCK
 62
     0
 10
531.4199057476206
 20
956.7105953313123
 30
0.0
 11
593.1334090269334
 21
956.7105953313123
 31
0.0
  0
LINE
  5
3309
  8
DIMENSIONS
  6
BYBLOCK
 62
     0
 10
571.4199057476206
 20
421.7105953313123
 30
0.0
 11
593.1334090269334
 21
421.7105953313123
 31
0.0
  0
LINE
  5
330A
  8
DIMENSIONS
  6
BYBLOCK
 62
     0
 10
592.9534090269334
 20
951.7105953313123
 30
0.0
 11
592.9534090269334
 21
426.7105953313123
 31
0.0
  0
SOLID
  5
330B
  8
DIMENSIONS
 62
     0
 10
593.7867423602668
 20
951.7105953313123
 30
0.0
 11
592.1200756936
 21
951.7105953313123
 31
0.0
 12
592.9534090269334
 22
956.7105953313123
 32
0.0
 13
592.9534090269334
 23
956.7105953313123
 33
0.0
  0
SOLID
  5
330C
  8
DIMENSIONS
 62
     0
 10
592.1200756936
 20
426.7105953313123
 30
0.0
 11
593.7867423602668
 21
426.7105953313123
 31
0.0
 12
592.9534090269334
 22
421.7105953313123
 32
0.0
 13
592.9534090269334
 23
421.7105953313123
 33
0.0
  0
TEXT
  5
330D
  8
DIMENSIONS
  6
CONTINUOUS
 62
     5
 10
590.5584090269334
 20
671.8330953313124
 30
0.0
 40
5.0
  1
535 [21.06]
 50
90.0
  0
POINT
  5
330E
  8
DEFPOINTS
 62
     0
 10
529.9199057476206
 20
956.7105953313123
 30
0.0
  0
POINT
  5
330F
  8
DEFPOINTS
 62
     0
 10
569.9199057476206
 20
421.7105953313123
 30
0.0
  0
POINT
  5
3310
  8
DEFPOINTS
 62
     0
 10
592.9534090269334
 20
421.7105953313123
 30
0.0
  0
ENDBLK
  5
3307
  8
0
  0
BLOCK
  8
0
  2
*D563
 70
     1
 10
0.0
 20
0.0
 30
0.0
  3
*D563
  1

  0
LINE
  5
3328
  8
DIMENSIONS
  6
BYBLOCK
 62
     0
 10
541.6699595334446
 20
446.6808050107059
 30
0.0
 11
495.2832782360821
 21
446.5133040268396
 31
0.0
  0
TEXT
  5
3329
  8
DIMENSIONS
  6
CONTINUOUS
 62
     5
 10
495.9943364458645
 20
448.9908877736181
 30
0.0
 40
5.0
  1
Ø6.5 [Ø0.26]
 50
0.2068925273198278
  0
SOLID
  5
332A
  8
DIMENSIONS
 62
     0
 10
541.6729686567382
 20
445.847477110284
 30
0.0
 11
541.666950410151
 21
447.5141329111277
 31
0.0
 12
546.6699269359756
 22
446.6988597504674
 32
0.0
 13
546.6699269359756
 23
446.6988597504674
 33
0.0
  0
LINE
  5
332B
  8
DIMENSIONS
  6
BYBLOCK
 62
     0
 10
547.4199057476206
 20
446.7105953313123
 30
0.0
 11
552.4199057476206
 21
446.7105953313123
 31
0.0
  0
LINE
  5
332C
  8
DIMENSIONS
  6
BYBLOCK
 62
     0
 10
549.9199057476206
 20
444.2105953313123
 30
0.0
 11
549.9199057476206
 21
449.2105953313123
 31
0.0
  0
POINT
  5
332D
  8
DEFPOINTS
 62
     0
 10
546.6699269359756
 20
446.6988597504674
 30
0.0
  0
POINT
  5
332E
  8
DEFPOINTS
 62
     0
 10
553.1698845592657
 20
446.7223309121573
 30
0.0
  0
ENDBLK
  5
3327
  8
0
  0
BLOCK
  8
0
  2
*D565
 70
     1
 10
0.0
 20
0.0
 30
0.0
  3
*D565
  1

  0
LINE
  5
3395
  8
DIMENSIONS
  6
BYBLOCK
 62
     0
 10
212.2955725536369
 20
1923.308991933994
 30
0.0
 11
212.2955725536369
 21
1987.857777929914
 31
0.0
  0
LINE
  5
3396
  8
DIMENSIONS
  6
BYBLOCK
 62
     0
 10
589.2955725536368
 20
1923.308991933994
 30
0.0
 11
589.2955725536368
 21
1987.857777929914
 31
0.0
  0
LINE
  5
3397
  8
DIMENSIONS
  6
BYBLOCK
 62
     0
 10
217.2955725536369
 20
1987.677777929914
 30
0.0
 11
584.2955725536368
 21
1987.677777929914
 31
0.0
  0
SOLID
  5
3398
  8
DIMENSIONS
 62
     0
 10
217.2955725536369
 20
1988.511111263247
 30
0.0
 11
217.2955725536369
 21
1986.844444596581
 31
0.0
 12
212.2955725536369
 22
1987.677777929914
 32
0.0
 13
212.2955725536369
 23
1987.677777929914
 33
0.0
  0
SOLID
  5
3399
  8
DIMENSIONS
 62
     0
 10
584.2955725536368
 20
1986.844444596581
 30
0.0
 11
584.2955725536368
 21
1988.511111263247
 31
0.0
 12
589.2955725536368
 22
1987.677777929914
 32
0.0
 13
589.2955725536368
 23
1987.677777929914
 33
0.0
  0
TEXT
  5
339A
  8
DIMENSIONS
  6
CONTINUOUS
 62
     5
 10
383.4155725536368
 20
1990.072777929914
 30
0.0
 40
5.0
  1
377 [14.84]
  0
POINT
  5
339B
  8
DEFPOINTS
 62
     0
 10
212.2955725536369
 20
1921.808991933994
 30
0.0
  0
POINT
  5
339C
  8
DEFPOINTS
 62
     0
 10
589.2955725536368
 20
1921.808991933994
 30
0.0
  0
POINT
  5
339D
  8
DEFPOINTS
 62
     0
 10
589.2955725536368
 20
1987.677777929914
 30
0.0
  0
ENDBLK
  5
3394
  8
0
  0
BLOCK
  8
0
  2
*D566
 70
     1
 10
0.0
 20
0.0
 30
0.0
  3
*D566
  1

  0
LINE
  5
33A4
  8
DIMENSIONS
  6
BYBLOCK
 62
     0
 10
605.7955725536368
 20
1948.308991933994
 30
0.0
 11
605.7955725536368
 21
2004.107640959621
 31
0.0
  0
LINE
  5
33A5
  8
DIMENSIONS
  6
BYBLOCK
 62
     0
 10
195.7955725536369
 20
1948.308991933994
 30
0.0
 11
195.7955725536369
 21
2004.107640959621
 31
0.0
  0
LINE
  5
33A6
  8
DIMENSIONS
  6
BYBLOCK
 62
     0
 10
600.7955725536368
 20
2003.927640959621
 30
0.0
 11
200.7955725536369
 21
2003.927640959621
 31
0.0
  0
SOLID
  5
33A7
  8
DIMENSIONS
 62
     0
 10
600.7955725536368
 20
2003.094307626288
 30
0.0
 11
600.7955725536368
 21
2004.760974292954
 31
0.0
 12
605.7955725536368
 22
2003.927640959621
 32
0.0
 13
605.7955725536368
 23
2003.927640959621
 33
0.0
  0
SOLID
  5
33A8
  8
DIMENSIONS
 62
     0
 10
200.7955725536369
 20
2004.760974292954
 30
0.0
 11
200.7955725536369
 21
2003.094307626288
 31
0.0
 12
195.7955725536369
 22
2003.927640959621
 32
0.0
 13
195.7955725536369
 23
2003.927640959621
 33
0.0
  0
TEXT
  5
33A9
  8
DIMENSIONS
  6
CONTINUOUS
 62
     5
 10
383.5180725536368
 20
2006.322640959621
 30
0.0
 40
5.0
  1
410 [16.14]
  0
POINT
  5
33AA
  8
DEFPOINTS
 62
     0
 10
605.7955725536368
 20
1946.808991933994
 30
0.0
  0
POINT
  5
33AB
  8
DEFPOINTS
 62
     0
 10
195.7955725536369
 20
1946.808991933994
 30
0.0
  0
POINT
  5
33AC
  8
DEFPOINTS
 62
     0
 10
195.7955725536369
 20
2003.927640959621
 30
0.0
  0
ENDBLK
  5
33A3
  8
0
  0
BLOCK
  8
0
  2
*D567
 70
     1
 10
0.0
 20
0.0
 30
0.0
  3
*D567
  1

  0
LINE
  5
33B3
  8
DIMENSIONS
  6
BYBLOCK
 62
     0
 10
172.2955725536369
 20
1973.308991933994
 30
0.0
 11
172.2955725536369
 21
2019.498072808824
 31
0.0
  0
LINE
  5
33B4
  8
DIMENSIONS
  6
BYBLOCK
 62
     0
 10
629.2955725536369
 20
1973.308991933994
 30
0.0
 11
629.2955725536369
 21
2019.498072808824
 31
0.0
  0
LINE
  5
33B5
  8
DIMENSIONS
  6
BYBLOCK
 62
     0
 10
177.2955725536369
 20
2019.318072808824
 30
0.0
 11
624.2955725536369
 21
2019.318072808824
 31
0.0
  0
SOLID
  5
33B6
  8
DIMENSIONS
 62
     0
 10
177.2955725536369
 20
2020.151406142158
 30
0.0
 11
177.2955725536369
 21
2018.484739475491
 31
0.0
 12
172.2955725536369
 22
2019.318072808824
 32
0.0
 13
172.2955725536369
 23
2019.318072808824
 33
0.0
  0
SOLID
  5
33B7
  8
DIMENSIONS
 62
     0
 10
624.2955725536369
 20
2018.484739475491
 30
0.0
 11
624.2955725536369
 21
2020.151406142158
 31
0.0
 12
629.2955725536369
 22
2019.318072808824
 32
0.0
 13
629.2955725536369
 23
2019.318072808824
 33
0.0
  0
TEXT
  5
33B8
  8
DIMENSIONS
  6
CONTINUOUS
 62
     5
 10
383.518072553637
 20
2021.713072808825
 30
0.0
 40
5.0
  1
457 [17.99]
  0
POINT
  5
33B9
  8
DEFPOINTS
 62
     0
 10
172.2955725536369
 20
1971.808991933994
 30
0.0
  0
POINT
  5
33BA
  8
DEFPOINTS
 62
     0
 10
629.2955725536369
 20
1971.808991933994
 30
0.0
  0
POINT
  5
33BB
  8
DEFPOINTS
 62
     0
 10
629.2955725536369
 20
2019.318072808824
 30
0.0
  0
ENDBLK
  5
33B2
  8
0
  0
BLOCK
  8
0
  2
*D568
 70
     1
 10
0.0
 20
0.0
 30
0.0
  3
*D568
  1

  0
LINE
  5
33C2
  8
DIMENSIONS
  6
BYBLOCK
 62
     0
 10
170.7955725536369
 20
1971.808991933994
 30
0.0
 11
140.784241587395
 21
1971.808991933994
 31
0.0
  0
LINE
  5
33C3
  8
DIMENSIONS
  6
BYBLOCK
 62
     0
 10
194.2955725536369
 20
1946.808991933994
 30
0.0
 11
140.784241587395
 21
1946.808991933994
 31
0.0
  0
LINE
  5
33C4
  8
DIMENSIONS
  6
BYBLOCK
 62
     0
 10
140.964241587395
 20
1946.808991933994
 30
0.0
 11
140.964241587395
 21
1913.308991933994
 31
0.0
  0
LINE
  5
33C5
  8
DIMENSIONS
  6
BYBLOCK
 62
     0
 10
140.964241587395
 20
1966.808991933994
 30
0.0
 11
140.964241587395
 21
1951.808991933994
 31
0.0
  0
SOLID
  5
33C6
  8
DIMENSIONS
 62
     0
 10
141.7975749207284
 20
1966.808991933994
 30
0.0
 11
140.1309082540617
 21
1966.808991933994
 31
0.0
 12
140.964241587395
 22
1971.808991933994
 32
0.0
 13
140.964241587395
 23
1971.808991933994
 33
0.0
  0
SOLID
  5
33C7
  8
DIMENSIONS
 62
     0
 10
140.1309082540617
 20
1951.808991933994
 30
0.0
 11
141.7975749207284
 21
1951.808991933994
 31
0.0
 12
140.964241587395
 22
1946.808991933994
 32
0.0
 13
140.964241587395
 23
1946.808991933994
 33
0.0
  0
TEXT
  5
33C8
  8
DIMENSIONS
  6
CONTINUOUS
 62
     5
 10
138.5692415873948
 20
1914.103991933994
 30
0.0
 40
5.0
  1
25 [0.98]
 50
90.0
  0
POINT
  5
33C9
  8
DEFPOINTS
 62
     0
 10
172.2955725536369
 20
1971.808991933994
 30
0.0
  0
POINT
  5
33CA
  8
DEFPOINTS
 62
     0
 10
195.7955725536369
 20
1946.808991933994
 30
0.0
  0
POINT
  5
3425
  8
DEFPOINTS
 62
     0
 10
140.964241587395
 20
1946.808991933994
 30
0.0
  0
ENDBLK
  5
33C1
  8
0
  0
BLOCK
  8
0
  2
*D569
 70
     1
 10
0.0
 20
0.0
 30
0.0
  3
*D569
  1

  0
LINE
  5
33D1
  8
DIMENSIONS
  6
BYBLOCK
 62
     0
 10
194.2955725536369
 20
1946.808991933994
 30
0.0
 11
155.716121042853
 21
1946.808991933994
 31
0.0
  0
LINE
  5
33D2
  8
DIMENSIONS
  6
BYBLOCK
 62
     0
 10
194.2955725536368
 20
1611.808991933994
 30
0.0
 11
155.716121042853
 21
1611.808991933994
 31
0.0
  0
LINE
  5
33D3
  8
DIMENSIONS
  6
BYBLOCK
 62
     0
 10
155.8961210428531
 20
1941.808991933994
 30
0.0
 11
155.896121042853
 21
1616.808991933994
 31
0.0
  0
SOLID
  5
33D4
  8
DIMENSIONS
 62
     0
 10
156.7294543761864
 20
1941.808991933994
 30
0.0
 11
155.0627877095197
 21
1941.808991933994
 31
0.0
 12
155.8961210428531
 22
1946.808991933994
 32
0.0
 13
155.8961210428531
 23
1946.808991933994
 33
0.0
  0
SOLID
  5
33D5
  8
DIMENSIONS
 62
     0
 10
155.0627877095197
 20
1616.808991933994
 30
0.0
 11
156.7294543761864
 21
1616.808991933994
 31
0.0
 12
155.896121042853
 22
1611.808991933994
 32
0.0
 13
155.896121042853
 23
1611.808991933994
 33
0.0
  0
TEXT
  5
33D6
  8
DIMENSIONS
  6
CONTINUOUS
 62
     5
 10
153.5011210428529
 20
1761.928991933994
 30
0.0
 40
5.0
  1
335 [13.19]
 50
90.0
  0
POINT
  5
33D7
  8
DEFPOINTS
 62
     0
 10
195.7955725536369
 20
1946.808991933994
 30
0.0
  0
POINT
  5
33D8
  8
DEFPOINTS
 62
     0
 10
195.7955725536368
 20
1611.808991933994
 30
0.0
  0
POINT
  5
33D9
  8
DEFPOINTS
 62
     0
 10
155.896121042853
 20
1611.808991933994
 30
0.0
  0
ENDBLK
  5
33D0
  8
0
  0
BLOCK
  8
0
  2
*D570
 70
     1
 10
0.0
 20
0.0
 30
0.0
  3
*D570
  1

  0
LINE
  5
33E0
  8
DIMENSIONS
  6
BYBLOCK
 62
     0
 10
194.2955725536368
 20
1611.808991933994
 30
0.0
 11
155.716121042853
 21
1611.808991933994
 31
0.0
  0
LINE
  5
33E1
  8
DIMENSIONS
  6
BYBLOCK
 62
     0
 10
194.2955725536368
 20
1326.808991933994
 30
0.0
 11
155.716121042853
 21
1326.808991933994
 31
0.0
  0
LINE
  5
33E2
  8
DIMENSIONS
  6
BYBLOCK
 62
     0
 10
155.896121042853
 20
1606.808991933994
 30
0.0
 11
155.896121042853
 21
1331.808991933994
 31
0.0
  0
SOLID
  5
33E3
  8
DIMENSIONS
 62
     0
 10
156.7294543761864
 20
1606.808991933994
 30
0.0
 11
155.0627877095197
 21
1606.808991933994
 31
0.0
 12
155.896121042853
 22
1611.808991933994
 32
0.0
 13
155.896121042853
 23
1611.808991933994
 33
0.0
  0
SOLID
  5
33E4
  8
DIMENSIONS
 62
     0
 10
155.0627877095197
 20
1331.808991933994
 30
0.0
 11
156.7294543761863
 21
1331.808991933994
 31
0.0
 12
155.896121042853
 22
1326.808991933994
 32
0.0
 13
155.896121042853
 23
1326.808991933994
 33
0.0
  0
TEXT
  5
33E5
  8
DIMENSIONS
  6
CONTINUOUS
 62
     5
 10
153.5011210428527
 20
1451.973991933994
 30
0.0
 40
5.0
  1
285 [11.22]
 50
90.0
  0
POINT
  5
33E6
  8
DEFPOINTS
 62
     0
 10
195.7955725536368
 20
1611.808991933994
 30
0.0
  0
POINT
  5
33E7
  8
DEFPOINTS
 62
     0
 10
195.7955725536368
 20
1326.808991933994
 30
0.0
  0
POINT
  5
33E8
  8
DEFPOINTS
 62
     0
 10
155.896121042853
 20
1326.808991933994
 30
0.0
  0
ENDBLK
  5
33DF
  8
0
  0
BLOCK
  8
0
  2
*D571
 70
     1
 10
0.0
 20
0.0
 30
0.0
  3
*D571
  1

  0
LINE
  5
33EF
  8
DIMENSIONS
  6
BYBLOCK
 62
     0
 10
194.2955725536368
 20
1326.808991933994
 30
0.0
 11
155.716121042853
 21
1326.808991933994
 31
0.0
  0
LINE
  5
33F0
  8
DIMENSIONS
  6
BYBLOCK
 62
     0
 10
194.2955725536367
 20
956.8089919339943
 30
0.0
 11
155.716121042853
 21
956.8089919339943
 31
0.0
  0
LINE
  5
33F1
  8
DIMENSIONS
  6
BYBLOCK
 62
     0
 10
155.896121042853
 20
1321.808991933994
 30
0.0
 11
155.896121042853
 21
961.8089919339943
 31
0.0
  0
SOLID
  5
33F2
  8
DIMENSIONS
 62
     0
 10
156.7294543761863
 20
1321.808991933994
 30
0.0
 11
155.0627877095197
 21
1321.808991933994
 31
0.0
 12
155.896121042853
 22
1326.808991933994
 32
0.0
 13
155.896121042853
 23
1326.808991933994
 33
0.0
  0
SOLID
  5
33F3
  8
DIMENSIONS
 62
     0
 10
155.0627877095196
 20
961.8089919339943
 30
0.0
 11
156.7294543761863
 21
961.8089919339943
 31
0.0
 12
155.896121042853
 22
956.8089919339943
 32
0.0
 13
155.896121042853
 23
956.8089919339943
 33
0.0
  0
TEXT
  5
33F4
  8
DIMENSIONS
  6
CONTINUOUS
 62
     5
 10
153.5011210428527
 20
1124.428991933994
 30
0.0
 40
5.0
  1
370 [14.57]
 50
90.0
  0
POINT
  5
33F5
  8
DEFPOINTS
 62
     0
 10
195.7955725536368
 20
1326.808991933994
 30
0.0
  0
POINT
  5
33F6
  8
DEFPOINTS
 62
     0
 10
195.7955725536367
 20
956.8089919339943
 30
0.0
  0
POINT
  5
33F7
  8
DEFPOINTS
 62
     0
 10
155.896121042853
 20
956.8089919339943
 30
0.0
  0
ENDBLK
  5
33EE
  8
0
  0
BLOCK
  8
0
  2
*D572
 70
     1
 10
0.0
 20
0.0
 30
0.0
  3
*D572
  1

  0
LINE
  5
33FE
  8
DIMENSIONS
  6
BYBLOCK
 62
     0
 10
194.2955725536367
 20
956.8089919339943
 30
0.0
 11
155.716121042853
 21
956.8089919339943
 31
0.0
  0
LINE
  5
33FF
  8
DIMENSIONS
  6
BYBLOCK
 62
     0
 10
194.2955725536366
 20
596.8089919339943
 30
0.0
 11
155.7161210428529
 21
596.8089919339943
 31
0.0
  0
LINE
  5
3400
  8
DIMENSIONS
  6
BYBLOCK
 62
     0
 10
155.896121042853
 20
951.8089919339943
 30
0.0
 11
155.8961210428529
 21
601.8089919339943
 31
0.0
  0
SOLID
  5
3401
  8
DIMENSIONS
 62
     0
 10
156.7294543761863
 20
951.8089919339943
 30
0.0
 11
155.0627877095196
 21
951.8089919339943
 31
0.0
 12
155.896121042853
 22
956.8089919339943
 32
0.0
 13
155.896121042853
 23
956.8089919339943
 33
0.0
  0
SOLID
  5
3402
  8
DIMENSIONS
 62
     0
 10
155.0627877095196
 20
601.8089919339943
 30
0.0
 11
156.7294543761863
 21
601.8089919339943
 31
0.0
 12
155.8961210428529
 22
596.8089919339943
 32
0.0
 13
155.8961210428529
 23
596.8089919339943
 33
0.0
  0
TEXT
  5
3403
  8
DIMENSIONS
  6
CONTINUOUS
 62
     5
 10
153.501121042853
 20
759.4289919339943
 30
0.0
 40
5.0
  1
360 [14.17]
 50
90.0
  0
POINT
  5
3404
  8
DEFPOINTS
 62
     0
 10
195.7955725536367
 20
956.8089919339943
 30
0.0
  0
POINT
  5
3405
  8
DEFPOINTS
 62
     0
 10
195.7955725536366
 20
596.8089919339943
 30
0.0
  0
POINT
  5
3406
  8
DEFPOINTS
 62
     0
 10
155.8961210428529
 20
596.8089919339943
 30
0.0
  0
ENDBLK
  5
33FD
  8
0
  0
BLOCK
  8
0
  2
*D573
 70
     1
 10
0.0
 20
0.0
 30
0.0
  3
*D573
  1

  0
LINE
  5
340D
  8
DIMENSIONS
  6
BYBLOCK
 62
     0
 10
194.2955725536366
 20
596.8089919339943
 30
0.0
 11
155.7161210428529
 21
596.8089919339943
 31
0.0
  0
LINE
  5
340E
  8
DIMENSIONS
  6
BYBLOCK
 62
     0
 10
170.7955725536366
 20
421.8089919339943
 30
0.0
 11
155.7161210428529
 21
421.8089919339943
 31
0.0
  0
LINE
  5
340F
  8
DIMENSIONS
  6
BYBLOCK
 62
     0
 10
155.8961210428529
 20
591.8089919339943
 30
0.0
 11
155.8961210428529
 21
426.8089919339943
 31
0.0
  0
SOLID
  5
3410
  8
DIMENSIONS
 62
     0
 10
156.7294543761863
 20
591.8089919339943
 30
0.0
 11
155.0627877095196
 21
591.8089919339943
 31
0.0
 12
155.8961210428529
 22
596.8089919339943
 32
0.0
 13
155.8961210428529
 23
596.8089919339943
 33
0.0
  0
SOLID
  5
3411
  8
DIMENSIONS
 62
     0
 10
155.0627877095196
 20
426.8089919339943
 30
0.0
 11
156.7294543761863
 21
426.8089919339943
 31
0.0
 12
155.8961210428529
 22
421.8089919339943
 32
0.0
 13
155.8961210428529
 23
421.8089919339943
 33
0.0
  0
TEXT
  5
3412
  8
DIMENSIONS
  6
CONTINUOUS
 62
     5
 10
153.501121042853
 20
493.6364919339943
 30
0.0
 40
5.0
  1
175 [6.89]
 50
90.0
  0
POINT
  5
3413
  8
DEFPOINTS
 62
     0
 10
195.7955725536366
 20
596.8089919339943
 30
0.0
  0
POINT
  5
3414
  8
DEFPOINTS
 62
     0
 10
172.2955725536366
 20
421.8089919339943
 30
0.0
  0
POINT
  5
3415
  8
DEFPOINTS
 62
     0
 10
155.8961210428529
 20
421.8089919339943
 30
0.0
  0
ENDBLK
  5
340C
  8
0
  0
BLOCK
  8
0
  2
*D574
 70
     1
 10
0.0
 20
0.0
 30
0.0
  3
*D574
  1

  0
LINE
  5
341C
  8
DIMENSIONS
  6
BYBLOCK
 62
     0
 10
597.5455759672718
 20
596.801486937738
 30
0.0
 11
551.3205950939733
 21
596.7594362162897
 31
0.0
  0
TEXT
  5
341D
  8
DIMENSIONS
  6
CONTINUOUS
 62
     5
 10
552.0383432971792
 20
599.2350901736908
 30
0.0
 40
5.0
  1
Ø6.5 [Ø0.26]
 50
0.0521217781887805
  0
SOLID
  5
341E
  8
DIMENSIONS
 62
     0
 10
597.5463340477017
 20
595.9681539492163
 30
0.0
 11
597.5448178868419
 21
597.6348199262596
 31
0.0
 12
602.545573898402
 22
596.8060354203176
 32
0.0
 13
602.545573898402
 23
596.8060354203176
 33
0.0
  0
LINE
  5
341F
  8
DIMENSIONS
  6
BYBLOCK
 62
     0
 10
603.2955725536366
 20
596.8089919339943
 30
0.0
 11
608.2955725536366
 21
596.8089919339943
 31
0.0
  0
LINE
  5
3420
  8
DIMENSIONS
  6
BYBLOCK
 62
     0
 10
605.7955725536366
 20
594.3089919339943
 30
0.0
 11
605.7955725536366
 21
599.3089919339943
 31
0.0
  0
POINT
  5
3421
  8
DEFPOINTS
 62
     0
 10
602.545573898402
 20
596.8060354203176
 30
0.0
  0
POINT
  5
3422
  8
DEFPOINTS
 62
     0
 10
609.0455712088711
 20
596.811948447671
 30
0.0
  0
ENDBLK
  5
341B
  8
0
  0
BLOCK
  8
0
  2
*D575
 70
     1
 10
0.0
 20
0.0
 30
0.0
  3
*D575
  1

  0
LINE
  5
342C
  8
DIMENSIONS
  6
BYBLOCK
 62
     0
 10
630.7955725536369
 20
1971.808991933994
 30
0.0
 11
653.1347180276564
 21
1971.808991933994
 31
0.0
  0
LINE
  5
342D
  8
DIMENSIONS
  6
BYBLOCK
 62
     0
 10
590.7955725536368
 20
1921.808991933994
 30
0.0
 11
653.1347180276564
 21
1921.808991933994
 31
0.0
  0
LINE
  5
342E
  8
DIMENSIONS
  6
BYBLOCK
 62
     0
 10
652.9547180276564
 20
1966.808991933994
 30
0.0
 11
652.9547180276564
 21
1926.808991933994
 31
0.0
  0
SOLID
  5
342F
  8
DIMENSIONS
 62
     0
 10
653.7880513609898
 20
1966.808991933994
 30
0.0
 11
652.1213846943231
 21
1966.808991933994
 31
0.0
 12
652.9547180276564
 22
1971.808991933994
 32
0.0
 13
652.9547180276564
 23
1971.808991933994
 33
0.0
  0
SOLID
  5
3430
  8
DIMENSIONS
 62
     0
 10
652.1213846943231
 20
1926.808991933994
 30
0.0
 11
653.7880513609898
 21
1926.808991933994
 31
0.0
 12
652.9547180276564
 22
1921.808991933994
 32
0.0
 13
652.9547180276564
 23
1921.808991933994
 33
0.0
  0
TEXT
  5
3431
  8
DIMENSIONS
  6
CONTINUOUS
 62
     5
 10
650.5597180276561
 20
1933.311491933995
 30
0.0
 40
5.0
  1
50 [1.97]
 50
90.0
  0
POINT
  5
3432
  8
DEFPOINTS
 62
     0
 10
629.2955725536369
 20
1971.808991933994
 30
0.0
  0
POINT
  5
3433
  8
DEFPOINTS
 62
     0
 10
589.2955725536368
 20
1921.808991933994
 30
0.0
  0
POINT
  5
3434
  8
DEFPOINTS
 62
     0
 10
652.9547180276564
 20
1921.808991933994
 30
0.0
  0
ENDBLK
  5
342B
  8
0
  0
BLOCK
  8
0
  2
*D576
 70
     1
 10
0.0
 20
0.0
 30
0.0
  3
*D576
  1

  0
LINE
  5
343F
  8
DIMENSIONS
  6
BYBLOCK
 62
     0
 10
590.7955725536368
 20
1921.808991933994
 30
0.0
 11
653.1347180276564
 21
1921.808991933994
 31
0.0
  0
LINE
  5
3440
  8
DIMENSIONS
  6
BYBLOCK
 62
     0
 10
590.7955725536367
 20
1596.808991933994
 30
0.0
 11
653.1347180276564
 21
1596.808991933994
 31
0.0
  0
LINE
  5
3441
  8
DIMENSIONS
  6
BYBLOCK
 62
     0
 10
652.9547180276564
 20
1916.808991933994
 30
0.0
 11
652.9547180276564
 21
1601.808991933994
 31
0.0
  0
SOLID
  5
3442
  8
DIMENSIONS
 62
     0
 10
653.7880513609898
 20
1916.808991933994
 30
0.0
 11
652.1213846943231
 21
1916.808991933994
 31
0.0
 12
652.9547180276564
 22
1921.808991933994
 32
0.0
 13
652.9547180276564
 23
1921.808991933994
 33
0.0
  0
SOLID
  5
3443
  8
DIMENSIONS
 62
     0
 10
652.1213846943231
 20
1601.808991933994
 30
0.0
 11
653.7880513609898
 21
1601.808991933994
 31
0.0
 12
652.9547180276564
 22
1596.808991933994
 32
0.0
 13
652.9547180276564
 23
1596.808991933994
 33
0.0
  0
TEXT
  5
3444
  8
DIMENSIONS
  6
CONTINUOUS
 62
     5
 10
650.5597180276561
 20
1741.928991933994
 30
0.0
 40
5.0
  1
325 [12.80]
 50
90.0
  0
POINT
  5
3445
  8
DEFPOINTS
 62
     0
 10
589.2955725536368
 20
1921.808991933994
 30
0.0
  0
POINT
  5
3446
  8
DEFPOINTS
 62
     0
 10
589.2955725536367
 20
1596.808991933994
 30
0.0
  0
POINT
  5
3447
  8
DEFPOINTS
 62
     0
 10
652.9547180276564
 20
1596.808991933994
 30
0.0
  0
ENDBLK
  5
343E
  8
0
  0
BLOCK
  8
0
  2
*D577
 70
     1
 10
0.0
 20
0.0
 30
0.0
  3
*D577
  1

  0
LINE
  5
344E
  8
DIMENSIONS
  6
BYBLOCK
 62
     0
 10
590.7955725536367
 20
1596.808991933994
 30
0.0
 11
653.1347180276564
 21
1596.808991933994
 31
0.0
  0
LINE
  5
344F
  8
DIMENSIONS
  6
BYBLOCK
 62
     0
 10
590.7955725536367
 20
1291.808991933994
 30
0.0
 11
653.1347180276564
 21
1291.808991933994
 31
0.0
  0
LINE
  5
3450
  8
DIMENSIONS
  6
BYBLOCK
 62
     0
 10
652.9547180276564
 20
1591.808991933994
 30
0.0
 11
652.9547180276564
 21
1296.808991933994
 31
0.0
  0
SOLID
  5
3451
  8
DIMENSIONS
 62
     0
 10
653.7880513609898
 20
1591.808991933994
 30
0.0
 11
652.1213846943231
 21
1591.808991933994
 31
0.0
 12
652.9547180276564
 22
1596.808991933994
 32
0.0
 13
652.9547180276564
 23
1596.808991933994
 33
0.0
  0
SOLID
  5
3452
  8
DIMENSIONS
 62
     0
 10
652.1213846943231
 20
1296.808991933994
 30
0.0
 11
653.7880513609898
 21
1296.808991933994
 31
0.0
 12
652.9547180276564
 22
1291.808991933994
 32
0.0
 13
652.9547180276564
 23
1291.808991933994
 33
0.0
  0
TEXT
  5
3453
  8
DIMENSIONS
  6
CONTINUOUS
 62
     5
 10
650.5597180276563
 20
1426.928991933994
 30
0.0
 40
5.0
  1
305 [12.01]
 50
90.0
  0
POINT
  5
3454
  8
DEFPOINTS
 62
     0
 10
589.2955725536367
 20
1596.808991933994
 30
0.0
  0
POINT
  5
3455
  8
DEFPOINTS
 62
     0
 10
589.2955725536367
 20
1291.808991933994
 30
0.0
  0
POINT
  5
3456
  8
DEFPOINTS
 62
     0
 10
652.9547180276564
 20
1291.808991933994
 30
0.0
  0
ENDBLK
  5
344D
  8
0
  0
BLOCK
  8
0
  2
*D578
 70
     1
 10
0.0
 20
0.0
 30
0.0
  3
*D578
  1

  0
LINE
  5
345D
  8
DIMENSIONS
  6
BYBLOCK
 62
     0
 10
590.7955725536367
 20
1291.808991933994
 30
0.0
 11
653.1347180276564
 21
1291.808991933994
 31
0.0
  0
LINE
  5
345E
  8
DIMENSIONS
  6
BYBLOCK
 62
     0
 10
590.7955725536367
 20
956.8089919339943
 30
0.0
 11
653.1347180276564
 21
956.8089919339943
 31
0.0
  0
LINE
  5
345F
  8
DIMENSIONS
  6
BYBLOCK
 62
     0
 10
652.9547180276564
 20
1286.808991933994
 30
0.0
 11
652.9547180276564
 21
961.8089919339943
 31
0.0
  0
SOLID
  5
3460
  8
DIMENSIONS
 62
     0
 10
653.7880513609898
 20
1286.808991933994
 30
0.0
 11
652.1213846943231
 21
1286.808991933994
 31
0.0
 12
652.9547180276564
 22
1291.808991933994
 32
0.0
 13
652.9547180276564
 23
1291.808991933994
 33
0.0
  0
SOLID
  5
3461
  8
DIMENSIONS
 62
     0
 10
652.1213846943231
 20
961.8089919339943
 30
0.0
 11
653.7880513609898
 21
961.8089919339943
 31
0.0
 12
652.9547180276564
 22
956.8089919339943
 32
0.0
 13
652.9547180276564
 23
956.8089919339943
 33
0.0
  0
TEXT
  5
3462
  8
DIMENSIONS
  6
CONTINUOUS
 62
     5
 10
650.5597180276563
 20
1106.928991933994
 30
0.0
 40
5.0
  1
335 [13.19]
 50
90.0
  0
POINT
  5
3463
  8
DEFPOINTS
 62
     0
 10
589.2955725536367
 20
1291.808991933994
 30
0.0
  0
POINT
  5
3464
  8
DEFPOINTS
 62
     0
 10
589.2955725536367
 20
956.8089919339943
 30
0.0
  0
POINT
  5
3465
  8
DEFPOINTS
 62
     0
 10
652.9547180276564
 20
956.8089919339943
 30
0.0
  0
ENDBLK
  5
345C
  8
0
  0
BLOCK
  8
0
  2
*D579
 70
     1
 10
0.0
 20
0.0
 30
0.0
  3
*D579
  1

  0
LINE
  5
346C
  8
DIMENSIONS
  6
BYBLOCK
 62
     0
 10
590.7955725536367
 20
956.8089919339943
 30
0.0
 11
653.1347180276564
 21
956.8089919339943
 31
0.0
  0
LINE
  5
346D
  8
DIMENSIONS
  6
BYBLOCK
 62
     0
 10
630.7955725536366
 20
421.8089919339943
 30
0.0
 11
653.1347180276564
 21
421.8089919339943
 31
0.0
  0
LINE
  5
346E
  8
DIMENSIONS
  6
BYBLOCK
 62
     0
 10
652.9547180276564
 20
951.8089919339943
 30
0.0
 11
652.9547180276564
 21
426.8089919339943
 31
0.0
  0
SOLID
  5
346F
  8
DIMENSIONS
 62
     0
 10
653.7880513609898
 20
951.8089919339943
 30
0.0
 11
652.1213846943231
 21
951.8089919339943
 31
0.0
 12
652.9547180276564
 22
956.8089919339943
 32
0.0
 13
652.9547180276564
 23
956.8089919339943
 33
0.0
  0
SOLID
  5
3470
  8
DIMENSIONS
 62
     0
 10
652.1213846943231
 20
426.8089919339943
 30
0.0
 11
653.7880513609898
 21
426.8089919339943
 31
0.0
 12
652.9547180276564
 22
421.8089919339943
 32
0.0
 13
652.9547180276564
 23
421.8089919339943
 33
0.0
  0
TEXT
  5
3471
  8
DIMENSIONS
  6
CONTINUOUS
 62
     5
 10
650.5597180276565
 20
671.9314919339944
 30
0.0
 40
5.0
  1
535 [21.06]
 50
90.0
  0
POINT
  5
3472
  8
DEFPOINTS
 62
     0
 10
589.2955725536367
 20
956.8089919339943
 30
0.0
  0
POINT
  5
3473
  8
DEFPOINTS
 62
     0
 10
629.2955725536366
 20
421.8089919339943
 30
0.0
  0
POINT
  5
3474
  8
DEFPOINTS
 62
     0
 10
652.9547180276564
 20
421.8089919339943
 30
0.0
  0
ENDBLK
  5
346B
  8
0
  0
BLOCK
  8
0
  2
*D580
 70
     1
 10
0.0
 20
0.0
 30
0.0
  3
*D580
  1

  0
LINE
  5
347B
  8
DIMENSIONS
  6
BYBLOCK
 62
     0
 10
170.7955725536369
 20
1971.808991933994
 30
0.0
 11
126.0754202329197
 21
1971.808991933994
 31
0.0
  0
LINE
  5
347C
  8
DIMENSIONS
  6
BYBLOCK
 62
     0
 10
170.7955725536366
 20
421.8089919339943
 30
0.0
 11
126.0754202329196
 21
421.8089919339943
 31
0.0
  0
LINE
  5
347D
  8
DIMENSIONS
  6
BYBLOCK
 62
     0
 10
126.2554202329197
 20
1966.808991933994
 30
0.0
 11
126.2554202329196
 21
426.8089919339943
 31
0.0
  0
SOLID
  5
347E
  8
DIMENSIONS
 62
     0
 10
127.0887535662531
 20
1966.808991933994
 30
0.0
 11
125.4220868995864
 21
1966.808991933994
 31
0.0
 12
126.2554202329197
 22
1971.808991933994
 32
0.0
 13
126.2554202329197
 23
1971.808991933994
 33
0.0
  0
SOLID
  5
347F
  8
DIMENSIONS
 62
     0
 10
125.4220868995863
 20
426.8089919339943
 30
0.0
 11
127.088753566253
 21
426.8089919339943
 31
0.0
 12
126.2554202329196
 22
421.8089919339943
 32
0.0
 13
126.2554202329196
 23
421.8089919339943
 33
0.0
  0
TEXT
  5
3480
  8
DIMENSIONS
  6
CONTINUOUS
 62
     5
 10
123.8604202329195
 20
1177.256491933994
 30
0.0
 40
5.0
  1
1550 [61.02]
 50
90.0
  0
POINT
  5
3481
  8
DEFPOINTS
 62
     0
 10
172.2955725536369
 20
1971.808991933994
 30
0.0
  0
POINT
  5
3482
  8
DEFPOINTS
 62
     0
 10
172.2955725536366
 20
421.8089919339943
 30
0.0
  0
POINT
  5
3483
  8
DEFPOINTS
 62
     0
 10
126.2554202329196
 20
421.8089919339943
 30
0.0
  0
ENDBLK
  5
347A
  8
0
  0
BLOCK
  8
0
  2
*D582
 70
     1
 10
0.0
 20
0.0
 30
0.0
  3
*D582
  1

  0
LINE
  5
34D4
  8
DIMENSIONS
  6
BYBLOCK
 62
     0
 10
187.1502601408048
 20
730.9843067533495
 30
0.0
 11
187.1502601408048
 21
771.5364845989993
 31
0.0
  0
LINE
  5
34D5
  8
DIMENSIONS
  6
BYBLOCK
 62
     0
 10
586.1502601408048
 20
730.9843067533495
 30
0.0
 11
586.1502601408048
 21
771.5364845989993
 31
0.0
  0
LINE
  5
34D6
  8
DIMENSIONS
  6
BYBLOCK
 62
     0
 10
192.1502601408048
 20
771.3564845989994
 30
0.0
 11
581.1502601408048
 21
771.3564845989994
 31
0.0
  0
SOLID
  5
34D7
  8
DIMENSIONS
 62
     0
 10
192.1502601408048
 20
772.1898179323327
 30
0.0
 11
192.1502601408048
 21
770.523151265666
 31
0.0
 12
187.1502601408048
 22
771.3564845989994
 32
0.0
 13
187.1502601408048
 23
771.3564845989994
 33
0.0
  0
SOLID
  5
34D8
  8
DIMENSIONS
 62
     0
 10
581.1502601408048
 20
770.523151265666
 30
0.0
 11
581.1502601408048
 21
772.1898179323327
 31
0.0
 12
586.1502601408048
 22
771.3564845989994
 32
0.0
 13
586.1502601408048
 23
771.3564845989994
 33
0.0
  0
TEXT
  5
34D9
  8
DIMENSIONS
  6
CONTINUOUS
 62
     5
 10
369.2702601408048
 20
773.7514845989994
 30
0.0
 40
5.0
  1
399 [15.71]
  0
POINT
  5
34DA
  8
DEFPOINTS
 62
     0
 10
187.1502601408048
 20
729.4843067533495
 30
0.0
  0
POINT
  5
34DB
  8
DEFPOINTS
 62
     0
 10
586.1502601408048
 20
729.4843067533495
 30
0.0
  0
POINT
  5
34DC
  8
DEFPOINTS
 62
     0
 10
586.1502601408048
 20
771.3564845989994
 30
0.0
  0
ENDBLK
  5
34D3
  8
0
  0
BLOCK
  8
0
  2
*D583
 70
     1
 10
0.0
 20
0.0
 30
0.0
  3
*D583
  1

  0
LINE
  5
34E3
  8
DIMENSIONS
  6
BYBLOCK
 62
     0
 10
601.6502601408049
 20
757.9843067533498
 30
0.0
 11
601.6502601408049
 21
786.4598131051617
 31
0.0
  0
LINE
  5
34E4
  8
DIMENSIONS
  6
BYBLOCK
 62
     0
 10
171.6502601408048
 20
757.9843067533498
 30
0.0
 11
171.6502601408048
 21
786.4598131051617
 31
0.0
  0
LINE
  5
34E5
  8
DIMENSIONS
  6
BYBLOCK
 62
     0
 10
596.6502601408049
 20
786.2798131051618
 30
0.0
 11
176.6502601408048
 21
786.2798131051618
 31
0.0
  0
SOLID
  5
34E6
  8
DIMENSIONS
 62
     0
 10
596.6502601408049
 20
785.4464797718284
 30
0.0
 11
596.6502601408049
 21
787.1131464384952
 31
0.0
 12
601.6502601408049
 22
786.2798131051618
 32
0.0
 13
601.6502601408049
 23
786.2798131051618
 33
0.0
  0
SOLID
  5
34E7
  8
DIMENSIONS
 62
     0
 10
176.6502601408048
 20
787.1131464384952
 30
0.0
 11
176.6502601408048
 21
785.4464797718284
 31
0.0
 12
171.6502601408048
 22
786.2798131051618
 32
0.0
 13
171.6502601408048
 23
786.2798131051618
 33
0.0
  0
TEXT
  5
34E8
  8
DIMENSIONS
  6
CONTINUOUS
 62
     5
 10
369.3727601408049
 20
788.6748131051618
 30
0.0
 40
5.0
  1
430 [16.93]
  0
POINT
  5
34E9
  8
DEFPOINTS
 62
     0
 10
601.6502601408049
 20
756.4843067533498
 30
0.0
  0
POINT
  5
34EA
  8
DEFPOINTS
 62
     0
 10
171.6502601408048
 20
756.4843067533498
 30
0.0
  0
POINT
  5
34EB
  8
DEFPOINTS
 62
     0
 10
171.6502601408048
 20
786.2798131051618
 30
0.0
  0
ENDBLK
  5
34E2
  8
0
  0
BLOCK
  8
0
  2
*D584
 70
     1
 10
0.0
 20
0.0
 30
0.0
  3
*D584
  1

  0
LINE
  5
34F2
  8
DIMENSIONS
  6
BYBLOCK
 62
     0
 10
185.6502601408048
 20
729.4843067533495
 30
0.0
 11
156.2444818552935
 21
729.4843067533495
 31
0.0
  0
LINE
  5
34F3
  8
DIMENSIONS
  6
BYBLOCK
 62
     0
 10
185.6502601408048
 20
453.4843067533496
 30
0.0
 11
156.2444818552934
 21
453.4843067533496
 31
0.0
  0
LINE
  5
34F4
  8
DIMENSIONS
  6
BYBLOCK
 62
     0
 10
156.4244818552935
 20
724.4843067533495
 30
0.0
 11
156.4244818552934
 21
458.4843067533496
 31
0.0
  0
SOLID
  5
34F5
  8
DIMENSIONS
 62
     0
 10
157.2578151886268
 20
724.4843067533495
 30
0.0
 11
155.5911485219601
 21
724.4843067533495
 31
0.0
 12
156.4244818552935
 22
729.4843067533495
 32
0.0
 13
156.4244818552935
 23
729.4843067533495
 33
0.0
  0
SOLID
  5
34F6
  8
DIMENSIONS
 62
     0
 10
155.5911485219601
 20
458.4843067533496
 30
0.0
 11
157.2578151886268
 21
458.4843067533496
 31
0.0
 12
156.4244818552934
 22
453.4843067533496
 32
0.0
 13
156.4244818552934
 23
453.4843067533496
 33
0.0
  0
TEXT
  5
34F7
  8
DIMENSIONS
  6
CONTINUOUS
 62
     5
 10
154.0294818552935
 20
574.1493067533495
 30
0.0
 40
5.0
  1
276 [10.87]
 50
90.0
  0
POINT
  5
34F8
  8
DEFPOINTS
 62
     0
 10
187.1502601408048
 20
729.4843067533495
 30
0.0
  0
POINT
  5
34F9
  8
DEFPOINTS
 62
     0
 10
187.1502601408048
 20
453.4843067533496
 30
0.0
  0
POINT
  5
34FA
  8
DEFPOINTS
 62
     0
 10
156.4244818552934
 20
453.4843067533496
 30
0.0
  0
ENDBLK
  5
34F1
  8
0
  0
BLOCK
  8
0
  2
*D585
 70
     1
 10
0.0
 20
0.0
 30
0.0
  3
*D585
  1

  0
LINE
  5
3501
  8
DIMENSIONS
  6
BYBLOCK
 62
     0
 10
170.1502601408048
 20
756.4843067533498
 30
0.0
 11
139.2474530223468
 21
756.4843067533498
 31
0.0
  0
LINE
  5
3502
  8
DIMENSIONS
  6
BYBLOCK
 62
     0
 10
170.1502601408048
 20
426.4843067533496
 30
0.0
 11
139.2474530223467
 21
426.4843067533496
 31
0.0
  0
LINE
  5
3503
  8
DIMENSIONS
  6
BYBLOCK
 62
     0
 10
139.4274530223468
 20
751.4843067533498
 30
0.0
 11
139.4274530223468
 21
431.4843067533496
 31
0.0
  0
SOLID
  5
3504
  8
DIMENSIONS
 62
     0
 10
140.2607863556801
 20
751.4843067533498
 30
0.0
 11
138.5941196890134
 21
751.4843067533498
 31
0.0
 12
139.4274530223468
 22
756.4843067533498
 32
0.0
 13
139.4274530223468
 23
756.4843067533498
 33
0.0
  0
SOLID
  5
3505
  8
DIMENSIONS
 62
     0
 10
138.5941196890134
 20
431.4843067533496
 30
0.0
 11
140.2607863556801
 21
431.4843067533496
 31
0.0
 12
139.4274530223468
 22
426.4843067533496
 32
0.0
 13
139.4274530223468
 23
426.4843067533496
 33
0.0
  0
TEXT
  5
3506
  8
DIMENSIONS
  6
CONTINUOUS
 62
     5
 10
137.0324530223468
 20
574.1043067533498
 30
0.0
 40
5.0
  1
330 [12.99]
 50
90.0
  0
POINT
  5
3507
  8
DEFPOINTS
 62
     0
 10
171.6502601408048
 20
756.4843067533498
 30
0.0
  0
POINT
  5
3508
  8
DEFPOINTS
 62
     0
 10
171.6502601408048
 20
426.4843067533496
 30
0.0
  0
POINT
  5
3509
  8
DEFPOINTS
 62
     0
 10
139.4274530223468
 20
426.4843067533496
 30
0.0
  0
ENDBLK
  5
3500
  8
0
  0
BLOCK
  8
0
  2
*D586
 70
     1
 10
0.0
 20
0.0
 30
0.0
  3
*D586
  1

  0
LINE
  5
3510
  8
DIMENSIONS
  6
BYBLOCK
 62
     0
 10
603.1502601408049
 20
756.4843067533498
 30
0.0
 11
622.9595175331206
 21
756.4843067533498
 31
0.0
  0
LINE
  5
3511
  8
DIMENSIONS
  6
BYBLOCK
 62
     0
 10
580.1502601408049
 20
591.4843067533495
 30
0.0
 11
622.9595175331206
 21
591.4843067533495
 31
0.0
  0
LINE
  5
3512
  8
DIMENSIONS
  6
BYBLOCK
 62
     0
 10
622.7795175331206
 20
751.4843067533498
 30
0.0
 11
622.7795175331206
 21
596.4843067533495
 31
0.0
  0
SOLID
  5
3513
  8
DIMENSIONS
 62
     0
 10
623.612850866454
 20
751.4843067533498
 30
0.0
 11
621.9461841997872
 21
751.4843067533498
 31
0.0
 12
622.7795175331206
 22
756.4843067533498
 32
0.0
 13
622.7795175331206
 23
756.4843067533498
 33
0.0
  0
SOLID
  5
3514
  8
DIMENSIONS
 62
     0
 10
621.9461841997872
 20
596.4843067533495
 30
0.0
 11
623.612850866454
 21
596.4843067533495
 31
0.0
 12
622.7795175331206
 22
591.4843067533495
 32
0.0
 13
622.7795175331206
 23
591.4843067533495
 33
0.0
  0
TEXT
  5
3515
  8
DIMENSIONS
  6
CONTINUOUS
 62
     5
 10
620.3845175331205
 20
658.3118067533496
 30
0.0
 40
5.0
  1
165 [6.50]
 50
90.0
  0
POINT
  5
3516
  8
DEFPOINTS
 62
     0
 10
601.6502601408049
 20
756.4843067533498
 30
0.0
  0
POINT
  5
3517
  8
DEFPOINTS
 62
     0
 10
578.6502601408049
 20
591.4843067533495
 30
0.0
  0
POINT
  5
3518
  8
DEFPOINTS
 62
     0
 10
622.7795175331206
 20
591.4843067533495
 30
0.0
  0
ENDBLK
  5
350F
  8
0
  0
BLOCK
  8
0
  2
*D587
 70
     1
 10
0.0
 20
0.0
 30
0.0
  3
*D587
  1

  0
LINE
  5
351F
  8
DIMENSIONS
  6
BYBLOCK
 62
     0
 10
580.1502601408049
 20
591.4843067533495
 30
0.0
 11
622.9595175331206
 21
591.4843067533495
 31
0.0
  0
LINE
  5
3520
  8
DIMENSIONS
  6
BYBLOCK
 62
     0
 10
580.1502601408049
 20
449.4843067533497
 30
0.0
 11
622.9595175331206
 21
449.4843067533497
 31
0.0
  0
LINE
  5
3521
  8
DIMENSIONS
  6
BYBLOCK
 62
     0
 10
622.7795175331206
 20
586.4843067533495
 30
0.0
 11
622.7795175331206
 21
454.4843067533497
 31
0.0
  0
SOLID
  5
3522
  8
DIMENSIONS
 62
     0
 10
623.612850866454
 20
586.4843067533495
 30
0.0
 11
621.9461841997872
 21
586.4843067533495
 31
0.0
 12
622.7795175331206
 22
591.4843067533495
 32
0.0
 13
622.7795175331206
 23
591.4843067533495
 33
0.0
  0
SOLID
  5
3523
  8
DIMENSIONS
 62
     0
 10
621.9461841997872
 20
454.4843067533497
 30
0.0
 11
623.612850866454
 21
454.4843067533497
 31
0.0
 12
622.7795175331206
 22
449.4843067533497
 32
0.0
 13
622.7795175331206
 23
449.4843067533497
 33
0.0
  0
TEXT
  5
3524
  8
DIMENSIONS
  6
CONTINUOUS
 62
     5
 10
620.3845175331205
 20
504.8118067533496
 30
0.0
 40
5.0
  1
142 [5.59]
 50
90.0
  0
POINT
  5
3525
  8
DEFPOINTS
 62
     0
 10
578.6502601408049
 20
591.4843067533495
 30
0.0
  0
POINT
  5
3526
  8
DEFPOINTS
 62
     0
 10
578.6502601408049
 20
449.4843067533497
 30
0.0
  0
POINT
  5
3527
  8
DEFPOINTS
 62
     0
 10
622.7795175331206
 20
449.4843067533497
 30
0.0
  0
ENDBLK
  5
351E
  8
0
  0
BLOCK
  8
0
  2
*D588
 70
     1
 10
0.0
 20
0.0
 30
0.0
  3
*D588
  1

  0
LINE
  5
352E
  8
DIMENSIONS
  6
BYBLOCK
 62
     0
 10
580.1502601408049
 20
449.4843067533497
 30
0.0
 11
643.6241285133719
 21
449.4843067533497
 31
0.0
  0
LINE
  5
352F
  8
DIMENSIONS
  6
BYBLOCK
 62
     0
 10
603.1502601408049
 20
426.4843067533496
 30
0.0
 11
643.6241285133719
 21
426.4843067533496
 31
0.0
  0
LINE
  5
3530
  8
DIMENSIONS
  6
BYBLOCK
 62
     0
 10
643.444128513372
 20
449.4843067533497
 30
0.0
 11
643.444128513372
 21
482.9843067533497
 31
0.0
  0
LINE
  5
3531
  8
DIMENSIONS
  6
BYBLOCK
 62
     0
 10
643.444128513372
 20
444.4843067533497
 30
0.0
 11
643.444128513372
 21
431.4843067533496
 31
0.0
  0
SOLID
  5
3532
  8
DIMENSIONS
 62
     0
 10
644.2774618467054
 20
444.4843067533497
 30
0.0
 11
642.6107951800386
 21
444.4843067533497
 31
0.0
 12
643.444128513372
 22
449.4843067533497
 32
0.0
 13
643.444128513372
 23
449.4843067533497
 33
0.0
  0
SOLID
  5
3533
  8
DIMENSIONS
 62
     0
 10
642.6107951800386
 20
431.4843067533496
 30
0.0
 11
644.2774618467054
 21
431.4843067533496
 31
0.0
 12
643.444128513372
 22
426.4843067533496
 32
0.0
 13
643.444128513372
 23
426.4843067533496
 33
0.0
  0
TEXT
  5
3534
  8
DIMENSIONS
  6
CONTINUOUS
 62
     5
 10
641.0491285133721
 20
455.2793067533497
 30
0.0
 40
5.0
  1
23 [0.91]
 50
90.0
  0
POINT
  5
3535
  8
DEFPOINTS
 62
     0
 10
578.6502601408049
 20
449.4843067533497
 30
0.0
  0
POINT
  5
3536
  8
DEFPOINTS
 62
     0
 10
601.6502601408049
 20
426.4843067533496
 30
0.0
  0
POINT
  5
3591
  8
DEFPOINTS
 62
     0
 10
643.444128513372
 20
426.4843067533496
 30
0.0
  0
ENDBLK
  5
352D
  8
0
  0
BLOCK
  8
0
  2
*D589
 70
     1
 10
0.0
 20
0.0
 30
0.0
  3
*D589
  1

  0
LINE
  5
353D
  8
DIMENSIONS
  6
BYBLOCK
 62
     0
 10
171.6502601408048
 20
592.9843067533498
 30
0.0
 11
171.6502601408048
 21
627.8214319074308
 31
0.0
  0
LINE
  5
353E
  8
DIMENSIONS
  6
BYBLOCK
 62
     0
 10
194.150260140805
 20
592.9843067533495
 30
0.0
 11
194.150260140805
 21
627.8214319074308
 31
0.0
  0
LINE
  5
353F
  8
DIMENSIONS
  6
BYBLOCK
 62
     0
 10
194.150260140805
 20
627.6414319074308
 30
0.0
 11
233.470260140805
 21
627.6414319074308
 31
0.0
  0
LINE
  5
3540
  8
DIMENSIONS
  6
BYBLOCK
 62
     0
 10
176.6502601408048
 20
627.6414319074308
 30
0.0
 11
189.150260140805
 21
627.6414319074308
 31
0.0
  0
SOLID
  5
3541
  8
DIMENSIONS
 62
     0
 10
176.6502601408048
 20
628.4747652407642
 30
0.0
 11
176.6502601408048
 21
626.8080985740975
 31
0.0
 12
171.6502601408048
 22
627.6414319074308
 32
0.0
 13
171.6502601408048
 23
627.6414319074308
 33
0.0
  0
SOLID
  5
3542
  8
DIMENSIONS
 62
     0
 10
189.150260140805
 20
626.8080985740975
 30
0.0
 11
189.150260140805
 21
628.4747652407642
 31
0.0
 12
194.150260140805
 22
627.6414319074308
 32
0.0
 13
194.150260140805
 23
627.6414319074308
 33
0.0
  0
TEXT
  5
3543
  8
DIMENSIONS
  6
CONTINUOUS
 62
     5
 10
199.9452601408049
 20
630.0364319074308
 30
0.0
 40
5.0
  1
22.5 [0.89]
  0
POINT
  5
3544
  8
DEFPOINTS
 62
     0
 10
171.6502601408048
 20
591.4843067533498
 30
0.0
  0
POINT
  5
3545
  8
DEFPOINTS
 62
     0
 10
194.150260140805
 20
591.4843067533495
 30
0.0
  0
POINT
  5
3592
  8
DEFPOINTS
 62
     0
 10
194.150260140805
 20
627.6414319074308
 30
0.0
  0
ENDBLK
  5
353C
  8
0
  0
BLOCK
  8
0
  2
*D590
 70
     1
 10
0.0
 20
0.0
 30
0.0
  3
*D590
  1

  0
LINE
  5
354C
  8
DIMENSIONS
  6
BYBLOCK
 62
     0
 10
194.150260140805
 20
592.9843067533495
 30
0.0
 11
194.150260140805
 21
612.9327939266832
 31
0.0
  0
LINE
  5
354D
  8
DIMENSIONS
  6
BYBLOCK
 62
     0
 10
292.150260140805
 20
592.9843067533495
 30
0.0
 11
292.150260140805
 21
612.9327939266832
 31
0.0
  0
LINE
  5
354E
  8
DIMENSIONS
  6
BYBLOCK
 62
     0
 10
199.150260140805
 20
612.7527939266832
 30
0.0
 11
287.150260140805
 21
612.7527939266832
 31
0.0
  0
SOLID
  5
354F
  8
DIMENSIONS
 62
     0
 10
199.150260140805
 20
613.5861272600166
 30
0.0
 11
199.150260140805
 21
611.9194605933499
 31
0.0
 12
194.150260140805
 22
612.7527939266832
 32
0.0
 13
194.150260140805
 23
612.7527939266832
 33
0.0
  0
SOLID
  5
3550
  8
DIMENSIONS
 62
     0
 10
287.150260140805
 20
611.9194605933499
 30
0.0
 11
287.150260140805
 21
613.5861272600166
 31
0.0
 12
292.150260140805
 22
612.7527939266832
 32
0.0
 13
292.150260140805
 23
612.7527939266832
 33
0.0
  0
TEXT
  5
3551
  8
DIMENSIONS
  6
CONTINUOUS
 62
     5
 10
229.652760140805
 20
615.1477939266832
 30
0.0
 40
5.0
  1
98 [3.86]
  0
POINT
  5
3552
  8
DEFPOINTS
 62
     0
 10
194.150260140805
 20
591.4843067533495
 30
0.0
  0
POINT
  5
3553
  8
DEFPOINTS
 62
     0
 10
292.150260140805
 20
591.4843067533495
 30
0.0
  0
POINT
  5
3554
  8
DEFPOINTS
 62
     0
 10
292.150260140805
 20
612.7527939266832
 30
0.0
  0
ENDBLK
  5
354B
  8
0
  0
BLOCK
  8
0
  2
*D591
 70
     1
 10
0.0
 20
0.0
 30
0.0
  3
*D591
  1

  0
LINE
  5
355B
  8
DIMENSIONS
  6
BYBLOCK
 62
     0
 10
292.150260140805
 20
592.9843067533495
 30
0.0
 11
292.150260140805
 21
612.9327939266832
 31
0.0
  0
LINE
  5
355C
  8
DIMENSIONS
  6
BYBLOCK
 62
     0
 10
431.150260140805
 20
592.9843067533498
 30
0.0
 11
431.150260140805
 21
612.9327939266832
 31
0.0
  0
LINE
  5
355D
  8
DIMENSIONS
  6
BYBLOCK
 62
     0
 10
297.150260140805
 20
612.7527939266832
 30
0.0
 11
426.150260140805
 21
612.7527939266832
 31
0.0
  0
SOLID
  5
355E
  8
DIMENSIONS
 62
     0
 10
297.150260140805
 20
613.5861272600166
 30
0.0
 11
297.150260140805
 21
611.9194605933499
 31
0.0
 12
292.150260140805
 22
612.7527939266832
 32
0.0
 13
292.150260140805
 23
612.7527939266832
 33
0.0
  0
SOLID
  5
355F
  8
DIMENSIONS
 62
     0
 10
426.150260140805
 20
611.9194605933499
 30
0.0
 11
426.150260140805
 21
613.5861272600166
 31
0.0
 12
431.150260140805
 22
612.7527939266832
 32
0.0
 13
431.150260140805
 23
612.7527939266832
 33
0.0
  0
TEXT
  5
3560
  8
DIMENSIONS
  6
CONTINUOUS
 62
     5
 10
345.977760140805
 20
615.1477939266832
 30
0.0
 40
5.0
  1
139 [5.47]
  0
POINT
  5
3561
  8
DEFPOINTS
 62
     0
 10
292.150260140805
 20
591.4843067533495
 30
0.0
  0
POINT
  5
3562
  8
DEFPOINTS
 62
     0
 10
431.150260140805
 20
591.4843067533498
 30
0.0
  0
POINT
  5
3563
  8
DEFPOINTS
 62
     0
 10
431.150260140805
 20
612.7527939266832
 30
0.0
  0
ENDBLK
  5
355A
  8
0
  0
BLOCK
  8
0
  2
*D592
 70
     1
 10
0.0
 20
0.0
 30
0.0
  3
*D592
  1

  0
LINE
  5
356A
  8
DIMENSIONS
  6
BYBLOCK
 62
     0
 10
431.150260140805
 20
592.9843067533498
 30
0.0
 11
431.150260140805
 21
612.9327939266832
 31
0.0
  0
LINE
  5
356B
  8
DIMENSIONS
  6
BYBLOCK
 62
     0
 10
578.6502601408049
 20
592.9843067533495
 30
0.0
 11
578.6502601408049
 21
612.9327939266832
 31
0.0
  0
LINE
  5
356C
  8
DIMENSIONS
  6
BYBLOCK
 62
     0
 10
436.150260140805
 20
612.7527939266832
 30
0.0
 11
573.6502601408049
 21
612.7527939266832
 31
0.0
  0
SOLID
  5
356D
  8
DIMENSIONS
 62
     0
 10
436.150260140805
 20
613.5861272600166
 30
0.0
 11
436.150260140805
 21
611.9194605933499
 31
0.0
 12
431.150260140805
 22
612.7527939266832
 32
0.0
 13
431.150260140805
 23
612.7527939266832
 33
0.0
  0
SOLID
  5
356E
  8
DIMENSIONS
 62
     0
 10
573.6502601408049
 20
611.9194605933499
 30
0.0
 11
573.6502601408049
 21
613.5861272600166
 31
0.0
 12
578.6502601408049
 22
612.7527939266832
 32
0.0
 13
578.6502601408049
 23
612.7527939266832
 33
0.0
  0
TEXT
  5
356F
  8
DIMENSIONS
  6
CONTINUOUS
 62
     5
 10
486.3177601408049
 20
615.1477939266832
 30
0.0
 40
5.0
  1
147.5 [5.81]
  0
POINT
  5
3570
  8
DEFPOINTS
 62
     0
 10
431.150260140805
 20
591.4843067533498
 30
0.0
  0
POINT
  5
3571
  8
DEFPOINTS
 62
     0
 10
578.6502601408049
 20
591.4843067533495
 30
0.0
  0
POINT
  5
3572
  8
DEFPOINTS
 62
     0
 10
578.6502601408049
 20
612.7527939266832
 30
0.0
  0
ENDBLK
  5
3569
  8
0
  0
BLOCK
  8
0
  2
*D593
 70
     1
 10
0.0
 20
0.0
 30
0.0
  3
*D593
  1

  0
LINE
  5
3579
  8
DIMENSIONS
  6
BYBLOCK
 62
     0
 10
578.6502601408049
 20
592.9843067533495
 30
0.0
 11
578.6502601408049
 21
627.1910828271656
 31
0.0
  0
LINE
  5
357A
  8
DIMENSIONS
  6
BYBLOCK
 62
     0
 10
601.6502601408049
 20
592.9843067533498
 30
0.0
 11
601.6502601408049
 21
627.1910828271656
 31
0.0
  0
LINE
  5
357B
  8
DIMENSIONS
  6
BYBLOCK
 62
     0
 10
578.6502601408049
 20
627.0110828271656
 30
0.0
 11
543.9355996122149
 21
627.0110828271656
 31
0.0
  0
LINE
  5
357C
  8
DIMENSIONS
  6
BYBLOCK
 62
     0
 10
583.6502601408049
 20
627.0110828271656
 30
0.0
 11
596.6502601408049
 21
627.0110828271656
 31
0.0
  0
SOLID
  5
357D
  8
DIMENSIONS
 62
     0
 10
583.6502601408049
 20
627.844416160499
 30
0.0
 11
583.6502601408049
 21
626.1777494938323
 31
0.0
 12
578.6502601408049
 22
627.0110828271656
 32
0.0
 13
578.6502601408049
 23
627.0110828271656
 33
0.0
  0
SOLID
  5
357E
  8
DIMENSIONS
 62
     0
 10
596.6502601408049
 20
626.1777494938323
 30
0.0
 11
596.6502601408049
 21
627.844416160499
 31
0.0
 12
601.6502601408049
 22
627.0110828271656
 32
0.0
 13
601.6502601408049
 23
627.0110828271656
 33
0.0
  0
TEXT
  5
357F
  8
DIMENSIONS
  6
CONTINUOUS
 62
     5
 10
544.7305996122149
 20
629.4060828271656
 30
0.0
 40
5.0
  1
23 [0.91]
  0
POINT
  5
3580
  8
DEFPOINTS
 62
     0
 10
578.6502601408049
 20
591.4843067533495
 30
0.0
  0
POINT
  5
3581
  8
DEFPOINTS
 62
     0
 10
601.6502601408049
 20
591.4843067533498
 30
0.0
  0
POINT
  5
3593
  8
DEFPOINTS
 62
     0
 10
601.6502601408049
 20
627.0110828271656
 30
0.0
  0
ENDBLK
  5
3578
  8
0
  0
BLOCK
  8
0
  2
*D594
 70
     1
 10
0.0
 20
0.0
 30
0.0
  3
*D594
  1

  0
LINE
  5
3588
  8
DIMENSIONS
  6
BYBLOCK
 62
     0
 10
577.6502620062893
 20
729.478675303057
 30
0.0
 11
537.2452708739246
 21
729.4519060384612
 31
0.0
  0
TEXT
  5
3589
  8
DIMENSIONS
  6
CONTINUOUS
 62
     5
 10
537.9636309700868
 20
731.9273825122419
 30
0.0
 40
5.0
  1
Ø7 [Ø0.28]
 50
0.0379598068115164
  0
SOLID
  5
358A
  8
DIMENSIONS
 62
     0
 10
577.6508141092592
 20
728.6453421526143
 30
0.0
 11
577.6497099033194
 21
730.3120084534997
 31
0.0
 12
582.6502609089455
 22
729.4819879208761
 32
0.0
 13
582.6502609089455
 23
729.4819879208761
 33
0.0
  0
LINE
  5
358B
  8
DIMENSIONS
  6
BYBLOCK
 62
     0
 10
583.6502601408048
 20
729.4843067533495
 30
0.0
 11
588.6502601408048
 21
729.4843067533495
 31
0.0
  0
LINE
  5
358C
  8
DIMENSIONS
  6
BYBLOCK
 62
     0
 10
586.1502601408048
 20
726.9843067533495
 30
0.0
 11
586.1502601408048
 21
731.9843067533495
 31
0.0
  0
POINT
  5
358D
  8
DEFPOINTS
 62
     0
 10
582.6502609089455
 20
729.4819879208761
 30
0.0
  0
POINT
  5
358E
  8
DEFPOINTS
 62
     0
 10
589.6502593726641
 20
729.4866255858228
 30
0.0
  0
ENDBLK
  5
3587
  8
0
  0
BLOCK
  8
0
  2
*X596
 70
     1
 10
0.0
 20
0.0
 30
0.0
  3
*X596
  1

  0
LINE
  5
3632
  8
CUTOUT
  6
CENTER
 10
35.0
 20
344.3592167691146
 30
0.0
 11
72.14078323088552
 21
381.5000000000001
 31
0.0
  0
LINE
  5
3633
  8
CUTOUT
  6
CENTER
 10
35.0
 20
300.1650429449554
 30
0.0
 11
116.3349570550448
 21
381.5000000000002
 31
0.0
  0
LINE
  5
3634
  8
CUTOUT
  6
CENTER
 10
52.52913087920393
 20
273.5000000000001
 30
0.0
 11
160.529130879204
 21
381.5000000000002
 31
0.0
  0
LINE
  5
3635
  8
CUTOUT
  6
CENTER
 10
96.72330470336311
 20
273.5000000000001
 30
0.0
 11
204.7233047033632
 21
381.5000000000002
 31
0.0
  0
LINE
  5
3636
  8
CUTOUT
  6
CENTER
 10
140.9174785275223
 20
273.5000000000001
 30
0.0
 11
248.9174785275225
 21
381.5000000000002
 31
0.0
  0
LINE
  5
3637
  8
CUTOUT
  6
CENTER
 10
35.0
 20
123.3883476483185
 30
0.0
 11
38.11165235168164
 21
126.5000000000001
 31
0.0
  0
LINE
  5
3638
  8
CUTOUT
  6
CENTER
 10
185.1116523516816
 20
273.5000000000001
 30
0.0
 11
290.0
 21
378.3883476483185
 31
0.0
  0
LINE
  5
3639
  8
CUTOUT
  6
CENTER
 10
35.0
 20
79.19417382415926
 30
0.0
 11
82.30582617584088
 21
126.5000000000001
 31
0.0
  0
LINE
  5
363A
  8
CUTOUT
  6
CENTER
 10
35.0
 20
35.00000000000003
 30
0.0
 11
126.5000000000001
 21
126.5000000000001
 31
0.0
  0
LINE
  5
363B
  8
CUTOUT
  6
CENTER
 10
229.3058261758408
 20
273.5000000000001
 30
0.0
 11
337.3058261758409
 21
381.5000000000002
 31
0.0
  0
LINE
  5
363C
  8
CUTOUT
  6
CENTER
 10
273.5
 20
273.5000000000001
 30
0.0
 11
381.5000000000001
 21
381.5000000000002
 31
0.0
  0
LINE
  5
363D
  8
CUTOUT
  6
CENTER
 10
62.69417382415918
 20
18.49999999999997
 30
0.0
 11
170.6941738241593
 21
126.5000000000001
 31
0.0
  0
LINE
  5
363E
  8
CUTOUT
  6
CENTER
 10
106.8883476483184
 20
18.5
 30
0.0
 11
214.8883476483186
 21
126.5000000000002
 31
0.0
  0
LINE
  5
363F
  8
CUTOUT
  6
CENTER
 10
151.0825214724777
 20
18.5
 30
0.0
 11
259.0825214724778
 21
126.5000000000001
 31
0.0
  0
LINE
  5
3640
  8
CUTOUT
  6
CENTER
 10
195.2766952966368
 20
18.49999999999997
 30
0.0
 11
303.2766952966369
 21
126.5000000000001
 31
0.0
  0
LINE
  5
3641
  8
CUTOUT
  6
CENTER
 10
317.6941738241592
 20
273.5000000000001
 30
0.0
 11
425.6941738241593
 21
381.5000000000002
 31
0.0
  0
LINE
  5
3642
  8
CUTOUT
  6
CENTER
 10
361.8883476483185
 20
273.5000000000001
 30
0.0
 11
469.8883476483185
 21
381.5000000000002
 31
0.0
  0
LINE
  5
3643
  8
CUTOUT
  6
CENTER
 10
406.0825214724777
 20
273.5000000000001
 30
0.0
 11
514.0825214724778
 21
381.5000000000002
 31
0.0
  0
LINE
  5
3644
  8
CUTOUT
  6
CENTER
 10
450.2766952966368
 20
273.5000000000001
 30
0.0
 11
558.276695296637
 21
381.5000000000002
 31
0.0
  0
LINE
  5
3645
  8
CUTOUT
  6
CENTER
 10
239.4708691207961
 20
18.5
 30
0.0
 11
347.4708691207962
 21
126.5000000000001
 31
0.0
  0
LINE
  5
3646
  8
CUTOUT
  6
CENTER
 10
494.4708691207961
 20
273.5000000000001
 30
0.0
 11
565.0
 21
344.029130879204
 31
0.0
  0
LINE
  5
3647
  8
CUTOUT
  6
CENTER
 10
283.6650429449553
 20
18.50000000000003
 30
0.0
 11
290.0
 21
24.83495705504473
 31
0.0
  0
LINE
  5
3648
  8
CUTOUT
  6
CENTER
 10
290.1650429449553
 20
25.00000000000003
 30
0.0
 11
391.6650429449554
 21
126.5000000000001
 31
0.0
  0
LINE
  5
3649
  8
CUTOUT
  6
CENTER
 10
538.6650429449553
 20
273.5000000000001
 30
0.0
 11
565.0
 21
299.8349570550448
 31
0.0
  0
LINE
  5
364A
  8
CUTOUT
  6
CENTER
 10
327.8592167691145
 20
18.5
 30
0.0
 11
435.8592167691146
 21
126.5000000000001
 31
0.0
  0
LINE
  5
364B
  8
CUTOUT
  6
CENTER
 10
372.0533905932737
 20
18.50000000000003
 30
0.0
 11
480.0533905932738
 21
126.5000000000001
 31
0.0
  0
LINE
  5
364C
  8
CUTOUT
  6
CENTER
 10
416.247564417433
 20
18.5
 30
0.0
 11
524.2475644174331
 21
126.5000000000001
 31
0.0
  0
LINE
  5
364D
  8
CUTOUT
  6
CENTER
 10
460.4417382415921
 20
18.50000000000003
 30
0.0
 11
565.0
 21
123.0582617584079
 31
0.0
  0
LINE
  5
364E
  8
CUTOUT
  6
CENTER
 10
504.6359120657513
 20
18.5
 30
0.0
 11
565.0
 21
78.86408793424867
 31
0.0
  0
LINE
  5
364F
  8
CUTOUT
  6
CENTER
 10
548.8300858899106
 20
18.5
 30
0.0
 11
565.0
 21
34.66991411008942
 31
0.0
  0
ENDBLK
  5
3650
  8
0
  0
BLOCK
  8
0
  2
*D597
 70
     1
 10
0.0
 20
0.0
 30
0.0
  3
*D597
  1

  0
LINE
  5
3672
  8
DIMENSIONS
  6
BYBLOCK
 62
     0
 10
481.9364269070526
 20
812.712703264317
 30
0.0
 11
481.9364269070526
 21
846.4575134116445
 31
0.0
  0
LINE
  5
3673
  8
DIMENSIONS
  6
BYBLOCK
 62
     0
 10
461.9364269070526
 20
812.712703264317
 30
0.0
 11
461.9364269070526
 21
846.4575134116445
 31
0.0
  0
LINE
  5
3674
  8
DIMENSIONS
  6
BYBLOCK
 62
     0
 10
476.9364269070526
 20
846.2775134116446
 30
0.0
 11
466.9364269070526
 21
846.2775134116446
 31
0.0
  0
SOLID
  5
3675
  8
DIMENSIONS
 62
     0
 10
476.9364269070526
 20
845.4441800783112
 30
0.0
 11
476.9364269070526
 21
847.110846744978
 31
0.0
 12
481.9364269070526
 22
846.2775134116446
 32
0.0
 13
481.9364269070526
 23
846.2775134116446
 33
0.0
  0
SOLID
  5
3676
  8
DIMENSIONS
 62
     0
 10
466.9364269070526
 20
847.110846744978
 30
0.0
 11
466.9364269070526
 21
845.4441800783112
 31
0.0
 12
461.9364269070526
 22
846.2775134116446
 32
0.0
 13
461.9364269070526
 23
846.2775134116446
 33
0.0
  0
TEXT
  5
3677
  8
DIMENSIONS
  6
CONTINUOUS
 62
     5
 10
458.4814269070527
 20
849.3525134116445
 30
0.0
 40
5.0
  1
20 [0.79]
  0
POINT
  5
3678
  8
DEFPOINTS
 62
     0
 10
481.9364269070526
 20
811.212703264317
 30
0.0
  0
POINT
  5
3679
  8
DEFPOINTS
 62
     0
 10
461.9364269070526
 20
811.212703264317
 30
0.0
  0
POINT
  5
367A
  8
DEFPOINTS
 62
     0
 10
461.9364269070526
 20
846.2775134116446
 30
0.0
  0
ENDBLK
  5
3671
  8
0
  0
BLOCK
  8
0
  2
*D598
 70
     1
 10
0.0
 20
0.0
 30
0.0
  3
*D598
  1

  0
LINE
  5
3681
  8
DIMENSIONS
  6
BYBLOCK
 62
     0
 10
736.9364269070527
 20
812.712703264317
 30
0.0
 11
736.9364269070527
 21
865.5347456653507
 31
0.0
  0
LINE
  5
3682
  8
DIMENSIONS
  6
BYBLOCK
 62
     0
 10
206.9364269070526
 20
812.712703264317
 30
0.0
 11
206.9364269070526
 21
865.5347456653507
 31
0.0
  0
LINE
  5
3683
  8
DIMENSIONS
  6
BYBLOCK
 62
     0
 10
731.9364269070527
 20
865.3547456653507
 30
0.0
 11
211.9364269070526
 21
865.3547456653507
 31
0.0
  0
SOLID
  5
3684
  8
DIMENSIONS
 62
     0
 10
731.9364269070527
 20
864.5214123320173
 30
0.0
 11
731.9364269070527
 21
866.1880789986841
 31
0.0
 12
736.9364269070527
 22
865.3547456653507
 32
0.0
 13
736.9364269070527
 23
865.3547456653507
 33
0.0
  0
SOLID
  5
3685
  8
DIMENSIONS
 62
     0
 10
211.9364269070526
 20
866.1880789986841
 30
0.0
 11
211.9364269070526
 21
864.5214123320173
 31
0.0
 12
206.9364269070526
 22
865.3547456653507
 32
0.0
 13
206.9364269070526
 23
865.3547456653507
 33
0.0
  0
TEXT
  5
3686
  8
DIMENSIONS
  6
CONTINUOUS
 62
     5
 10
454.5589269070527
 20
867.7497456653507
 30
0.0
 40
5.0
  1
530 [20.87]
  0
POINT
  5
3687
  8
DEFPOINTS
 62
     0
 10
736.9364269070527
 20
811.212703264317
 30
0.0
  0
POINT
  5
3688
  8
DEFPOINTS
 62
     0
 10
206.9364269070526
 20
811.212703264317
 30
0.0
  0
POINT
  5
3689
  8
DEFPOINTS
 62
     0
 10
206.9364269070526
 20
865.3547456653507
 30
0.0
  0
ENDBLK
  5
3680
  8
0
  0
BLOCK
  8
0
  2
*D599
 70
     1
 10
0.0
 20
0.0
 30
0.0
  3
*D599
  1

  0
LINE
  5
3690
  8
DIMENSIONS
  6
BYBLOCK
 62
     0
 10
196.9364269070525
 20
806.2127032643169
 30
0.0
 11
196.9364269070525
 21
885.2178443925618
 31
0.0
  0
LINE
  5
3691
  8
DIMENSIONS
  6
BYBLOCK
 62
     0
 10
746.9364269070527
 20
806.2127032643169
 30
0.0
 11
746.9364269070527
 21
885.2178443925618
 31
0.0
  0
LINE
  5
3692
  8
DIMENSIONS
  6
BYBLOCK
 62
     0
 10
201.9364269070525
 20
885.0378443925619
 30
0.0
 11
741.9364269070527
 21
885.0378443925619
 31
0.0
  0
SOLID
  5
3693
  8
DIMENSIONS
 62
     0
 10
201.9364269070525
 20
885.8711777258952
 30
0.0
 11
201.9364269070525
 21
884.2045110592285
 31
0.0
 12
196.9364269070525
 22
885.0378443925619
 32
0.0
 13
196.9364269070525
 23
885.0378443925619
 33
0.0
  0
SOLID
  5
3694
  8
DIMENSIONS
 62
     0
 10
741.9364269070527
 20
884.2045110592285
 30
0.0
 11
741.9364269070527
 21
885.8711777258952
 31
0.0
 12
746.9364269070527
 22
885.0378443925619
 32
0.0
 13
746.9364269070527
 23
885.0378443925619
 33
0.0
  0
TEXT
  5
3695
  8
DIMENSIONS
  6
CONTINUOUS
 62
     5
 10
454.5589269070526
 20
887.4328443925618
 30
0.0
 40
5.0
  1
550 [21.65]
  0
POINT
  5
3696
  8
DEFPOINTS
 62
     0
 10
196.9364269070525
 20
804.7127032643169
 30
0.0
  0
POINT
  5
3697
  8
DEFPOINTS
 62
     0
 10
746.9364269070527
 20
804.7127032643169
 30
0.0
  0
POINT
  5
3698
  8
DEFPOINTS
 62
     0
 10
746.9364269070527
 20
885.0378443925619
 30
0.0
  0
ENDBLK
  5
368F
  8
0
  0
BLOCK
  8
0
  2
*D600
 70
     1
 10
0.0
 20
0.0
 30
0.0
  3
*D600
  1

  0
LINE
  5
369F
  8
DIMENSIONS
  6
BYBLOCK
 62
     0
 10
771.9364269070527
 20
831.2127032643168
 30
0.0
 11
771.9364269070527
 21
903.7392478352903
 31
0.0
  0
LINE
  5
36A0
  8
DIMENSIONS
  6
BYBLOCK
 62
     0
 10
171.9364269070525
 20
831.2127032643168
 30
0.0
 11
171.9364269070525
 21
903.7392478352903
 31
0.0
  0
LINE
  5
36A1
  8
DIMENSIONS
  6
BYBLOCK
 62
     0
 10
766.9364269070527
 20
903.5592478352903
 30
0.0
 11
176.9364269070525
 21
903.5592478352903
 31
0.0
  0
SOLID
  5
36A2
  8
DIMENSIONS
 62
     0
 10
766.9364269070527
 20
902.7259145019569
 30
0.0
 11
766.9364269070527
 21
904.3925811686237
 31
0.0
 12
771.9364269070527
 22
903.5592478352903
 32
0.0
 13
771.9364269070527
 23
903.5592478352903
 33
0.0
  0
SOLID
  5
36A3
  8
DIMENSIONS
 62
     0
 10
176.9364269070525
 20
904.3925811686237
 30
0.0
 11
176.9364269070525
 21
902.7259145019569
 31
0.0
 12
171.9364269070525
 22
903.5592478352903
 32
0.0
 13
171.9364269070525
 23
903.5592478352903
 33
0.0
  0
TEXT
  5
36A4
  8
DIMENSIONS
  6
CONTINUOUS
 62
     5
 10
454.5739269070526
 20
905.9542478352903
 30
0.0
 40
5.0
  1
600 [23.62]
  0
POINT
  5
36A5
  8
DEFPOINTS
 62
     0
 10
771.9364269070527
 20
829.7127032643168
 30
0.0
  0
POINT
  5
36A6
  8
DEFPOINTS
 62
     0
 10
171.9364269070525
 20
829.7127032643168
 30
0.0
  0
POINT
  5
36A7
  8
DEFPOINTS
 62
     0
 10
171.9364269070525
 20
903.5592478352903
 30
0.0
  0
ENDBLK
  5
369E
  8
0
  0
BLOCK
  8
0
  2
*D601
 70
     1
 10
0.0
 20
0.0
 30
0.0
  3
*D601
  1

  0
LINE
  5
36AE
  8
DIMENSIONS
  6
BYBLOCK
 62
     0
 10
170.4364269070525
 20
829.7127032643168
 30
0.0
 11
121.0530414009226
 21
829.7127032643168
 31
0.0
  0
LINE
  5
36AF
  8
DIMENSIONS
  6
BYBLOCK
 62
     0
 10
470.4364269070526
 20
814.6627032643169
 30
0.0
 11
121.0530414009226
 21
814.6627032643169
 31
0.0
  0
LINE
  5
36B0
  8
DIMENSIONS
  6
BYBLOCK
 62
     0
 10
121.2330414009226
 20
814.6627032643169
 30
0.0
 11
121.2330414009226
 21
772.0177032643169
 31
0.0
  0
LINE
  5
36B1
  8
DIMENSIONS
  6
BYBLOCK
 62
     0
 10
121.2330414009226
 20
824.7127032643168
 30
0.0
 11
121.2330414009226
 21
819.6627032643169
 31
0.0
  0
SOLID
  5
36B2
  8
DIMENSIONS
 62
     0
 10
122.0663747342559
 20
824.7127032643168
 30
0.0
 11
120.3997080675892
 21
824.7127032643168
 31
0.0
 12
121.2330414009226
 22
829.7127032643168
 32
0.0
 13
121.2330414009226
 23
829.7127032643168
 33
0.0
  0
SOLID
  5
36B3
  8
DIMENSIONS
 62
     0
 10
120.3997080675892
 20
819.6627032643169
 30
0.0
 11
122.0663747342559
 21
819.6627032643169
 31
0.0
 12
121.2330414009226
 22
814.6627032643169
 32
0.0
 13
121.2330414009226
 23
814.6627032643169
 33
0.0
  0
TEXT
  5
36B4
  8
DIMENSIONS
  6
CONTINUOUS
 62
     5
 10
118.8380414009226
 20
772.2577032643168
 30
0.0
 40
5.0
  1
15.05 [0.59]
 50
90.0
  0
POINT
  5
36B5
  8
DEFPOINTS
 62
     0
 10
171.9364269070525
 20
829.7127032643168
 30
0.0
  0
POINT
  5
36B6
  8
DEFPOINTS
 62
     0
 10
471.9364269070526
 20
814.6627032643169
 30
0.0
  0
POINT
  5
373F
  8
DEFPOINTS
 62
     0
 10
121.2330414009226
 20
814.6627032643169
 30
0.0
  0
ENDBLK
  5
36AD
  8
0
  0
BLOCK
  8
0
  2
*D602
 70
     1
 10
0.0
 20
0.0
 30
0.0
  3
*D602
  1

  0
LINE
  5
36BD
  8
DIMENSIONS
  6
BYBLOCK
 62
     0
 10
470.4364269070526
 20
814.6627032643169
 30
0.0
 11
136.4842237378924
 21
814.6627032643169
 31
0.0
  0
LINE
  5
36BE
  8
DIMENSIONS
  6
BYBLOCK
 62
     0
 10
470.4364269070526
 20
804.712703264317
 30
0.0
 11
136.4842237378924
 21
804.712703264317
 31
0.0
  0
LINE
  5
36BF
  8
DIMENSIONS
  6
BYBLOCK
 62
     0
 10
136.6642237378924
 20
804.712703264317
 30
0.0
 11
136.6642237378924
 21
760.4777032643171
 31
0.0
  0
LINE
  5
36C0
  8
DIMENSIONS
  6
BYBLOCK
 62
     0
 10
136.6642237378924
 20
819.6627032643169
 30
0.0
 11
136.6642237378924
 21
824.6627032643169
 31
0.0
  0
LINE
  5
36C1
  8
DIMENSIONS
  6
BYBLOCK
 62
     0
 10
136.6642237378924
 20
799.712703264317
 30
0.0
 11
136.6642237378924
 21
794.712703264317
 31
0.0
  0
SOLID
  5
36C2
  8
DIMENSIONS
 62
     0
 10
135.8308904045591
 20
819.6627032643169
 30
0.0
 11
137.4975570712257
 21
819.6627032643169
 31
0.0
 12
136.6642237378924
 22
814.6627032643169
 32
0.0
 13
136.6642237378924
 23
814.6627032643169
 33
0.0
  0
SOLID
  5
36C3
  8
DIMENSIONS
 62
     0
 10
137.4975570712257
 20
799.712703264317
 30
0.0
 11
135.8308904045591
 21
799.712703264317
 31
0.0
 12
136.6642237378924
 22
804.712703264317
 32
0.0
 13
136.6642237378924
 23
804.712703264317
 33
0.0
  0
TEXT
  5
36C4
  8
DIMENSIONS
  6
CONTINUOUS
 62
     5
 10
134.2692237378924
 20
761.1877032643171
 30
0.0
 40
5.0
  1
9.95 [0.39]
 50
90.0
  0
POINT
  5
36C5
  8
DEFPOINTS
 62
     0
 10
471.9364269070526
 20
814.6627032643169
 30
0.0
  0
POINT
  5
36C6
  8
DEFPOINTS
 62
     0
 10
471.9364269070526
 20
804.712703264317
 30
0.0
  0
POINT
  5
3743
  8
DEFPOINTS
 62
     0
 10
136.6642237378924
 20
804.712703264317
 30
0.0
  0
ENDBLK
  5
36BC
  8
0
  0
BLOCK
  8
0
  2
*D603
 70
     1
 10
0.0
 20
0.0
 30
0.0
  3
*D603
  1

  0
LINE
  5
36CD
  8
DIMENSIONS
  6
BYBLOCK
 62
     0
 10
470.4364269070526
 20
804.712703264317
 30
0.0
 11
152.8882933012989
 21
804.712703264317
 31
0.0
  0
LINE
  5
36CE
  8
DIMENSIONS
  6
BYBLOCK
 62
     0
 10
195.4364269070525
 20
454.7127032643169
 30
0.0
 11
152.8882933012989
 21
454.7127032643169
 31
0.0
  0
LINE
  5
36CF
  8
DIMENSIONS
  6
BYBLOCK
 62
     0
 10
153.068293301299
 20
799.712703264317
 30
0.0
 11
153.0682933012989
 21
459.7127032643169
 31
0.0
  0
SOLID
  5
36D0
  8
DIMENSIONS
 62
     0
 10
153.9016266346323
 20
799.712703264317
 30
0.0
 11
152.2349599679656
 21
799.712703264317
 31
0.0
 12
153.068293301299
 22
804.712703264317
 32
0.0
 13
153.068293301299
 23
804.712703264317
 33
0.0
  0
SOLID
  5
36D1
  8
DIMENSIONS
 62
     0
 10
152.2349599679656
 20
459.7127032643169
 30
0.0
 11
153.9016266346323
 21
459.7127032643169
 31
0.0
 12
153.0682933012989
 22
454.7127032643169
 32
0.0
 13
153.0682933012989
 23
454.7127032643169
 33
0.0
  0
TEXT
  5
36D2
  8
DIMENSIONS
  6
CONTINUOUS
 62
     5
 10
150.6732933012989
 20
612.3327032643169
 30
0.0
 40
5.0
  1
350 [13.78]
 50
90.0
  0
POINT
  5
36D3
  8
DEFPOINTS
 62
     0
 10
471.9364269070526
 20
804.712703264317
 30
0.0
  0
POINT
  5
36D4
  8
DEFPOINTS
 62
     0
 10
196.9364269070525
 20
454.7127032643169
 30
0.0
  0
POINT
  5
36D5
  8
DEFPOINTS
 62
     0
 10
153.0682933012989
 20
454.7127032643169
 30
0.0
  0
ENDBLK
  5
36CC
  8
0
  0
BLOCK
  8
0
  2
*D604
 70
     1
 10
0.0
 20
0.0
 30
0.0
  3
*D604
  1

  0
LINE
  5
36DC
  8
DIMENSIONS
  6
BYBLOCK
 62
     0
 10
195.4364269070525
 20
454.7127032643169
 30
0.0
 11
136.4221373402086
 21
454.7127032643169
 31
0.0
  0
LINE
  5
36DD
  8
DIMENSIONS
  6
BYBLOCK
 62
     0
 10
170.4364269070525
 20
429.712703264317
 30
0.0
 11
136.4221373402086
 21
429.712703264317
 31
0.0
  0
LINE
  5
36DE
  8
DIMENSIONS
  6
BYBLOCK
 62
     0
 10
136.6021373402086
 20
454.7127032643169
 30
0.0
 11
136.6021373402086
 21
488.2127032643169
 31
0.0
  0
LINE
  5
36DF
  8
DIMENSIONS
  6
BYBLOCK
 62
     0
 10
136.6021373402086
 20
449.7127032643169
 30
0.0
 11
136.6021373402086
 21
434.712703264317
 31
0.0
  0
SOLID
  5
36E0
  8
DIMENSIONS
 62
     0
 10
137.4354706735419
 20
449.7127032643169
 30
0.0
 11
135.7688040068753
 21
449.7127032643169
 31
0.0
 12
136.6021373402086
 22
454.7127032643169
 32
0.0
 13
136.6021373402086
 23
454.7127032643169
 33
0.0
  0
SOLID
  5
36E1
  8
DIMENSIONS
 62
     0
 10
135.7688040068753
 20
434.712703264317
 30
0.0
 11
137.4354706735419
 21
434.712703264317
 31
0.0
 12
136.6021373402086
 22
429.712703264317
 32
0.0
 13
136.6021373402086
 23
429.712703264317
 33
0.0
  0
TEXT
  5
36E2
  8
DIMENSIONS
  6
CONTINUOUS
 62
     5
 10
134.2071373402086
 20
460.5077032643169
 30
0.0
 40
5.0
  1
25 [0.98]
 50
90.0
  0
POINT
  5
36E3
  8
DEFPOINTS
 62
     0
 10
196.9364269070525
 20
454.7127032643169
 30
0.0
  0
POINT
  5
36E4
  8
DEFPOINTS
 62
     0
 10
171.9364269070525
 20
429.712703264317
 30
0.0
  0
POINT
  5
3740
  8
DEFPOINTS
 62
     0
 10
136.6021373402086
 20
429.712703264317
 30
0.0
  0
ENDBLK
  5
36DB
  8
0
  0
BLOCK
  8
0
  2
*D605
 70
     1
 10
0.0
 20
0.0
 30
0.0
  3
*D605
  1

  0
LINE
  5
36EB
  8
DIMENSIONS
  6
BYBLOCK
 62
     0
 10
773.4364269070527
 20
829.7127032643168
 30
0.0
 11
804.0502714229062
 21
829.7127032643168
 31
0.0
  0
LINE
  5
36EC
  8
DIMENSIONS
  6
BYBLOCK
 62
     0
 10
738.4364269070527
 20
811.212703264317
 30
0.0
 11
804.0502714229062
 21
811.212703264317
 31
0.0
  0
LINE
  5
36ED
  8
DIMENSIONS
  6
BYBLOCK
 62
     0
 10
803.8702714229063
 20
811.212703264317
 30
0.0
 11
803.8702714229063
 21
772.4477032643169
 31
0.0
  0
LINE
  5
36EE
  8
DIMENSIONS
  6
BYBLOCK
 62
     0
 10
803.8702714229063
 20
824.7127032643168
 30
0.0
 11
803.8702714229063
 21
816.212703264317
 31
0.0
  0
SOLID
  5
36EF
  8
DIMENSIONS
 62
     0
 10
804.7036047562397
 20
824.7127032643168
 30
0.0
 11
803.0369380895729
 21
824.7127032643168
 31
0.0
 12
803.8702714229063
 22
829.7127032643168
 32
0.0
 13
803.8702714229063
 23
829.7127032643168
 33
0.0
  0
SOLID
  5
36F0
  8
DIMENSIONS
 62
     0
 10
803.0369380895729
 20
816.212703264317
 30
0.0
 11
804.7036047562397
 21
816.212703264317
 31
0.0
 12
803.8702714229063
 22
811.212703264317
 32
0.0
 13
803.8702714229063
 23
811.212703264317
 33
0.0
  0
TEXT
  5
36F1
  8
DIMENSIONS
  6
CONTINUOUS
 62
     5
 10
801.4752714229062
 20
772.687703264317
 30
0.0
 40
5.0
  1
18.5 [0.73]
 50
90.0
  0
POINT
  5
36F2
  8
DEFPOINTS
 62
     0
 10
771.9364269070527
 20
829.7127032643168
 30
0.0
  0
POINT
  5
36F3
  8
DEFPOINTS
 62
     0
 10
736.9364269070527
 20
811.212703264317
 30
0.0
  0
POINT
  5
3741
  8
DEFPOINTS
 62
     0
 10
803.8702714229063
 20
811.212703264317
 30
0.0
  0
ENDBLK
  5
36EA
  8
0
  0
BLOCK
  8
0
  2
*D606
 70
     1
 10
0.0
 20
0.0
 30
0.0
  3
*D606
  1

  0
LINE
  5
36FA
  8
DIMENSIONS
  6
BYBLOCK
 62
     0
 10
738.4364269070527
 20
811.212703264317
 30
0.0
 11
787.6086881901057
 21
811.212703264317
 31
0.0
  0
LINE
  5
36FB
  8
DIMENSIONS
  6
BYBLOCK
 62
     0
 10
738.4364269070527
 20
703.2127032643168
 30
0.0
 11
787.6086881901057
 21
703.2127032643168
 31
0.0
  0
LINE
  5
36FC
  8
DIMENSIONS
  6
BYBLOCK
 62
     0
 10
787.4286881901057
 20
806.212703264317
 30
0.0
 11
787.4286881901057
 21
708.2127032643168
 31
0.0
  0
SOLID
  5
36FD
  8
DIMENSIONS
 62
     0
 10
788.2620215234391
 20
806.212703264317
 30
0.0
 11
786.5953548567724
 21
806.212703264317
 31
0.0
 12
787.4286881901057
 22
811.212703264317
 32
0.0
 13
787.4286881901057
 23
811.212703264317
 33
0.0
  0
SOLID
  5
36FE
  8
DIMENSIONS
 62
     0
 10
786.5953548567724
 20
708.2127032643168
 30
0.0
 11
788.2620215234391
 21
708.2127032643168
 31
0.0
 12
787.4286881901057
 22
703.2127032643168
 32
0.0
 13
787.4286881901057
 23
703.2127032643168
 33
0.0
  0
TEXT
  5
36FF
  8
DIMENSIONS
  6
CONTINUOUS
 62
     5
 10
785.0336881901057
 20
741.5402032643169
 30
0.0
 40
5.0
  1
108 [4.25]
 50
90.0
  0
POINT
  5
3700
  8
DEFPOINTS
 62
     0
 10
736.9364269070527
 20
811.212703264317
 30
0.0
  0
POINT
  5
3701
  8
DEFPOINTS
 62
     0
 10
736.9364269070527
 20
703.2127032643168
 30
0.0
  0
POINT
  5
3702
  8
DEFPOINTS
 62
     0
 10
787.4286881901057
 20
703.2127032643168
 30
0.0
  0
ENDBLK
  5
36F9
  8
0
  0
BLOCK
  8
0
  2
*D607
 70
     1
 10
0.0
 20
0.0
 30
0.0
  3
*D607
  1

  0
LINE
  5
3709
  8
DIMENSIONS
  6
BYBLOCK
 62
     0
 10
738.4364269070527
 20
703.2127032643168
 30
0.0
 11
787.6086881901057
 21
703.2127032643168
 31
0.0
  0
LINE
  5
370A
  8
DIMENSIONS
  6
BYBLOCK
 62
     0
 10
738.4364269070527
 20
556.2127032643169
 30
0.0
 11
787.6086881901057
 21
556.2127032643169
 31
0.0
  0
LINE
  5
370B
  8
DIMENSIONS
  6
BYBLOCK
 62
     0
 10
787.4286881901057
 20
698.2127032643168
 30
0.0
 11
787.4286881901057
 21
561.2127032643169
 31
0.0
  0
SOLID
  5
370C
  8
DIMENSIONS
 62
     0
 10
788.2620215234391
 20
698.2127032643168
 30
0.0
 11
786.5953548567724
 21
698.2127032643168
 31
0.0
 12
787.4286881901057
 22
703.2127032643168
 32
0.0
 13
787.4286881901057
 23
703.2127032643168
 33
0.0
  0
SOLID
  5
370D
  8
DIMENSIONS
 62
     0
 10
786.5953548567724
 20
561.2127032643169
 30
0.0
 11
788.2620215234391
 21
561.2127032643169
 31
0.0
 12
787.4286881901057
 22
556.2127032643169
 32
0.0
 13
787.4286881901057
 23
556.2127032643169
 33
0.0
  0
TEXT
  5
370E
  8
DIMENSIONS
  6
CONTINUOUS
 62
     5
 10
785.0336881901056
 20
614.0402032643168
 30
0.0
 40
5.0
  1
147 [5.79]
 50
90.0
  0
POINT
  5
370F
  8
DEFPOINTS
 62
     0
 10
736.9364269070527
 20
703.2127032643168
 30
0.0
  0
POINT
  5
3710
  8
DEFPOINTS
 62
     0
 10
736.9364269070527
 20
556.2127032643169
 30
0.0
  0
POINT
  5
3711
  8
DEFPOINTS
 62
     0
 10
787.4286881901057
 20
556.2127032643169
 30
0.0
  0
ENDBLK
  5
3708
  8
0
  0
BLOCK
  8
0
  2
*D608
 70
     1
 10
0.0
 20
0.0
 30
0.0
  3
*D608
  1

  0
LINE
  5
3718
  8
DIMENSIONS
  6
BYBLOCK
 62
     0
 10
738.4364269070527
 20
556.2127032643169
 30
0.0
 11
787.6086881901057
 21
556.2127032643169
 31
0.0
  0
LINE
  5
3719
  8
DIMENSIONS
  6
BYBLOCK
 62
     0
 10
738.4364269070527
 20
448.2127032643168
 30
0.0
 11
787.6086881901057
 21
448.2127032643168
 31
0.0
  0
LINE
  5
371A
  8
DIMENSIONS
  6
BYBLOCK
 62
     0
 10
787.4286881901057
 20
551.2127032643169
 30
0.0
 11
787.4286881901057
 21
453.2127032643168
 31
0.0
  0
SOLID
  5
371B
  8
DIMENSIONS
 62
     0
 10
788.2620215234391
 20
551.2127032643169
 30
0.0
 11
786.5953548567724
 21
551.2127032643169
 31
0.0
 12
787.4286881901057
 22
556.2127032643169
 32
0.0
 13
787.4286881901057
 23
556.2127032643169
 33
0.0
  0
SOLID
  5
371C
  8
DIMENSIONS
 62
     0
 10
786.5953548567724
 20
453.2127032643168
 30
0.0
 11
788.2620215234391
 21
453.2127032643168
 31
0.0
 12
787.4286881901057
 22
448.2127032643168
 32
0.0
 13
787.4286881901057
 23
448.2127032643168
 33
0.0
  0
TEXT
  5
371D
  8
DIMENSIONS
  6
CONTINUOUS
 62
     5
 10
785.0336881901057
 20
486.5402032643169
 30
0.0
 40
5.0
  1
108 [4.25]
 50
90.0
  0
POINT
  5
371E
  8
DEFPOINTS
 62
     0
 10
736.9364269070527
 20
556.2127032643169
 30
0.0
  0
POINT
  5
371F
  8
DEFPOINTS
 62
     0
 10
736.9364269070527
 20
448.2127032643168
 30
0.0
  0
POINT
  5
3720
  8
DEFPOINTS
 62
     0
 10
787.4286881901057
 20
448.2127032643168
 30
0.0
  0
ENDBLK
  5
3717
  8
0
  0
BLOCK
  8
0
  2
*D609
 70
     1
 10
0.0
 20
0.0
 30
0.0
  3
*D609
  1

  0
LINE
  5
3727
  8
DIMENSIONS
  6
BYBLOCK
 62
     0
 10
738.4364269070527
 20
448.2127032643168
 30
0.0
 11
803.5183175786727
 21
448.2127032643168
 31
0.0
  0
LINE
  5
3728
  8
DIMENSIONS
  6
BYBLOCK
 62
     0
 10
773.4364269070527
 20
429.712703264317
 30
0.0
 11
803.5183175786727
 21
429.712703264317
 31
0.0
  0
LINE
  5
3729
  8
DIMENSIONS
  6
BYBLOCK
 62
     0
 10
803.3383175786728
 20
448.2127032643168
 30
0.0
 11
803.3383175786728
 21
486.9777032643169
 31
0.0
  0
LINE
  5
372A
  8
DIMENSIONS
  6
BYBLOCK
 62
     0
 10
803.3383175786728
 20
443.2127032643168
 30
0.0
 11
803.3383175786728
 21
434.712703264317
 31
0.0
  0
SOLID
  5
372B
  8
DIMENSIONS
 62
     0
 10
804.1716509120062
 20
443.2127032643168
 30
0.0
 11
802.5049842453394
 21
443.2127032643168
 31
0.0
 12
803.3383175786728
 22
448.2127032643168
 32
0.0
 13
803.3383175786728
 23
448.2127032643168
 33
0.0
  0
SOLID
  5
372C
  8
DIMENSIONS
 62
     0
 10
802.5049842453394
 20
434.712703264317
 30
0.0
 11
804.1716509120062
 21
434.712703264317
 31
0.0
 12
803.3383175786728
 22
429.712703264317
 32
0.0
 13
803.3383175786728
 23
429.712703264317
 33
0.0
  0
TEXT
  5
372D
  8
DIMENSIONS
  6
CONTINUOUS
 62
     5
 10
800.9433175786728
 20
453.4527032643168
 30
0.0
 40
5.0
  1
18.5 [0.73]
 50
90.0
  0
POINT
  5
372E
  8
DEFPOINTS
 62
     0
 10
736.9364269070527
 20
448.2127032643168
 30
0.0
  0
POINT
  5
372F
  8
DEFPOINTS
 62
     0
 10
771.9364269070527
 20
429.712703264317
 30
0.0
  0
POINT
  5
3742
  8
DEFPOINTS
 62
     0
 10
803.3383175786728
 20
429.712703264317
 30
0.0
  0
ENDBLK
  5
3726
  8
0
  0
BLOCK
  8
0
  2
*D610
 70
     1
 10
0.0
 20
0.0
 30
0.0
  3
*D610
  1

  0
LINE
  5
3736
  8
DIMENSIONS
  6
BYBLOCK
 62
     0
 10
463.8427436719081
 20
442.1661109418407
 30
0.0
 11
425.3691823641422
 21
429.8231329665879
 31
0.0
  0
TEXT
  5
3737
  8
DIMENSIONS
  6
CONTINUOUS
 62
     5
 10
425.2986983560453
 20
432.3997697288426
 30
0.0
 40
5.0
  1
Ø7 [Ø0.28]
 50
17.78713141065596
  0
SOLID
  5
3738
  8
DIMENSIONS
 62
     0
 10
464.0973115466607
 20
441.372612585454
 30
0.0
 11
463.5881757971555
 21
442.9596092982274
 31
0.0
 12
468.6037338102284
 22
443.6935181903561
 32
0.0
 13
468.6037338102284
 23
443.6935181903561
 33
0.0
  0
LINE
  5
3739
  8
DIMENSIONS
  6
BYBLOCK
 62
     0
 10
469.4364269070526
 20
444.7627032643169
 30
0.0
 11
474.4364269070526
 21
444.7627032643169
 31
0.0
  0
LINE
  5
373A
  8
DIMENSIONS
  6
BYBLOCK
 62
     0
 10
471.9364269070526
 20
442.2627032643169
 30
0.0
 11
471.9364269070526
 21
447.2627032643169
 31
0.0
  0
POINT
  5
373B
  8
DEFPOINTS
 62
     0
 10
468.6037338102284
 20
443.6935181903561
 30
0.0
  0
POINT
  5
373C
  8
DEFPOINTS
 62
     0
 10
475.2691200038768
 20
445.8318883382776
 30
0.0
  0
ENDBLK
  5
3735
  8
0
  0
BLOCK
  8
0
  2
*D612
 70
     1
 10
0.0
 20
0.0
 30
0.0
  3
*D612
  1

  0
LINE
  5
379B
  8
DIMENSIONS
  6
BYBLOCK
 62
     0
 10
190.159165174658
 20
667.5624997520953
 30
0.0
 11
190.159165174658
 21
689.6365198217462
 31
0.0
  0
LINE
  5
379C
  8
DIMENSIONS
  6
BYBLOCK
 62
     0
 10
369.359165174658
 20
667.5624997520953
 30
0.0
 11
369.359165174658
 21
689.6365198217462
 31
0.0
  0
LINE
  5
379D
  8
DIMENSIONS
  6
BYBLOCK
 62
     0
 10
195.159165174658
 20
689.4565198217463
 30
0.0
 11
364.359165174658
 21
689.4565198217463
 31
0.0
  0
SOLID
  5
379E
  8
DIMENSIONS
 62
     0
 10
195.159165174658
 20
690.2898531550796
 30
0.0
 11
195.159165174658
 21
688.6231864884129
 31
0.0
 12
190.159165174658
 22
689.4565198217463
 32
0.0
 13
190.159165174658
 23
689.4565198217463
 33
0.0
  0
SOLID
  5
379F
  8
DIMENSIONS
 62
     0
 10
364.359165174658
 20
688.6231864884129
 30
0.0
 11
364.359165174658
 21
690.2898531550796
 31
0.0
 12
369.359165174658
 22
689.4565198217463
 32
0.0
 13
369.359165174658
 23
689.4565198217463
 33
0.0
  0
TEXT
  5
37A0
  8
DIMENSIONS
  6
CONTINUOUS
 62
     5
 10
261.176665174658
 20
691.8515198217463
 30
0.0
 40
5.0
  1
179.2 [7.06]
  0
POINT
  5
37A1
  8
DEFPOINTS
 62
     0
 10
190.159165174658
 20
666.0624997520953
 30
0.0
  0
POINT
  5
37A2
  8
DEFPOINTS
 62
     0
 10
369.359165174658
 20
666.0624997520953
 30
0.0
  0
POINT
  5
37A3
  8
DEFPOINTS
 62
     0
 10
369.359165174658
 20
689.4565198217463
 30
0.0
  0
ENDBLK
  5
379A
  8
0
  0
BLOCK
  8
0
  2
*D613
 70
     1
 10
0.0
 20
0.0
 30
0.0
  3
*D613
  1

  0
LINE
  5
37AA
  8
DIMENSIONS
  6
BYBLOCK
 62
     0
 10
187.659165174658
 20
670.0624997520954
 30
0.0
 11
187.659165174658
 21
702.1389640538441
 31
0.0
  0
LINE
  5
37AB
  8
DIMENSIONS
  6
BYBLOCK
 62
     0
 10
371.859165174658
 20
670.0624997520954
 30
0.0
 11
371.859165174658
 21
702.1389640538441
 31
0.0
  0
LINE
  5
37AC
  8
DIMENSIONS
  6
BYBLOCK
 62
     0
 10
192.659165174658
 20
701.9589640538442
 30
0.0
 11
366.859165174658
 21
701.9589640538442
 31
0.0
  0
SOLID
  5
37AD
  8
DIMENSIONS
 62
     0
 10
192.659165174658
 20
702.7922973871775
 30
0.0
 11
192.659165174658
 21
701.1256307205108
 31
0.0
 12
187.659165174658
 22
701.9589640538442
 32
0.0
 13
187.659165174658
 23
701.9589640538442
 33
0.0
  0
SOLID
  5
37AE
  8
DIMENSIONS
 62
     0
 10
366.859165174658
 20
701.1256307205108
 30
0.0
 11
366.859165174658
 21
702.7922973871775
 31
0.0
 12
371.859165174658
 22
701.9589640538442
 32
0.0
 13
371.859165174658
 23
701.9589640538442
 33
0.0
  0
TEXT
  5
37AF
  8
DIMENSIONS
  6
CONTINUOUS
 62
     5
 10
261.176665174658
 20
704.3539640538442
 30
0.0
 40
5.0
  1
184.2 [7.25]
  0
POINT
  5
37B0
  8
DEFPOINTS
 62
     0
 10
187.659165174658
 20
668.5624997520954
 30
0.0
  0
POINT
  5
37B1
  8
DEFPOINTS
 62
     0
 10
371.859165174658
 20
668.5624997520954
 30
0.0
  0
POINT
  5
37B2
  8
DEFPOINTS
 62
     0
 10
371.859165174658
 20
701.9589640538442
 30
0.0
  0
ENDBLK
  5
37A9
  8
0
  0
BLOCK
  8
0
  2
*D614
 70
     1
 10
0.0
 20
0.0
 30
0.0
  3
*D614
  1

  0
LINE
  5
37B9
  8
DIMENSIONS
  6
BYBLOCK
 62
     0
 10
381.359165174658
 20
678.5624997520954
 30
0.0
 11
381.359165174658
 21
714.48390992342
 31
0.0
  0
LINE
  5
37BA
  8
DIMENSIONS
  6
BYBLOCK
 62
     0
 10
178.159165174658
 20
678.5624997520954
 30
0.0
 11
178.159165174658
 21
714.48390992342
 31
0.0
  0
LINE
  5
37BB
  8
DIMENSIONS
  6
BYBLOCK
 62
     0
 10
376.359165174658
 20
714.3039099234201
 30
0.0
 11
183.159165174658
 21
714.3039099234201
 31
0.0
  0
SOLID
  5
37BC
  8
DIMENSIONS
 62
     0
 10
376.359165174658
 20
713.4705765900867
 30
0.0
 11
376.359165174658
 21
715.1372432567534
 31
0.0
 12
381.359165174658
 22
714.3039099234201
 32
0.0
 13
381.359165174658
 23
714.3039099234201
 33
0.0
  0
SOLID
  5
37BD
  8
DIMENSIONS
 62
     0
 10
183.159165174658
 20
715.1372432567534
 30
0.0
 11
183.159165174658
 21
713.4705765900867
 31
0.0
 12
178.159165174658
 22
714.3039099234201
 32
0.0
 13
178.159165174658
 23
714.3039099234201
 33
0.0
  0
TEXT
  5
37BE
  8
DIMENSIONS
  6
CONTINUOUS
 62
     5
 10
261.454165174658
 20
716.69890992342
 30
0.0
 40
5.0
  1
203.2 [8.00]
  0
POINT
  5
37BF
  8
DEFPOINTS
 62
     0
 10
381.359165174658
 20
677.0624997520954
 30
0.0
  0
POINT
  5
37C0
  8
DEFPOINTS
 62
     0
 10
178.159165174658
 20
677.0624997520954
 30
0.0
  0
POINT
  5
37C1
  8
DEFPOINTS
 62
     0
 10
178.159165174658
 20
714.3039099234201
 30
0.0
  0
ENDBLK
  5
37B8
  8
0
  0
BLOCK
  8
0
  2
*D615
 70
     1
 10
0.0
 20
0.0
 30
0.0
  3
*D615
  1

  0
LINE
  5
37C8
  8
DIMENSIONS
  6
BYBLOCK
 62
     0
 10
188.659165174658
 20
666.0624997520953
 30
0.0
 11
164.8478225639145
 21
666.0624997520953
 31
0.0
  0
LINE
  5
37C9
  8
DIMENSIONS
  6
BYBLOCK
 62
     0
 10
188.659165174658
 20
428.0624997520954
 30
0.0
 11
164.8478225639145
 21
428.0624997520954
 31
0.0
  0
LINE
  5
37CA
  8
DIMENSIONS
  6
BYBLOCK
 62
     0
 10
165.0278225639145
 20
661.0624997520953
 30
0.0
 11
165.0278225639145
 21
433.0624997520954
 31
0.0
  0
SOLID
  5
37CB
  8
DIMENSIONS
 62
     0
 10
165.8611558972478
 20
661.0624997520953
 30
0.0
 11
164.1944892305812
 21
661.0624997520953
 31
0.0
 12
165.0278225639145
 22
666.0624997520953
 32
0.0
 13
165.0278225639145
 23
666.0624997520953
 33
0.0
  0
SOLID
  5
37CC
  8
DIMENSIONS
 62
     0
 10
164.1944892305811
 20
433.0624997520954
 30
0.0
 11
165.8611558972478
 21
433.0624997520954
 31
0.0
 12
165.0278225639145
 22
428.0624997520954
 32
0.0
 13
165.0278225639145
 23
428.0624997520954
 33
0.0
  0
TEXT
  5
37CD
  8
DIMENSIONS
  6
CONTINUOUS
 62
     5
 10
162.6328225639145
 20
531.6674997520954
 30
0.0
 40
5.0
  1
238 [9.37]
 50
90.0
  0
POINT
  5
37CE
  8
DEFPOINTS
 62
     0
 10
190.159165174658
 20
666.0624997520953
 30
0.0
  0
POINT
  5
37CF
  8
DEFPOINTS
 62
     0
 10
190.159165174658
 20
428.0624997520954
 30
0.0
  0
POINT
  5
37D0
  8
DEFPOINTS
 62
     0
 10
165.0278225639145
 20
428.0624997520954
 30
0.0
  0
ENDBLK
  5
37C7
  8
0
  0
BLOCK
  8
0
  2
*D616
 70
     1
 10
0.0
 20
0.0
 30
0.0
  3
*D616
  1

  0
LINE
  5
37D7
  8
DIMENSIONS
  6
BYBLOCK
 62
     0
 10
186.159165174658
 20
668.5624997520954
 30
0.0
 11
151.2021712439932
 21
668.5624997520954
 31
0.0
  0
LINE
  5
37D8
  8
DIMENSIONS
  6
BYBLOCK
 62
     0
 10
186.159165174658
 20
425.5624997520954
 30
0.0
 11
151.2021712439931
 21
425.5624997520954
 31
0.0
  0
LINE
  5
37D9
  8
DIMENSIONS
  6
BYBLOCK
 62
     0
 10
151.3821712439932
 20
663.5624997520954
 30
0.0
 11
151.3821712439932
 21
430.5624997520954
 31
0.0
  0
SOLID
  5
37DA
  8
DIMENSIONS
 62
     0
 10
152.2155045773265
 20
663.5624997520954
 30
0.0
 11
150.5488379106598
 21
663.5624997520954
 31
0.0
 12
151.3821712439932
 22
668.5624997520954
 32
0.0
 13
151.3821712439932
 23
668.5624997520954
 33
0.0
  0
SOLID
  5
37DB
  8
DIMENSIONS
 62
     0
 10
150.5488379106598
 20
430.5624997520954
 30
0.0
 11
152.2155045773265
 21
430.5624997520954
 31
0.0
 12
151.3821712439932
 22
425.5624997520954
 32
0.0
 13
151.3821712439932
 23
425.5624997520954
 33
0.0
  0
TEXT
  5
37DC
  8
DIMENSIONS
  6
CONTINUOUS
 62
     5
 10
148.9871712439932
 20
531.6674997520954
 30
0.0
 40
5.0
  1
243 [9.57]
 50
90.0
  0
POINT
  5
37DD
  8
DEFPOINTS
 62
     0
 10
187.659165174658
 20
668.5624997520954
 30
0.0
  0
POINT
  5
37DE
  8
DEFPOINTS
 62
     0
 10
187.659165174658
 20
425.5624997520954
 30
0.0
  0
POINT
  5
37DF
  8
DEFPOINTS
 62
     0
 10
151.3821712439932
 20
425.5624997520954
 30
0.0
  0
ENDBLK
  5
37D6
  8
0
  0
BLOCK
  8
0
  2
*D617
 70
     1
 10
0.0
 20
0.0
 30
0.0
  3
*D617
  1

  0
LINE
  5
37E6
  8
DIMENSIONS
  6
BYBLOCK
 62
     0
 10
176.659165174658
 20
417.0624997520954
 30
0.0
 11
136.6028260798755
 21
417.0624997520954
 31
0.0
  0
LINE
  5
37E7
  8
DIMENSIONS
  6
BYBLOCK
 62
     0
 10
176.659165174658
 20
677.0624997520954
 30
0.0
 11
136.6028260798755
 21
677.0624997520954
 31
0.0
  0
LINE
  5
37E8
  8
DIMENSIONS
  6
BYBLOCK
 62
     0
 10
136.7828260798755
 20
422.0624997520954
 30
0.0
 11
136.7828260798755
 21
672.0624997520954
 31
0.0
  0
SOLID
  5
37E9
  8
DIMENSIONS
 62
     0
 10
135.9494927465421
 20
422.0624997520954
 30
0.0
 11
137.6161594132088
 21
422.0624997520954
 31
0.0
 12
136.7828260798755
 22
417.0624997520954
 32
0.0
 13
136.7828260798755
 23
417.0624997520954
 33
0.0
  0
SOLID
  5
37EA
  8
DIMENSIONS
 62
     0
 10
137.6161594132089
 20
672.0624997520954
 30
0.0
 11
135.9494927465422
 21
672.0624997520954
 31
0.0
 12
136.7828260798755
 22
677.0624997520954
 32
0.0
 13
136.7828260798755
 23
677.0624997520954
 33
0.0
  0
TEXT
  5
37EB
  8
DIMENSIONS
  6
CONTINUOUS
 62
     5
 10
134.3878260798755
 20
529.7274997520954
 30
0.0
 40
5.0
  1
260 [10.24]
 50
90.0
  0
POINT
  5
37EC
  8
DEFPOINTS
 62
     0
 10
178.159165174658
 20
417.0624997520954
 30
0.0
  0
POINT
  5
37ED
  8
DEFPOINTS
 62
     0
 10
178.159165174658
 20
677.0624997520954
 30
0.0
  0
POINT
  5
37EE
  8
DEFPOINTS
 62
     0
 10
136.7828260798755
 20
677.0624997520954
 30
0.0
  0
ENDBLK
  5
37E5
  8
0
  0
BLOCK
  8
0
  2
*X619
 70
     1
 10
0.0
 20
0.0
 30
0.0
  3
*X619
  1

  0
LINE
  5
3851
  8
CUTOUT
 10
24.99999999999997
 20
1227.081528017131
 30
0.0
 11
67.9184719828688
 21
1270.0
 31
0.0
  0
LINE
  5
3852
  8
CUTOUT
 10
25.0
 20
1151.95143251606
 30
0.0
 11
143.0485674839395
 21
1270.0
 31
0.0
  0
LINE
  5
3853
  8
CUTOUT
 10
25.0
 20
1076.82133701499
 30
0.0
 11
218.1786629850101
 21
1270.0
 31
0.0
  0
LINE
  5
3854
  8
CUTOUT
 10
24.99999999999997
 20
1001.691241513919
 30
0.0
 11
293.3087584860808
 21
1270.0
 31
0.0
  0
LINE
  5
3855
  8
CUTOUT
 10
83.43885398715173
 20
985.0
 30
0.0
 11
368.4388539871514
 21
1270.0
 31
0.0
  0
LINE
  5
3856
  8
CUTOUT
 10
158.5689494882224
 20
985.0
 30
0.0
 11
443.5689494882222
 21
1270.0
 31
0.0
  0
LINE
  5
3857
  8
CUTOUT
 10
25.0
 20
776.300955010707
 30
0.0
 11
97.6990449892931
 21
849.0
 31
0.0
  0
LINE
  5
3858
  8
CUTOUT
 10
25.0
 20
701.1708595096362
 30
0.0
 11
172.8291404903638
 21
849.0
 31
0.0
  0
LINE
  5
3859
  8
CUTOUT
 10
25.0
 20
626.0407640085655
 30
0.0
 11
247.9592359914345
 21
849.0
 31
0.0
  0
LINE
  5
385A
  8
CUTOUT
 10
233.6990449892931
 20
985.0
 30
0.0
 11
475.0
 21
1226.300955010707
 31
0.0
  0
LINE
  5
385B
  8
CUTOUT
 10
308.8291404903637
 20
985.0
 30
0.0
 11
475.0000000000001
 21
1151.170859509636
 31
0.0
  0
LINE
  5
385C
  8
CUTOUT
 10
383.9592359914344
 20
985.0
 30
0.0
 11
475.0000000000001
 21
1076.040764008566
 31
0.0
  0
LINE
  5
385D
  8
CUTOUT
 10
29.08933149250538
 20
555.0000000000002
 30
0.0
 11
323.0893314925051
 21
849.0
 31
0.0
  0
LINE
  5
385E
  8
CUTOUT
 10
459.0893314925051
 20
985.0
 30
0.0
 11
475.0000000000001
 21
1000.910668507495
 31
0.0
  0
LINE
  5
385F
  8
CUTOUT
 10
104.2194269935761
 20
555.0000000000002
 30
0.0
 11
398.2194269935758
 21
849.0
 31
0.0
  0
LINE
  5
3860
  8
CUTOUT
 10
179.3495224946467
 20
555.0000000000002
 30
0.0
 11
473.3495224946465
 21
849.0
 31
0.0
  0
LINE
  5
3861
  8
CUTOUT
 10
254.4796179957174
 20
555.0000000000002
 30
0.0
 11
474.9999999999999
 21
775.5203820042827
 31
0.0
  0
LINE
  5
3862
  8
CUTOUT
 10
329.6097134967881
 20
555.0000000000002
 30
0.0
 11
474.9999999999999
 21
700.3902865032121
 31
0.0
  0
LINE
  5
3863
  8
CUTOUT
 10
404.7398089978587
 20
555.0000000000002
 30
0.0
 11
474.9999999999999
 21
625.2601910021415
 31
0.0
  0
ENDBLK
  5
3864
  8
0
  0
BLOCK
  8
0
  2
*D620
 70
     1
 10
0.0
 20
0.0
 30
0.0
  3
*D620
  1

  0
LINE
  5
3880
  8
DIMENSIONS
  6
BYBLOCK
 62
     0
 10
192.9071324603663
 20
1705.500857346834
 30
0.0
 11
192.9071324603663
 21
1772.19592165124
 31
0.0
  0
LINE
  5
3881
  8
DIMENSIONS
  6
BYBLOCK
 62
     0
 10
642.9071324603663
 20
1705.500857346834
 30
0.0
 11
642.9071324603663
 21
1772.19592165124
 31
0.0
  0
LINE
  5
3882
  8
DIMENSIONS
  6
BYBLOCK
 62
     0
 10
197.9071324603663
 20
1772.01592165124
 30
0.0
 11
637.9071324603663
 21
1772.01592165124
 31
0.0
  0
SOLID
  5
3883
  8
DIMENSIONS
 62
     0
 10
197.9071324603663
 20
1772.849254984573
 30
0.0
 11
197.9071324603663
 21
1771.182588317907
 31
0.0
 12
192.9071324603663
 22
1772.01592165124
 32
0.0
 13
192.9071324603663
 23
1772.01592165124
 33
0.0
  0
SOLID
  5
3884
  8
DIMENSIONS
 62
     0
 10
637.9071324603663
 20
1771.182588317907
 30
0.0
 11
637.9071324603663
 21
1772.849254984573
 31
0.0
 12
642.9071324603663
 22
1772.01592165124
 32
0.0
 13
642.9071324603663
 23
1772.01592165124
 33
0.0
  0
TEXT
  5
3885
  8
DIMENSIONS
  6
CONTINUOUS
 62
     5
 10
400.6296324603663
 20
1774.41092165124
 30
0.0
 40
5.0
  1
450 [17.72]
  0
POINT
  5
3886
  8
DEFPOINTS
 62
     0
 10
192.9071324603663
 20
1704.000857346834
 30
0.0
  0
POINT
  5
3887
  8
DEFPOINTS
 62
     0
 10
642.9071324603663
 20
1704.000857346834
 30
0.0
  0
POINT
  5
3888
  8
DEFPOINTS
 62
     0
 10
642.9071324603663
 20
1772.01592165124
 30
0.0
  0
ENDBLK
  5
387F
  8
0
  0
BLOCK
  8
0
  2
*D621
 70
     1
 10
0.0
 20
0.0
 30
0.0
  3
*D621
  1

  0
LINE
  5
388F
  8
DIMENSIONS
  6
BYBLOCK
 62
     0
 10
655.4071324603661
 20
1715.500857346834
 30
0.0
 11
655.4071324603661
 21
1789.556001780331
 31
0.0
  0
LINE
  5
3890
  8
DIMENSIONS
  6
BYBLOCK
 62
     0
 10
180.4071324603663
 20
1715.500857346834
 30
0.0
 11
180.4071324603663
 21
1789.556001780331
 31
0.0
  0
LINE
  5
3891
  8
DIMENSIONS
  6
BYBLOCK
 62
     0
 10
650.4071324603661
 20
1789.376001780331
 30
0.0
 11
185.4071324603663
 21
1789.376001780331
 31
0.0
  0
SOLID
  5
3892
  8
DIMENSIONS
 62
     0
 10
650.4071324603661
 20
1788.542668446998
 30
0.0
 11
650.4071324603661
 21
1790.209335113665
 31
0.0
 12
655.4071324603661
 22
1789.376001780331
 32
0.0
 13
655.4071324603661
 23
1789.376001780331
 33
0.0
  0
SOLID
  5
3893
  8
DIMENSIONS
 62
     0
 10
185.4071324603663
 20
1790.209335113665
 30
0.0
 11
185.4071324603663
 21
1788.542668446998
 31
0.0
 12
180.4071324603663
 22
1789.376001780331
 32
0.0
 13
180.4071324603663
 23
1789.376001780331
 33
0.0
  0
TEXT
  5
3894
  8
DIMENSIONS
  6
CONTINUOUS
 62
     5
 10
400.6296324603662
 20
1791.771001780332
 30
0.0
 40
5.0
  1
475 [18.70]
  0
POINT
  5
3895
  8
DEFPOINTS
 62
     0
 10
655.4071324603661
 20
1714.000857346834
 30
0.0
  0
POINT
  5
3896
  8
DEFPOINTS
 62
     0
 10
180.4071324603663
 20
1714.000857346834
 30
0.0
  0
POINT
  5
3897
  8
DEFPOINTS
 62
     0
 10
180.4071324603663
 20
1789.376001780331
 30
0.0
  0
ENDBLK
  5
388E
  8
0
  0
BLOCK
  8
0
  2
*D622
 70
     1
 10
0.0
 20
0.0
 30
0.0
  3
*D622
  1

  0
LINE
  5
389E
  8
DIMENSIONS
  6
BYBLOCK
 62
     0
 10
167.9071324603663
 20
1755.500857346834
 30
0.0
 11
167.9071324603663
 21
1805.951633013362
 31
0.0
  0
LINE
  5
389F
  8
DIMENSIONS
  6
BYBLOCK
 62
     0
 10
667.9071324603661
 20
1755.500857346834
 30
0.0
 11
667.9071324603661
 21
1805.951633013362
 31
0.0
  0
LINE
  5
38A0
  8
DIMENSIONS
  6
BYBLOCK
 62
     0
 10
172.9071324603663
 20
1805.771633013362
 30
0.0
 11
662.9071324603661
 21
1805.771633013362
 31
0.0
  0
SOLID
  5
38A1
  8
DIMENSIONS
 62
     0
 10
172.9071324603663
 20
1806.604966346695
 30
0.0
 11
172.9071324603663
 21
1804.938299680028
 31
0.0
 12
167.9071324603663
 22
1805.771633013362
 32
0.0
 13
167.9071324603663
 23
1805.771633013362
 33
0.0
  0
SOLID
  5
38A2
  8
DIMENSIONS
 62
     0
 10
662.9071324603661
 20
1804.938299680028
 30
0.0
 11
662.9071324603661
 21
1806.604966346695
 31
0.0
 12
667.9071324603661
 22
1805.771633013362
 32
0.0
 13
667.9071324603661
 23
1805.771633013362
 33
0.0
  0
TEXT
  5
38A3
  8
DIMENSIONS
  6
CONTINUOUS
 62
     5
 10
400.5296324603662
 20
1808.166633013362
 30
0.0
 40
5.0
  1
500 [19.69]
  0
POINT
  5
38A4
  8
DEFPOINTS
 62
     0
 10
167.9071324603663
 20
1754.000857346834
 30
0.0
  0
POINT
  5
38A5
  8
DEFPOINTS
 62
     0
 10
667.9071324603661
 20
1754.000857346834
 30
0.0
  0
POINT
  5
38A6
  8
DEFPOINTS
 62
     0
 10
667.9071324603661
 20
1805.771633013362
 30
0.0
  0
ENDBLK
  5
389D
  8
0
  0
BLOCK
  8
0
  2
*D623
 70
     1
 10
0.0
 20
0.0
 30
0.0
  3
*D623
  1

  0
LINE
  5
38AD
  8
DIMENSIONS
  6
BYBLOCK
 62
     0
 10
166.4071324603663
 20
1754.000857346834
 30
0.0
 11
151.1549018984158
 21
1754.000857346834
 31
0.0
  0
LINE
  5
38AE
  8
DIMENSIONS
  6
BYBLOCK
 62
     0
 10
178.9071324603663
 20
1714.000857346834
 30
0.0
 11
151.1549018984158
 21
1714.000857346834
 31
0.0
  0
LINE
  5
38AF
  8
DIMENSIONS
  6
BYBLOCK
 62
     0
 10
151.3349018984158
 20
1749.000857346834
 30
0.0
 11
151.3349018984158
 21
1719.000857346834
 31
0.0
  0
SOLID
  5
38B0
  8
DIMENSIONS
 62
     0
 10
152.1682352317492
 20
1749.000857346834
 30
0.0
 11
150.5015685650825
 21
1749.000857346834
 31
0.0
 12
151.3349018984158
 22
1754.000857346834
 32
0.0
 13
151.3349018984158
 23
1754.000857346834
 33
0.0
  0
SOLID
  5
38B1
  8
DIMENSIONS
 62
     0
 10
150.5015685650825
 20
1719.000857346834
 30
0.0
 11
152.1682352317492
 21
1719.000857346834
 31
0.0
 12
151.3349018984158
 22
1714.000857346834
 32
0.0
 13
151.3349018984158
 23
1714.000857346834
 33
0.0
  0
TEXT
  5
38B2
  8
DIMENSIONS
  6
CONTINUOUS
 62
     5
 10
148.9399018984157
 20
1720.603357346834
 30
0.0
 40
5.0
  1
40 [1.57]
 50
90.0
  0
POINT
  5
38B3
  8
DEFPOINTS
 62
     0
 10
167.9071324603663
 20
1754.000857346834
 30
0.0
  0
POINT
  5
38B4
  8
DEFPOINTS
 62
     0
 10
180.4071324603663
 20
1714.000857346834
 30
0.0
  0
POINT
  5
38B5
  8
DEFPOINTS
 62
     0
 10
151.3349018984158
 20
1714.000857346834
 30
0.0
  0
ENDBLK
  5
38AC
  8
0
  0
BLOCK
  8
0
  2
*D624
 70
     1
 10
0.0
 20
0.0
 30
0.0
  3
*D624
  1

  0
LINE
  5
38BC
  8
DIMENSIONS
  6
BYBLOCK
 62
     0
 10
178.9071324603663
 20
1714.000857346834
 30
0.0
 11
151.1549018984158
 21
1714.000857346834
 31
0.0
  0
LINE
  5
38BD
  8
DIMENSIONS
  6
BYBLOCK
 62
     0
 10
178.9071324603663
 20
1509.000857346835
 30
0.0
 11
151.1549018984158
 21
1509.000857346835
 31
0.0
  0
LINE
  5
38BE
  8
DIMENSIONS
  6
BYBLOCK
 62
     0
 10
151.3349018984158
 20
1709.000857346834
 30
0.0
 11
151.3349018984158
 21
1514.000857346835
 31
0.0
  0
SOLID
  5
38BF
  8
DIMENSIONS
 62
     0
 10
152.1682352317492
 20
1709.000857346834
 30
0.0
 11
150.5015685650825
 21
1709.000857346834
 31
0.0
 12
151.3349018984158
 22
1714.000857346834
 32
0.0
 13
151.3349018984158
 23
1714.000857346834
 33
0.0
  0
SOLID
  5
38C0
  8
DIMENSIONS
 62
     0
 10
150.5015685650825
 20
1514.000857346835
 30
0.0
 11
152.1682352317492
 21
1514.000857346835
 31
0.0
 12
151.3349018984158
 22
1509.000857346835
 32
0.0
 13
151.3349018984158
 23
1509.000857346835
 33
0.0
  0
TEXT
  5
38C1
  8
DIMENSIONS
  6
CONTINUOUS
 62
     5
 10
148.9399018984157
 20
1596.105857346834
 30
0.0
 40
5.0
  1
205 [8.07]
 50
90.0
  0
POINT
  5
38C2
  8
DEFPOINTS
 62
     0
 10
180.4071324603663
 20
1714.000857346834
 30
0.0
  0
POINT
  5
38C3
  8
DEFPOINTS
 62
     0
 10
180.4071324603663
 20
1509.000857346835
 30
0.0
  0
POINT
  5
38C4
  8
DEFPOINTS
 62
     0
 10
151.3349018984158
 20
1509.000857346835
 30
0.0
  0
ENDBLK
  5
38BB
  8
0
  0
BLOCK
  8
0
  2
*D625
 70
     1
 10
0.0
 20
0.0
 30
0.0
  3
*D625
  1

  0
LINE
  5
38CB
  8
DIMENSIONS
  6
BYBLOCK
 62
     0
 10
178.9071324603663
 20
1509.000857346835
 30
0.0
 11
151.1549018984158
 21
1509.000857346835
 31
0.0
  0
LINE
  5
38CC
  8
DIMENSIONS
  6
BYBLOCK
 62
     0
 10
178.9071324603663
 20
1334.000857346835
 30
0.0
 11
151.1549018984158
 21
1334.000857346835
 31
0.0
  0
LINE
  5
38CD
  8
DIMENSIONS
  6
BYBLOCK
 62
     0
 10
151.3349018984158
 20
1504.000857346835
 30
0.0
 11
151.3349018984158
 21
1339.000857346835
 31
0.0
  0
SOLID
  5
38CE
  8
DIMENSIONS
 62
     0
 10
152.1682352317492
 20
1504.000857346835
 30
0.0
 11
150.5015685650825
 21
1504.000857346835
 31
0.0
 12
151.3349018984158
 22
1509.000857346835
 32
0.0
 13
151.3349018984158
 23
1509.000857346835
 33
0.0
  0
SOLID
  5
38CF
  8
DIMENSIONS
 62
     0
 10
150.5015685650825
 20
1339.000857346835
 30
0.0
 11
152.1682352317492
 21
1339.000857346835
 31
0.0
 12
151.3349018984158
 22
1334.000857346835
 32
0.0
 13
151.3349018984158
 23
1334.000857346835
 33
0.0
  0
TEXT
  5
38D0
  8
DIMENSIONS
  6
CONTINUOUS
 62
     5
 10
148.9399018984157
 20
1405.828357346835
 30
0.0
 40
5.0
  1
175 [6.89]
 50
90.0
  0
POINT
  5
38D1
  8
DEFPOINTS
 62
     0
 10
180.4071324603663
 20
1509.000857346835
 30
0.0
  0
POINT
  5
38D2
  8
DEFPOINTS
 62
     0
 10
180.4071324603663
 20
1334.000857346835
 30
0.0
  0
POINT
  5
38D3
  8
DEFPOINTS
 62
     0
 10
151.3349018984158
 20
1334.000857346835
 30
0.0
  0
ENDBLK
  5
38CA
  8
0
  0
BLOCK
  8
0
  2
*D626
 70
     1
 10
0.0
 20
0.0
 30
0.0
  3
*D626
  1

  0
LINE
  5
38DA
  8
DIMENSIONS
  6
BYBLOCK
 62
     0
 10
178.9071324603663
 20
1334.000857346835
 30
0.0
 11
151.1549018984158
 21
1334.000857346835
 31
0.0
  0
LINE
  5
38DB
  8
DIMENSIONS
  6
BYBLOCK
 62
     0
 10
178.9071324603663
 20
1154.000857346835
 30
0.0
 11
151.1549018984158
 21
1154.000857346835
 31
0.0
  0
LINE
  5
38DC
  8
DIMENSIONS
  6
BYBLOCK
 62
     0
 10
151.3349018984158
 20
1329.000857346835
 30
0.0
 11
151.3349018984158
 21
1159.000857346835
 31
0.0
  0
SOLID
  5
38DD
  8
DIMENSIONS
 62
     0
 10
152.1682352317492
 20
1329.000857346835
 30
0.0
 11
150.5015685650825
 21
1329.000857346835
 31
0.0
 12
151.3349018984158
 22
1334.000857346835
 32
0.0
 13
151.3349018984158
 23
1334.000857346835
 33
0.0
  0
SOLID
  5
38DE
  8
DIMENSIONS
 62
     0
 10
150.5015685650825
 20
1159.000857346835
 30
0.0
 11
152.1682352317492
 21
1159.000857346835
 31
0.0
 12
151.3349018984158
 22
1154.000857346835
 32
0.0
 13
151.3349018984158
 23
1154.000857346835
 33
0.0
  0
TEXT
  5
38DF
  8
DIMENSIONS
  6
CONTINUOUS
 62
     5
 10
148.9399018984157
 20
1228.328357346835
 30
0.0
 40
5.0
  1
180 [7.09]
 50
90.0
  0
POINT
  5
38E0
  8
DEFPOINTS
 62
     0
 10
180.4071324603663
 20
1334.000857346835
 30
0.0
  0
POINT
  5
38E1
  8
DEFPOINTS
 62
     0
 10
180.4071324603663
 20
1154.000857346835
 30
0.0
  0
POINT
  5
38E2
  8
DEFPOINTS
 62
     0
 10
151.3349018984158
 20
1154.000857346835
 30
0.0
  0
ENDBLK
  5
38D9
  8
0
  0
BLOCK
  8
0
  2
*D627
 70
     1
 10
0.0
 20
0.0
 30
0.0
  3
*D627
  1

  0
LINE
  5
38E9
  8
DIMENSIONS
  6
BYBLOCK
 62
     0
 10
178.9071324603663
 20
1154.000857346835
 30
0.0
 11
151.1549018984158
 21
1154.000857346835
 31
0.0
  0
LINE
  5
38EA
  8
DIMENSIONS
  6
BYBLOCK
 62
     0
 10
178.9071324603663
 20
973.0008573468347
 30
0.0
 11
151.1549018984158
 21
973.0008573468347
 31
0.0
  0
LINE
  5
38EB
  8
DIMENSIONS
  6
BYBLOCK
 62
     0
 10
151.3349018984158
 20
1149.000857346835
 30
0.0
 11
151.3349018984158
 21
978.0008573468347
 31
0.0
  0
SOLID
  5
38EC
  8
DIMENSIONS
 62
     0
 10
152.1682352317492
 20
1149.000857346835
 30
0.0
 11
150.5015685650825
 21
1149.000857346835
 31
0.0
 12
151.3349018984158
 22
1154.000857346835
 32
0.0
 13
151.3349018984158
 23
1154.000857346835
 33
0.0
  0
SOLID
  5
38ED
  8
DIMENSIONS
 62
     0
 10
150.5015685650825
 20
978.0008573468347
 30
0.0
 11
152.1682352317492
 21
978.0008573468347
 31
0.0
 12
151.3349018984158
 22
973.0008573468347
 32
0.0
 13
151.3349018984158
 23
973.0008573468347
 33
0.0
  0
TEXT
  5
38EE
  8
DIMENSIONS
  6
CONTINUOUS
 62
     5
 10
148.9399018984157
 20
1047.828357346835
 30
0.0
 40
5.0
  1
181 [7.13]
 50
90.0
  0
POINT
  5
38EF
  8
DEFPOINTS
 62
     0
 10
180.4071324603663
 20
1154.000857346835
 30
0.0
  0
POINT
  5
38F0
  8
DEFPOINTS
 62
     0
 10
180.4071324603663
 20
973.0008573468347
 30
0.0
  0
POINT
  5
38F1
  8
DEFPOINTS
 62
     0
 10
151.3349018984158
 20
973.0008573468347
 30
0.0
  0
ENDBLK
  5
38E8
  8
0
  0
BLOCK
  8
0
  2
*D628
 70
     1
 10
0.0
 20
0.0
 30
0.0
  3
*D628
  1

  0
LINE
  5
38F8
  8
DIMENSIONS
  6
BYBLOCK
 62
     0
 10
178.9071324603663
 20
973.0008573468347
 30
0.0
 11
151.1549018984158
 21
973.0008573468347
 31
0.0
  0
LINE
  5
38F9
  8
DIMENSIONS
  6
BYBLOCK
 62
     0
 10
178.9071324603663
 20
754.0008573468347
 30
0.0
 11
151.1549018984158
 21
754.0008573468347
 31
0.0
  0
LINE
  5
38FA
  8
DIMENSIONS
  6
BYBLOCK
 62
     0
 10
151.3349018984158
 20
968.0008573468347
 30
0.0
 11
151.3349018984158
 21
759.0008573468347
 31
0.0
  0
SOLID
  5
38FB
  8
DIMENSIONS
 62
     0
 10
152.1682352317492
 20
968.0008573468347
 30
0.0
 11
150.5015685650825
 21
968.0008573468347
 31
0.0
 12
151.3349018984158
 22
973.0008573468347
 32
0.0
 13
151.3349018984158
 23
973.0008573468347
 33
0.0
  0
SOLID
  5
38FC
  8
DIMENSIONS
 62
     0
 10
150.5015685650825
 20
759.0008573468347
 30
0.0
 11
152.1682352317492
 21
759.0008573468347
 31
0.0
 12
151.3349018984158
 22
754.0008573468347
 32
0.0
 13
151.3349018984158
 23
754.0008573468347
 33
0.0
  0
TEXT
  5
38FD
  8
DIMENSIONS
  6
CONTINUOUS
 62
     5
 10
148.9399018984158
 20
848.1058573468347
 30
0.0
 40
5.0
  1
219 [8.62]
 50
90.0
  0
POINT
  5
38FE
  8
DEFPOINTS
 62
     0
 10
180.4071324603663
 20
973.0008573468347
 30
0.0
  0
POINT
  5
38FF
  8
DEFPOINTS
 62
     0
 10
180.4071324603663
 20
754.0008573468347
 30
0.0
  0
POINT
  5
3900
  8
DEFPOINTS
 62
     0
 10
151.3349018984158
 20
754.0008573468347
 30
0.0
  0
ENDBLK
  5
38F7
  8
0
  0
BLOCK
  8
0
  2
*D629
 70
     1
 10
0.0
 20
0.0
 30
0.0
  3
*D629
  1

  0
LINE
  5
3907
  8
DIMENSIONS
  6
BYBLOCK
 62
     0
 10
178.9071324603663
 20
754.0008573468347
 30
0.0
 11
151.1549018984158
 21
754.0008573468347
 31
0.0
  0
LINE
  5
3908
  8
DIMENSIONS
  6
BYBLOCK
 62
     0
 10
178.9071324603663
 20
479.0008573468347
 30
0.0
 11
151.1549018984158
 21
479.0008573468347
 31
0.0
  0
LINE
  5
3909
  8
DIMENSIONS
  6
BYBLOCK
 62
     0
 10
151.3349018984158
 20
749.0008573468347
 30
0.0
 11
151.3349018984158
 21
484.0008573468347
 31
0.0
  0
SOLID
  5
390A
  8
DIMENSIONS
 62
     0
 10
152.1682352317492
 20
749.0008573468347
 30
0.0
 11
150.5015685650825
 21
749.0008573468347
 31
0.0
 12
151.3349018984158
 22
754.0008573468347
 32
0.0
 13
151.3349018984158
 23
754.0008573468347
 33
0.0
  0
SOLID
  5
390B
  8
DIMENSIONS
 62
     0
 10
150.5015685650824
 20
484.0008573468347
 30
0.0
 11
152.1682352317491
 21
484.0008573468347
 31
0.0
 12
151.3349018984158
 22
479.0008573468347
 32
0.0
 13
151.3349018984158
 23
479.0008573468347
 33
0.0
  0
TEXT
  5
390C
  8
DIMENSIONS
  6
CONTINUOUS
 62
     5
 10
148.9399018984158
 20
599.1658573468346
 30
0.0
 40
5.0
  1
275 [10.83]
 50
90.0
  0
POINT
  5
390D
  8
DEFPOINTS
 62
     0
 10
180.4071324603663
 20
754.0008573468347
 30
0.0
  0
POINT
  5
390E
  8
DEFPOINTS
 62
     0
 10
180.4071324603663
 20
479.0008573468347
 30
0.0
  0
POINT
  5
390F
  8
DEFPOINTS
 62
     0
 10
151.3349018984158
 20
479.0008573468347
 30
0.0
  0
ENDBLK
  5
3906
  8
0
  0
BLOCK
  8
0
  2
*D630
 70
     1
 10
0.0
 20
0.0
 30
0.0
  3
*D630
  1

  0
LINE
  5
3916
  8
DIMENSIONS
  6
BYBLOCK
 62
     0
 10
178.9071324603663
 20
479.0008573468347
 30
0.0
 11
151.1549018984158
 21
479.0008573468347
 31
0.0
  0
LINE
  5
3917
  8
DIMENSIONS
  6
BYBLOCK
 62
     0
 10
166.4071324603663
 20
434.0008573468347
 30
0.0
 11
151.1549018984158
 21
434.0008573468347
 31
0.0
  0
LINE
  5
3918
  8
DIMENSIONS
  6
BYBLOCK
 62
     0
 10
151.3349018984158
 20
474.0008573468347
 30
0.0
 11
151.3349018984158
 21
439.0008573468347
 31
0.0
  0
SOLID
  5
3919
  8
DIMENSIONS
 62
     0
 10
152.1682352317491
 20
474.0008573468347
 30
0.0
 11
150.5015685650824
 21
474.0008573468347
 31
0.0
 12
151.3349018984158
 22
479.0008573468347
 32
0.0
 13
151.3349018984158
 23
479.0008573468347
 33
0.0
  0
SOLID
  5
391A
  8
DIMENSIONS
 62
     0
 10
150.5015685650824
 20
439.0008573468347
 30
0.0
 11
152.1682352317491
 21
439.0008573468347
 31
0.0
 12
151.3349018984158
 22
434.0008573468347
 32
0.0
 13
151.3349018984158
 23
434.0008573468347
 33
0.0
  0
TEXT
  5
391B
  8
DIMENSIONS
  6
CONTINUOUS
 62
     5
 10
148.9399018984158
 20
443.1033573468347
 30
0.0
 40
5.0
  1
45 [1.77]
 50
90.0
  0
POINT
  5
391C
  8
DEFPOINTS
 62
     0
 10
180.4071324603663
 20
479.0008573468347
 30
0.0
  0
POINT
  5
391D
  8
DEFPOINTS
 62
     0
 10
167.9071324603663
 20
434.0008573468347
 30
0.0
  0
POINT
  5
391E
  8
DEFPOINTS
 62
     0
 10
151.3349018984158
 20
434.0008573468347
 30
0.0
  0
ENDBLK
  5
3915
  8
0
  0
BLOCK
  8
0
  2
*D631
 70
     1
 10
0.0
 20
0.0
 30
0.0
  3
*D631
  1

  0
LINE
  5
3925
  8
DIMENSIONS
  6
BYBLOCK
 62
     0
 10
669.4071324603661
 20
1754.000857346834
 30
0.0
 11
687.798010725277
 21
1754.000857346834
 31
0.0
  0
LINE
  5
3926
  8
DIMENSIONS
  6
BYBLOCK
 62
     0
 10
644.4071324603663
 20
1704.000857346834
 30
0.0
 11
687.798010725277
 21
1704.000857346834
 31
0.0
  0
LINE
  5
3927
  8
DIMENSIONS
  6
BYBLOCK
 62
     0
 10
687.618010725277
 20
1749.000857346834
 30
0.0
 11
687.618010725277
 21
1709.000857346834
 31
0.0
  0
SOLID
  5
3928
  8
DIMENSIONS
 62
     0
 10
688.4513440586104
 20
1749.000857346834
 30
0.0
 11
686.7846773919437
 21
1749.000857346834
 31
0.0
 12
687.618010725277
 22
1754.000857346834
 32
0.0
 13
687.618010725277
 23
1754.000857346834
 33
0.0
  0
SOLID
  5
3929
  8
DIMENSIONS
 62
     0
 10
686.7846773919437
 20
1709.000857346834
 30
0.0
 11
688.4513440586104
 21
1709.000857346834
 31
0.0
 12
687.618010725277
 22
1704.000857346834
 32
0.0
 13
687.618010725277
 23
1704.000857346834
 33
0.0
  0
TEXT
  5
392A
  8
DIMENSIONS
  6
CONTINUOUS
 62
     5
 10
685.2230107252767
 20
1715.503357346834
 30
0.0
 40
5.0
  1
50 [1.97]
 50
90.0
  0
POINT
  5
392B
  8
DEFPOINTS
 62
     0
 10
667.9071324603661
 20
1754.000857346834
 30
0.0
  0
POINT
  5
392C
  8
DEFPOINTS
 62
     0
 10
642.9071324603663
 20
1704.000857346834
 30
0.0
  0
POINT
  5
392D
  8
DEFPOINTS
 62
     0
 10
687.618010725277
 20
1704.000857346834
 30
0.0
  0
ENDBLK
  5
3924
  8
0
  0
BLOCK
  8
0
  2
*D632
 70
     1
 10
0.0
 20
0.0
 30
0.0
  3
*D632
  1

  0
LINE
  5
3934
  8
DIMENSIONS
  6
BYBLOCK
 62
     0
 10
644.4071324603663
 20
1704.000857346834
 30
0.0
 11
687.798010725277
 21
1704.000857346834
 31
0.0
  0
LINE
  5
3935
  8
DIMENSIONS
  6
BYBLOCK
 62
     0
 10
644.4071324603663
 20
1419.000857346835
 30
0.0
 11
687.798010725277
 21
1419.000857346835
 31
0.0
  0
LINE
  5
3936
  8
DIMENSIONS
  6
BYBLOCK
 62
     0
 10
687.618010725277
 20
1699.000857346834
 30
0.0
 11
687.618010725277
 21
1424.000857346835
 31
0.0
  0
SOLID
  5
3937
  8
DIMENSIONS
 62
     0
 10
688.4513440586104
 20
1699.000857346834
 30
0.0
 11
686.7846773919437
 21
1699.000857346834
 31
0.0
 12
687.618010725277
 22
1704.000857346834
 32
0.0
 13
687.618010725277
 23
1704.000857346834
 33
0.0
  0
SOLID
  5
3938
  8
DIMENSIONS
 62
     0
 10
686.7846773919437
 20
1424.000857346835
 30
0.0
 11
688.4513440586104
 21
1424.000857346835
 31
0.0
 12
687.618010725277
 22
1419.000857346835
 32
0.0
 13
687.618010725277
 23
1419.000857346835
 33
0.0
  0
TEXT
  5
3939
  8
DIMENSIONS
  6
CONTINUOUS
 62
     5
 10
685.2230107252767
 20
1544.165857346834
 30
0.0
 40
5.0
  1
285 [11.22]
 50
90.0
  0
POINT
  5
393A
  8
DEFPOINTS
 62
     0
 10
642.9071324603663
 20
1704.000857346834
 30
0.0
  0
POINT
  5
393B
  8
DEFPOINTS
 62
     0
 10
642.9071324603663
 20
1419.000857346835
 30
0.0
  0
POINT
  5
393C
  8
DEFPOINTS
 62
     0
 10
687.618010725277
 20
1419.000857346835
 30
0.0
  0
ENDBLK
  5
3933
  8
0
  0
BLOCK
  8
0
  2
*D633
 70
     1
 10
0.0
 20
0.0
 30
0.0
  3
*D633
  1

  0
LINE
  5
3943
  8
DIMENSIONS
  6
BYBLOCK
 62
     0
 10
644.4071324603663
 20
1419.000857346835
 30
0.0
 11
687.798010725277
 21
1419.000857346835
 31
0.0
  0
LINE
  5
3944
  8
DIMENSIONS
  6
BYBLOCK
 62
     0
 10
644.4071324603663
 20
1283.000857346835
 30
0.0
 11
687.798010725277
 21
1283.000857346835
 31
0.0
  0
LINE
  5
3945
  8
DIMENSIONS
  6
BYBLOCK
 62
     0
 10
687.618010725277
 20
1414.000857346835
 30
0.0
 11
687.618010725277
 21
1288.000857346835
 31
0.0
  0
SOLID
  5
3946
  8
DIMENSIONS
 62
     0
 10
688.4513440586104
 20
1414.000857346835
 30
0.0
 11
686.7846773919437
 21
1414.000857346835
 31
0.0
 12
687.618010725277
 22
1419.000857346835
 32
0.0
 13
687.618010725277
 23
1419.000857346835
 33
0.0
  0
SOLID
  5
3947
  8
DIMENSIONS
 62
     0
 10
686.7846773919437
 20
1288.000857346835
 30
0.0
 11
688.4513440586104
 21
1288.000857346835
 31
0.0
 12
687.618010725277
 22
1283.000857346835
 32
0.0
 13
687.618010725277
 23
1283.000857346835
 33
0.0
  0
TEXT
  5
3948
  8
DIMENSIONS
  6
CONTINUOUS
 62
     5
 10
685.2230107252769
 20
1335.328357346835
 30
0.0
 40
5.0
  1
136 [5.35]
 50
90.0
  0
POINT
  5
3949
  8
DEFPOINTS
 62
     0
 10
642.9071324603663
 20
1419.000857346835
 30
0.0
  0
POINT
  5
394A
  8
DEFPOINTS
 62
     0
 10
642.9071324603663
 20
1283.000857346835
 30
0.0
  0
POINT
  5
394B
  8
DEFPOINTS
 62
     0
 10
687.618010725277
 20
1283.000857346835
 30
0.0
  0
ENDBLK
  5
3942
  8
0
  0
BLOCK
  8
0
  2
*D634
 70
     1
 10
0.0
 20
0.0
 30
0.0
  3
*D634
  1

  0
LINE
  5
3952
  8
DIMENSIONS
  6
BYBLOCK
 62
     0
 10
644.4071324603663
 20
1283.000857346835
 30
0.0
 11
687.798010725277
 21
1283.000857346835
 31
0.0
  0
LINE
  5
3953
  8
DIMENSIONS
  6
BYBLOCK
 62
     0
 10
644.4071324603663
 20
989.0008573468349
 30
0.0
 11
687.798010725277
 21
989.0008573468349
 31
0.0
  0
LINE
  5
3954
  8
DIMENSIONS
  6
BYBLOCK
 62
     0
 10
687.618010725277
 20
1278.000857346835
 30
0.0
 11
687.618010725277
 21
994.0008573468349
 31
0.0
  0
SOLID
  5
3955
  8
DIMENSIONS
 62
     0
 10
688.4513440586104
 20
1278.000857346835
 30
0.0
 11
686.7846773919437
 21
1278.000857346835
 31
0.0
 12
687.618010725277
 22
1283.000857346835
 32
0.0
 13
687.618010725277
 23
1283.000857346835
 33
0.0
  0
SOLID
  5
3956
  8
DIMENSIONS
 62
     0
 10
686.7846773919437
 20
994.0008573468349
 30
0.0
 11
688.4513440586104
 21
994.0008573468349
 31
0.0
 12
687.618010725277
 22
989.0008573468349
 32
0.0
 13
687.618010725277
 23
989.0008573468349
 33
0.0
  0
TEXT
  5
3957
  8
DIMENSIONS
  6
CONTINUOUS
 62
     5
 10
685.2230107252767
 20
1118.665857346835
 30
0.0
 40
5.0
  1
294 [11.57]
 50
90.0
  0
POINT
  5
3958
  8
DEFPOINTS
 62
     0
 10
642.9071324603663
 20
1283.000857346835
 30
0.0
  0
POINT
  5
3959
  8
DEFPOINTS
 62
     0
 10
642.9071324603663
 20
989.0008573468349
 30
0.0
  0
POINT
  5
395A
  8
DEFPOINTS
 62
     0
 10
687.618010725277
 20
989.0008573468349
 30
0.0
  0
ENDBLK
  5
3951
  8
0
  0
BLOCK
  8
0
  2
*D635
 70
     1
 10
0.0
 20
0.0
 30
0.0
  3
*D635
  1

  0
LINE
  5
3961
  8
DIMENSIONS
  6
BYBLOCK
 62
     0
 10
644.4071324603663
 20
989.0008573468349
 30
0.0
 11
687.798010725277
 21
989.0008573468349
 31
0.0
  0
LINE
  5
3962
  8
DIMENSIONS
  6
BYBLOCK
 62
     0
 10
669.4071324603661
 20
434.0008573468347
 30
0.0
 11
687.798010725277
 21
434.0008573468347
 31
0.0
  0
LINE
  5
3963
  8
DIMENSIONS
  6
BYBLOCK
 62
     0
 10
687.618010725277
 20
984.0008573468349
 30
0.0
 11
687.618010725277
 21
439.0008573468347
 31
0.0
  0
SOLID
  5
3964
  8
DIMENSIONS
 62
     0
 10
688.4513440586104
 20
984.0008573468349
 30
0.0
 11
686.7846773919437
 21
984.0008573468349
 31
0.0
 12
687.618010725277
 22
989.0008573468349
 32
0.0
 13
687.618010725277
 23
989.0008573468349
 33
0.0
  0
SOLID
  5
3965
  8
DIMENSIONS
 62
     0
 10
686.7846773919437
 20
439.0008573468347
 30
0.0
 11
688.4513440586104
 21
439.0008573468347
 31
0.0
 12
687.618010725277
 22
434.0008573468347
 32
0.0
 13
687.618010725277
 23
434.0008573468347
 33
0.0
  0
TEXT
  5
3966
  8
DIMENSIONS
  6
CONTINUOUS
 62
     5
 10
685.2230107252769
 20
694.1233573468348
 30
0.0
 40
5.0
  1
555 [21.85]
 50
90.0
  0
POINT
  5
3967
  8
DEFPOINTS
 62
     0
 10
642.9071324603663
 20
989.0008573468349
 30
0.0
  0
POINT
  5
3968
  8
DEFPOINTS
 62
     0
 10
667.9071324603661
 20
434.0008573468347
 30
0.0
  0
POINT
  5
3969
  8
DEFPOINTS
 62
     0
 10
687.618010725277
 20
434.0008573468347
 30
0.0
  0
ENDBLK
  5
3960
  8
0
  0
BLOCK
  8
0
  2
*D636
 70
     1
 10
0.0
 20
0.0
 30
0.0
  3
*D636
  1

  0
LINE
  5
3970
  8
DIMENSIONS
  6
BYBLOCK
 62
     0
 10
166.4071324603663
 20
434.0008573468347
 30
0.0
 11
134.8994160869384
 21
434.0008573468347
 31
0.0
  0
LINE
  5
3971
  8
DIMENSIONS
  6
BYBLOCK
 62
     0
 10
166.4071324603663
 20
1754.000857346834
 30
0.0
 11
134.8994160869385
 21
1754.000857346834
 31
0.0
  0
LINE
  5
3972
  8
DIMENSIONS
  6
BYBLOCK
 62
     0
 10
135.0794160869384
 20
439.0008573468347
 30
0.0
 11
135.0794160869385
 21
1749.000857346834
 31
0.0
  0
SOLID
  5
3973
  8
DIMENSIONS
 62
     0
 10
134.2460827536051
 20
439.0008573468347
 30
0.0
 11
135.9127494202718
 21
439.0008573468347
 31
0.0
 12
135.0794160869384
 22
434.0008573468347
 32
0.0
 13
135.0794160869384
 23
434.0008573468347
 33
0.0
  0
SOLID
  5
3974
  8
DIMENSIONS
 62
     0
 10
135.9127494202719
 20
1749.000857346834
 30
0.0
 11
134.2460827536052
 21
1749.000857346834
 31
0.0
 12
135.0794160869385
 22
1754.000857346834
 32
0.0
 13
135.0794160869385
 23
1754.000857346834
 33
0.0
  0
TEXT
  5
3975
  8
DIMENSIONS
  6
CONTINUOUS
 62
     5
 10
132.6844160869382
 20
1074.448357346834
 30
0.0
 40
5.0
  1
1320 [51.97]
 50
90.0
  0
POINT
  5
3976
  8
DEFPOINTS
 62
     0
 10
167.9071324603663
 20
434.0008573468347
 30
0.0
  0
POINT
  5
3977
  8
DEFPOINTS
 62
     0
 10
167.9071324603663
 20
1754.000857346834
 30
0.0
  0
POINT
  5
3978
  8
DEFPOINTS
 62
     0
 10
135.0794160869385
 20
1754.000857346834
 30
0.0
  0
ENDBLK
  5
396F
  8
0
  0
BLOCK
  8
0
  2
*D637
 70
     1
 10
0.0
 20
0.0
 30
0.0
  3
*D637
  1

  0
LINE
  5
397F
  8
DIMENSIONS
  6
BYBLOCK
 62
     0
 10
647.4071463067343
 20
478.985973069965
 30
0.0
 11
607.0022162395471
 21
478.9107981691005
 31
0.0
  0
TEXT
  5
3980
  8
DIMENSIONS
  6
CONTINUOUS
 62
     5
 10
607.7176101702175
 20
481.3871334702986
 30
0.0
 40
5.0
  1
Ø6 [Ø0.24]
 50
0.1066008422180047
  0
SOLID
  5
3981
  8
DIMENSIONS
 62
     0
 10
647.4086967522416
 20
478.1526411789617
 30
0.0
 11
647.405595861227
 21
479.8193049609683
 31
0.0
 12
652.4071376527542
 22
478.9952757430086
 32
0.0
 13
652.4071376527542
 23
478.9952757430086
 33
0.0
  0
LINE
  5
3982
  8
DIMENSIONS
  6
BYBLOCK
 62
     0
 10
652.9071324603661
 20
479.0008573468347
 30
0.0
 11
657.9071324603661
 21
479.0008573468347
 31
0.0
  0
LINE
  5
3983
  8
DIMENSIONS
  6
BYBLOCK
 62
     0
 10
655.4071324603661
 20
476.5008573468347
 30
0.0
 11
655.4071324603661
 21
481.5008573468347
 31
0.0
  0
POINT
  5
3984
  8
DEFPOINTS
 62
     0
 10
652.4071376527542
 20
478.9952757430086
 30
0.0
  0
POINT
  5
3985
  8
DEFPOINTS
 62
     0
 10
658.4071272679781
 20
479.0064389506608
 30
0.0
  0
ENDBLK
  5
397E
  8
0
  0
ENDSEC
  0
SECTION
  2
ENTITIES
  0
TEXT
  5
25BF
  8
DIMENSIONS
  6
BYBLOCK
 10
177.0453220085568
 20
400.943812311563
 30
0.0
 40
5.0
  1
Note:
  0
TEXT
  5
25C0
  8
DIMENSIONS
  6
BYBLOCK
 10
177.1792480488423
 20
390.4148444635699
 30
0.0
 40
5.0
  1
Primary dimensions in millimeters.
  0
TEXT
  5
25C1
  8
DIMENSIONS
  6
BYBLOCK
 10
177.4006619852323
 20
379.8428188547859
 30
0.0
 40
5.0
  1
Secondary dimensions in inches.
  0
POLYLINE
  5
3868
  8
0
 66
     1
 10
0.0
 20
0.0
 30
0.0
 70
     1
  0
VERTEX
  5
3989
  8
0
 10
167.9071324603663
 20
434.0008573468347
 30
0.0
  0
VERTEX
  5
398A
  8
0
 10
167.9071324603663
 20
1754.000857346834
 30
0.0
  0
VERTEX
  5
398B
  8
0
 10
667.9071324603661
 20
1754.000857346834
 30
0.0
  0
VERTEX
  5
398C
  8
0
 10
667.9071324603661
 20
434.0008573468347
 30
0.0
  0
SEQEND
  5
3999
  8
0
  0
POLYLINE
  5
3869
  8
0
 66
     1
 10
0.0
 20
0.0
 30
0.0
 70
     1
  0
VERTEX
  5
398D
  8
0
 10
192.9071324603663
 20
1704.000857346834
 30
0.0
  0
VERTEX
  5
398E
  8
0
 10
192.9071324603663
 20
1419.000857346835
 30
0.0
  0
VERTEX
  5
398F
  8
0
 10
642.9071324603663
 20
1419.000857346835
 30
0.0
  0
VERTEX
  5
3990
  8
0
 10
642.9071324603663
 20
1704.000857346834
 30
0.0
  0
SEQEND
  5
399A
  8
0
  0
POLYLINE
  5
386A
  8
0
 66
     1
 10
0.0
 20
0.0
 30
0.0
 70
     1
  0
VERTEX
  5
3991
  8
0
 10
192.9071324603663
 20
1283.000857346835
 30
0.0
  0
VERTEX
  5
3992
  8
0
 10
192.9071324603663
 20
989.0008573468349
 30
0.0
  0
VERTEX
  5
3993
  8
0
 10
642.9071324603663
 20
989.0008573468349
 30
0.0
  0
VERTEX
  5
3994
  8
0
 10
642.9071324603663
 20
1283.000857346835
 30
0.0
  0
SEQEND
  5
399B
  8
0
  0
CIRCLE
  5
386B
  8
0
 10
180.4071324603663
 20
479.0008573468347
 30
0.0
 40
3.0
  0
CIRCLE
  5
386C
  8
0
 10
655.4071324603661
 20
479.0008573468347
 30
0.0
 40
3.0
  0
CIRCLE
  5
386D
  8
0
 10
180.4071324603663
 20
1714.000857346834
 30
0.0
 40
3.0
  0
CIRCLE
  5
386E
  8
0
 10
655.4071324603661
 20
1714.000857346834
 30
0.0
 40
3.0
  0
CIRCLE
  5
386F
  8
0
 10
180.4071324603663
 20
754.0008573468347
 30
0.0
 40
3.0
  0
CIRCLE
  5
3870
  8
0
 10
655.4071324603661
 20
754.0008573468347
 30
0.0
 40
3.0
  0
CIRCLE
  5
3871
  8
0
 10
180.4071324603663
 20
973.0008573468347
 30
0.0
 40
3.0
  0
CIRCLE
  5
3872
  8
0
 10
655.4071324603661
 20
973.0008573468347
 30
0.0
 40
3.0
  0
CIRCLE
  5
3873
  8
0
 10
180.4071324603663
 20
1154.000857346835
 30
0.0
 40
3.0
  0
CIRCLE
  5
3874
  8
0
 10
655.4071324603661
 20
1154.000857346835
 30
0.0
 40
3.0
  0
CIRCLE
  5
3875
  8
0
 10
180.4071324603663
 20
1334.000857346835
 30
0.0
 40
3.0
  0
CIRCLE
  5
3876
  8
0
 10
655.4071324603661
 20
1334.000857346835
 30
0.0
 40
3.0
  0
CIRCLE
  5
3877
  8
0
 10
180.4071324603663
 20
1509.000857346835
 30
0.0
 40
3.0
  0
CIRCLE
  5
3878
  8
0
 10
655.4071324603661
 20
1509.000857346835
 30
0.0
 40
3.0
  0
INSERT
  5
3879
  8
0
  2
*X619
 10
167.9071324603663
 20
434.0008573468347
 30
0.0
  0
DIMENSION
  5
387A
  8
DIMENSIONS
  6
BYBLOCK
  2
*D620
 10
642.9071324603663
 20
1772.01592165124
 30
0.0
 11
417.9071324603663
 21
1776.21842165124
 31
0.0
 70
    32
  3
DUAL-DIM
 13
192.9071324603663
 23
1704.000857346834
 33
0.0
 14
642.9071324603663
 24
1704.000857346834
 34
0.0
1001
ACAD
1000
DSTYLE
1002
{
1070
   287
1070
     5
1070
   279
1070
     2
1002
}
  0
DIMENSION
  5
3889
  8
DIMENSIONS
  6
BYBLOCK
  2
*D621
 10
180.4071324603663
 20
1789.376001780331
 30
0.0
 11
417.9071324603662
 21
1793.578501780331
 31
0.0
 70
    32
  3
DUAL-DIM
 13
655.4071324603661
 23
1714.000857346834
 33
0.0
 14
180.4071324603663
 24
1714.000857346834
 34
0.0
1001
ACAD
1000
DSTYLE
1002
{
1070
   287
1070
     5
1070
   279
1070
     2
1002
}
  0
DIMENSION
  5
3898
  8
DIMENSIONS
  6
BYBLOCK
  2
*D622
 10
667.9071324603661
 20
1805.771633013362
 30
0.0
 11
417.9071324603662
 21
1809.974133013362
 31
0.0
 70
    32
  3
DUAL-DIM
 13
167.9071324603663
 23
1754.000857346834
 33
0.0
 14
667.9071324603661
 24
1754.000857346834
 34
0.0
1001
ACAD
1000
DSTYLE
1002
{
1070
   287
1070
     5
1070
   279
1070
     2
1002
}
  0
DIMENSION
  5
38A7
  8
DIMENSIONS
  6
BYBLOCK
  2
*D623
 10
151.3349018984158
 20
1714.000857346834
 30
0.0
 11
147.1324018984157
 21
1734.000857346834
 31
0.0
 70
    32
  3
DUAL-DIM
 13
167.9071324603663
 23
1754.000857346834
 33
0.0
 14
180.4071324603663
 24
1714.000857346834
 34
0.0
 50
90.0
1001
ACAD
1000
DSTYLE
1002
{
1070
   287
1070
     5
1070
   279
1070
     2
1002
}
  0
DIMENSION
  5
38B6
  8
DIMENSIONS
  6
BYBLOCK
  2
*D624
 10
151.3349018984158
 20
1509.000857346835
 30
0.0
 11
147.1324018984157
 21
1611.500857346834
 31
0.0
 70
    32
  3
DUAL-DIM
 13
180.4071324603663
 23
1714.000857346834
 33
0.0
 14
180.4071324603663
 24
1509.000857346835
 34
0.0
 50
90.0
1001
ACAD
1000
DSTYLE
1002
{
1070
   287
1070
     5
1070
   279
1070
     2
1002
}
  0
DIMENSION
  5
38C5
  8
DIMENSIONS
  6
BYBLOCK
  2
*D625
 10
151.3349018984158
 20
1334.000857346835
 30
0.0
 11
147.1324018984157
 21
1421.500857346835
 31
0.0
 70
    32
  3
DUAL-DIM
 13
180.4071324603663
 23
1509.000857346835
 33
0.0
 14
180.4071324603663
 24
1334.000857346835
 34
0.0
 50
90.0
1001
ACAD
1000
DSTYLE
1002
{
1070
   287
1070
     5
1070
   279
1070
     2
1002
}
  0
DIMENSION
  5
38D4
  8
DIMENSIONS
  6
BYBLOCK
  2
*D626
 10
151.3349018984158
 20
1154.000857346835
 30
0.0
 11
147.1324018984157
 21
1244.000857346835
 31
0.0
 70
    32
  3
DUAL-DIM
 13
180.4071324603663
 23
1334.000857346835
 33
0.0
 14
180.4071324603663
 24
1154.000857346835
 34
0.0
 50
90.0
1001
ACAD
1000
DSTYLE
1002
{
1070
   287
1070
     5
1070
   279
1070
     2
1002
}
  0
DIMENSION
  5
38E3
  8
DIMENSIONS
  6
BYBLOCK
  2
*D627
 10
151.3349018984158
 20
973.0008573468347
 30
0.0
 11
147.1324018984157
 21
1063.500857346835
 31
0.0
 70
    32
  3
DUAL-DIM
 13
180.4071324603663
 23
1154.000857346835
 33
0.0
 14
180.4071324603663
 24
973.0008573468347
 34
0.0
 50
90.0
1001
ACAD
1000
DSTYLE
1002
{
1070
   287
1070
     5
1070
   279
1070
     2
1002
}
  0
DIMENSION
  5
38F2
  8
DIMENSIONS
  6
BYBLOCK
  2
*D628
 10
151.3349018984158
 20
754.0008573468347
 30
0.0
 11
147.1324018984158
 21
863.5008573468347
 31
0.0
 70
    32
  3
DUAL-DIM
 13
180.4071324603663
 23
973.0008573468347
 33
0.0
 14
180.4071324603663
 24
754.0008573468347
 34
0.0
 50
90.0
1001
ACAD
1000
DSTYLE
1002
{
1070
   287
1070
     5
1070
   279
1070
     2
1002
}
  0
DIMENSION
  5
3901
  8
DIMENSIONS
  6
BYBLOCK
  2
*D629
 10
151.3349018984158
 20
479.0008573468347
 30
0.0
 11
147.1324018984158
 21
616.5008573468347
 31
0.0
 70
    32
  3
DUAL-DIM
 13
180.4071324603663
 23
754.0008573468347
 33
0.0
 14
180.4071324603663
 24
479.0008573468347
 34
0.0
 50
90.0
1001
ACAD
1000
DSTYLE
1002
{
1070
   287
1070
     5
1070
   279
1070
     2
1002
}
  0
DIMENSION
  5
3910
  8
DIMENSIONS
  6
BYBLOCK
  2
*D630
 10
151.3349018984158
 20
434.0008573468347
 30
0.0
 11
147.1324018984158
 21
456.5008573468347
 31
0.0
 70
    32
  3
DUAL-DIM
 13
180.4071324603663
 23
479.0008573468347
 33
0.0
 14
167.9071324603663
 24
434.0008573468347
 34
0.0
 50
90.0
1001
ACAD
1000
DSTYLE
1002
{
1070
   287
1070
     5
1070
   279
1070
     2
1002
}
  0
DIMENSION
  5
391F
  8
DIMENSIONS
  6
BYBLOCK
  2
*D631
 10
687.618010725277
 20
1704.000857346834
 30
0.0
 11
683.4155107252769
 21
1729.000857346834
 31
0.0
 70
    32
  3
DUAL-DIM
 13
667.9071324603661
 23
1754.000857346834
 33
0.0
 14
642.9071324603663
 24
1704.000857346834
 34
0.0
 50
90.0
1001
ACAD
1000
DSTYLE
1002
{
1070
   287
1070
     5
1070
   279
1070
     2
1002
}
  0
DIMENSION
  5
392E
  8
DIMENSIONS
  6
BYBLOCK
  2
*D632
 10
687.618010725277
 20
1419.000857346835
 30
0.0
 11
683.4155107252769
 21
1561.500857346834
 31
0.0
 70
    32
  3
DUAL-DIM
 13
642.9071324603663
 23
1704.000857346834
 33
0.0
 14
642.9071324603663
 24
1419.000857346835
 34
0.0
 50
90.0
1001
ACAD
1000
DSTYLE
1002
{
1070
   287
1070
     5
1070
   279
1070
     2
1002
}
  0
DIMENSION
  5
393D
  8
DIMENSIONS
  6
BYBLOCK
  2
*D633
 10
687.618010725277
 20
1283.000857346835
 30
0.0
 11
683.4155107252769
 21
1351.000857346835
 31
0.0
 70
    32
  3
DUAL-DIM
 13
642.9071324603663
 23
1419.000857346835
 33
0.0
 14
642.9071324603663
 24
1283.000857346835
 34
0.0
 50
90.0
1001
ACAD
1000
DSTYLE
1002
{
1070
   287
1070
     5
1070
   279
1070
     2
1002
}
  0
DIMENSION
  5
394C
  8
DIMENSIONS
  6
BYBLOCK
  2
*D634
 10
687.618010725277
 20
989.0008573468349
 30
0.0
 11
683.4155107252769
 21
1136.000857346835
 31
0.0
 70
    32
  3
DUAL-DIM
 13
642.9071324603663
 23
1283.000857346835
 33
0.0
 14
642.9071324603663
 24
989.0008573468349
 34
0.0
 50
90.0
1001
ACAD
1000
DSTYLE
1002
{
1070
   287
1070
     5
1070
   279
1070
     2
1002
}
  0
DIMENSION
  5
395B
  8
DIMENSIONS
  6
BYBLOCK
  2
*D635
 10
687.618010725277
 20
434.0008573468347
 30
0.0
 11
683.415510725277
 21
711.5008573468348
 31
0.0
 70
    32
  3
DUAL-DIM
 13
642.9071324603663
 23
989.0008573468349
 33
0.0
 14
667.9071324603661
 24
434.0008573468347
 34
0.0
 50
90.0
1001
ACAD
1000
DSTYLE
1002
{
1070
   287
1070
     5
1070
   279
1070
     2
1002
}
  0
DIMENSION
  5
396A
  8
DIMENSIONS
  6
BYBLOCK
  2
*D636
 10
135.0794160869385
 20
1754.000857346834
 30
0.0
 11
130.8769160869384
 21
1094.000857346834
 31
0.0
 70
    32
  3
DUAL-DIM
 13
167.9071324603663
 23
434.0008573468347
 33
0.0
 14
167.9071324603663
 24
1754.000857346834
 34
0.0
 50
90.0
1001
ACAD
1000
DSTYLE
1002
{
1070
   287
1070
     5
1070
   279
1070
     2
1002
}
  0
DIMENSION
  5
3979
  8
DIMENSIONS
  6
BYBLOCK
  2
*D637
 10
658.4071272679781
 20
479.0064389506608
 30
0.0
 11
624.7046856001307
 21
478.9437342830111
 31
0.0
 70
   163
  1
<>
  3
DUAL-DIM
 15
652.4071376527542
 25
478.9952757430086
 35
0.0
 40
0.0
1001
ACAD
1000
DSTYLE
1002
{
1070
   287
1070
     3
1070
   279
1070
     0
1002
}
1001
ACAD_DSTYLE_DIMRADIAL_EXT0
1070
   387
1070
     1
1070
   388
1040
0.0
1070
   390
1040
6.283185307179586
  0
POLYLINE
  5
3988
  8
0
  6
BYBLOCK
 66
     1
 10
0.0
 20
0.0
 30
0.0
 70
     1
  0
VERTEX
  5
3995
  8
0
  6
BYBLOCK
 10
71.46561953223852
 20
365.7681557033042
 30
0.0
  0
VERTEX
  5
3996
  8
0
  6
BYBLOCK
 10
71.46561953223852
 20
1868.231175354604
 30
0.0
  0
VERTEX
  5
3997
  8
0
  6
BYBLOCK
 10
751.1163694461164
 20
1868.231175354604
 30
0.0
  0
VERTEX
  5
3998
  8
0
  6
BYBLOCK
 10
751.1163694461164
 20
365.7681557033042
 30
0.0
  0
SEQEND
  5
399C
  8
0
  6
BYBLOCK
  0
VIEWPORT
  5
B1C
 67
     1
  8
0
 10
5.25
 20
3.5
 30
0.0
 40
12.6
 41
8.4
 68
     1
 69
     1
1001
ACAD
1000
MVIEW
1002
{
1070
    16
1010
0.0
1020
0.0
1030
0.0
1010
0.0
1020
0.0
1030
1.0
1040
0.0
1040
8.4
1040
5.25
1040
3.5
1040
50.0
1040
0.0
1040
0.0
1070
     0
1070
   100
1070
     0
1070
     3
1070
     0
1070
     0
1070
     0
1070
     0
1040
0.0
1040
0.0
1040
0.0
1040
0.5
1040
0.5
1040
0.0
1040
0.0
1070
     0
1002
{
1002
}
1002
}
  0
VIEWPORT
  5
B1D
 67
     1
  8
0
 10
5.25
 20
3.5
 30
0.0
 40
8.4
 41
5.600000000000001
 68
     2
 69
     2
1001
ACAD
1000
MVIEW
1002
{
1070
    16
1010
0.0
1020
0.0
1030
0.0
1010
0.0
1020
0.0
1030
1.0
1040
0.0
1040
278.6419840998563
1040
207.1268606538857
1040
36.27547653054833
1040
50.0
1040
0.0
1040
0.0
1070
     0
1070
   100
1070
     0
1070
     3
1070
     0
1070
     0
1070
     0
1070
     0
1040
0.0
1040
0.0
1040
0.0
1040
0.5
1040
0.5
1040
0.0
1040
0.0
1070
     0
1002
{
1002
}
1002
}
  0
ENDSEC
  0
EOF
