  0
SECTION
  2
HEADER
  9
$ACADVER
  1
AC1009
  9
$DWGCODEPAGE
  3
ansi_1252
  9
$INSBASE
 10
0.0
 20
0.0
 30
0.0
  9
$EXTMIN
 10
1.000000000000000E+20
 20
1.000000000000000E+20
 30
1.000000000000000E+20
  9
$EXTMAX
 10
-1.000000000000000E+20
 20
-1.000000000000000E+20
 30
-1.000000000000000E+20
  9
$LIMMIN
 10
0.0
 20
0.0
  9
$LIMMAX
 10
594.0
 20
420.0
  9
$ORTHOMODE
 70
     1
  9
$REGENMODE
 70
     1
  9
$FILLMODE
 70
     1
  9
$QTEXTMODE
 70
     0
  9
$MIRRTEXT
 70
     1
  9
$DRAGMODE
 70
     2
  9
$LTSCALE
 40
32.67
  9
$OSMODE
 70
 16895
  9
$ATTMODE
 70
     1
  9
$TEXTSIZE
 40
0.2
  9
$TRACEWID
 40
0.05
  9
$TEXTSTYLE
  7
STANDARD
  9
$CLAYER
  8
DIMENSIONS
  9
$CELTYPE
  6
BYBLOCK
  9
$CECOLOR
 62
   256
  9
$DIMSCALE
 40
1.0
  9
$DIMASZ
 40
5.0
  9
$DIMEXO
 40
1.5
  9
$DIMDLI
 40
1.0
  9
$DIMRND
 40
0.0
  9
$DIMDLE
 40
0.0
  9
$DIMEXE
 40
0.18
  9
$DIMTP
 40
0.0
  9
$DIMTM
 40
0.0
  9
$DIMTXT
 40
5.0
  9
$DIMCEN
 40
2.5
  9
$DIMTSZ
 40
0.0
  9
$DIMTOL
 70
     0
  9
$DIMLIM
 70
     0
  9
$DIMTIH
 70
     0
  9
$DIMTOH
 70
     0
  9
$DIMSE1
 70
     0
  9
$DIMSE2
 70
     0
  9
$DIMTAD
 70
     1
  9
$DIMZIN
 70
     8
  9
$DIMBLK
  1

  9
$DIMASO
 70
     1
  9
$DIMSHO
 70
     1
  9
$DIMPOST
  1

  9
$DIMAPOST
  1

  9
$DIMALT
 70
     1
  9
$DIMALTD
 70
     2
  9
$DIMALTF
 40
0.03937
  9
$DIMLFAC
 40
1.0
  9
$DIMTOFL
 70
     0
  9
$DIMTVP
 40
0.0
  9
$DIMTIX
 70
     0
  9
$DIMSOXD
 70
     0
  9
$DIMSAH
 70
     0
  9
$DIMBLK1
  1

  9
$DIMBLK2
  1

  9
$DIMSTYLE
  2
DUAL-DIM
  9
$DIMCLRD
 70
     0
  9
$DIMCLRE
 70
     0
  9
$DIMCLRT
 70
     5
  9
$DIMTFAC
 40
1.0
  9
$DIMGAP
 40
1.0
  9
$LUNITS
 70
     2
  9
$LUPREC
 70
     4
  9
$SKETCHINC
 40
0.1
  9
$FILLETRAD
 40
15.0
  9
$AUNITS
 70
     0
  9
$AUPREC
 70
     0
  9
$MENU
  1
.
  9
$ELEVATION
 40
0.0
  9
$PELEVATION
 40
0.0
  9
$THICKNESS
 40
0.0
  9
$LIMCHECK
 70
     0
  9
$CHAMFERA
 40
0.0
  9
$CHAMFERB
 40
0.0
  9
$SKPOLY
 70
     0
  9
$TDCREATE
 40
2457428.354677859
  9
$TDUPDATE
 40
2457434.485240717
  9
$TDINDWG
 40
0.1076436111
  9
$TDUSRTIMER
 40
2457434.443235509
  9
$USRTIMER
 70
     1
  9
$ANGBASE
 50
0.0
  9
$ANGDIR
 70
     0
  9
$PDMODE
 70
     3
  9
$PDSIZE
 40
0.3125
  9
$PLINEWID
 40
0.0
  9
$COORDS
 70
     1
  9
$SPLFRAME
 70
     0
  9
$SPLINETYPE
 70
     6
  9
$SPLINESEGS
 70
     8
  9
$ATTDIA
 70
     0
  9
$ATTREQ
 70
     1
  9
$HANDLING
 70
     1
  9
$HANDSEED
  5
2DD9
  9
$SURFTAB1
 70
     6
  9
$SURFTAB2
 70
     6
  9
$SURFTYPE
 70
     6
  9
$SURFU
 70
     6
  9
$SURFV
 70
     6
  9
$UCSNAME
  2

  9
$UCSORG
 10
0.0
 20
0.0
 30
0.0
  9
$UCSXDIR
 10
1.0
 20
0.0
 30
0.0
  9
$UCSYDIR
 10
0.0
 20
1.0
 30
0.0
  9
$PUCSNAME
  2

  9
$PUCSORG
 10
0.0
 20
0.0
 30
0.0
  9
$PUCSXDIR
 10
1.0
 20
0.0
 30
0.0
  9
$PUCSYDIR
 10
0.0
 20
1.0
 30
0.0
  9
$USERI1
 70
     0
  9
$USERI2
 70
     0
  9
$USERI3
 70
     0
  9
$USERI4
 70
     0
  9
$USERI5
 70
     0
  9
$USERR1
 40
0.0
  9
$USERR2
 40
0.0
  9
$USERR3
 40
0.0
  9
$USERR4
 40
0.0
  9
$USERR5
 40
0.0
  9
$WORLDVIEW
 70
     1
  9
$SHADEDGE
 70
     3
  9
$SHADEDIF
 70
    70
  9
$TILEMODE
 70
     1
  9
$MAXACTVP
 70
    64
  9
$PLIMCHECK
 70
     0
  9
$PEXTMIN
 10
1.05
 20
0.6999999999999997
 30
0.0
  9
$PEXTMAX
 10
9.45
 20
6.300000000000001
 30
0.0
  9
$PLIMMIN
 10
-0.25
 20
-0.7499999999999999
  9
$PLIMMAX
 10
10.75
 20
7.75
  9
$UNITMODE
 70
     0
  9
$VISRETAIN
 70
     1
  9
$PLINEGEN
 70
     0
  9
$PSLTSCALE
 70
     1
  0
ENDSEC
  0
SECTION
  2
TABLES
  0
TABLE
  2
VPORT
 70
     1
  0
VPORT
  2
*ACTIVE
 70
     0
 10
0.0
 20
0.0
 11
1.0
 21
1.0
 12
345.1799600415794
 22
703.2352308325761
 13
0.0
 23
0.0
 14
0.5
 24
0.5
 15
0.5
 25
0.5
 16
0.0
 26
0.0
 36
1.0
 17
0.0
 27
0.0
 37
0.0
 40
1000.36820332083
 41
2.792291220556745
 42
50.0
 43
0.0
 44
0.0
 50
0.0
 51
0.0
 71
    16
 72
   100
 73
     1
 74
     3
 75
     0
 76
     0
 77
     0
 78
     0
  0
ENDTAB
  0
TABLE
  2
LTYPE
 70
     7
  0
LTYPE
  2
CONTINUOUS
 70
     0
  3
Solid line
 72
    65
 73
     0
 40
0.0
  0
LTYPE
  2
CENTER
 70
     0
  3
____ _ ____ _ ____ _ ____ _ ____ _ ____ _ ____
 72
    65
 73
     4
 40
0.6
 49
0.375
 49
-0.075
 49
0.075
 49
-0.075
  0
LTYPE
  2
HIDDEN
 70
     0
  3
- - - - - - - - - - - - - - - - - - - -
 72
    65
 73
     2
 40
0.2
 49
0.1
 49
-0.1
  0
LTYPE
  2
PHANTOM
 70
     0
  3
_____ _ _ _____ _ _ _____ _ _ _____
 72
    65
 73
     6
 40
0.8
 49
0.45
 49
-0.05
 49
0.1
 49
-0.05
 49
0.1
 49
-0.05
  0
LTYPE
  2
DOT
 70
     0
  3
. . . . . . . . . . . . . . . . . . . .
 72
    65
 73
     2
 40
0.2
 49
0.1
 49
-0.1
  0
LTYPE
  2
DASHED
 70
     0
  3
- - - - - - - - - - - - - - - - - - - -
 72
    65
 73
     2
 40
0.2
 49
0.1
 49
-0.1
  0
LTYPE
  2
STRICHPUNKT
 70
     0
  3
__ . __ . __ . __ . __ . __ . __ . __ . __ . __
 72
    65
 73
     4
 40
1.0
 49
0.5
 49
-0.25
 49
0.0
 49
-0.25
  0
ENDTAB
  0
TABLE
  2
LAYER
 70
    19
  0
LAYER
  2
0
 70
     0
 62
     7
  6
CONTINUOUS
  0
LAYER
  2
DEFAULT_1
 70
     0
 62
     7
  6
CENTER
  0
LAYER
  2
DEFAULT_2
 70
     0
 62
     7
  6
HIDDEN
  0
LAYER
  2
DEFAULT_3
 70
     0
 62
     7
  6
PHANTOM
  0
LAYER
  2
01___PRT_ALL_DTM_PLN
 70
     0
 62
     7
  6
CONTINUOUS
  0
LAYER
  2
01___PRT_DEF_DTM_PLN
 70
     0
 62
     7
  6
CONTINUOUS
  0
LAYER
  2
02___PRT_ALL_AXES
 70
     0
 62
     7
  6
CONTINUOUS
  0
LAYER
  2
03___PRT_ALL_CURVES
 70
     0
 62
     7
  6
CONTINUOUS
  0
LAYER
  2
04___PRT_ALL_DTM_PNT
 70
     0
 62
     7
  6
CONTINUOUS
  0
LAYER
  2
05___PRT_ALL_DTM_CSYS
 70
     0
 62
     7
  6
CONTINUOUS
  0
LAYER
  2
05___PRT_DEF_DTM_CSYS
 70
     0
 62
     7
  6
CONTINUOUS
  0
LAYER
  2
06___PRT_ALL_SURFS
 70
     0
 62
     7
  6
CONTINUOUS
  0
LAYER
  2
DEFPOINTS
 70
     0
 62
     7
  6
CONTINUOUS
  0
LAYER
  2
DIMENSIONS
 70
     0
 62
     2
  6
CONTINUOUS
  0
LAYER
  2
AM_5
 70
     0
 62
     3
  6
CONTINUOUS
  0
LAYER
  2
CUTOUT
 70
     0
 62
     7
  6
CONTINUOUS
  0
LAYER
  2
EXTERNAL_OUTFIT
 70
     0
 62
     7
  6
CENTER
  0
LAYER
  2
OUTLINES
 70
     0
 62
     4
  6
CONTINUOUS
  0
LAYER
  2
3
 70
     0
 62
     4
  6
CONTINUOUS
  0
ENDTAB
  0
TABLE
  2
STYLE
 70
     2
  0
STYLE
  2
STANDARD
 70
     0
 40
0.0
 41
1.0
 50
0.0
 71
     0
 42
0.2
  3
arial.ttf
  4

  0
STYLE
  2
TEXTSTYLE_1
 70
     0
 40
0.0
 41
0.8
 50
0.0
 71
     0
 42
0.2
  3
gdt
  4

  0
ENDTAB
  0
TABLE
  2
VIEW
 70
     0
  0
ENDTAB
  0
TABLE
  2
UCS
 70
     0
  0
ENDTAB
  0
TABLE
  2
APPID
 70
    10
  0
APPID
  2
ACAD
 70
     0
  0
APPID
  2
ACAECLAYERSTANDARD
 70
     0
  0
APPID
  2
ACAD_DSTYLE_DIMRADIAL_EXTE
 70
     0
  0
APPID
  2
ACAD_DSTYLE_DIMJOGGED_JOGA
 70
     0
  0
APPID
  2
ACAD_DSTYLE_DIMJAG
 70
     0
  0
APPID
  2
ACAD_DSTYLE_DIMBREAK
 70
     0
  0
APPID
  2
ACAD_PSEXT
 70
     0
  0
APPID
  2
ACAD_DSTYLE_DIMINSPECT
 70
     0
  0
APPID
  2
ACAD_DSTYLE_DIMRADIAL_EXT0
 70
     0
  0
APPID
  2
ACAD_DSTYLE_DIMJOGGED_JOG0
 70
     0
  0
ENDTAB
  0
TABLE
  2
DIMSTYLE
 70
     5
  0
DIMSTYLE
  2
STANDARD
 70
     0
  3

  4

  5

  6

  7

 40
1.0
 41
0.18
 42
0.0625
 43
0.38
 44
0.18
 45
0.0
 46
0.0
 47
0.0
 48
0.0
140
0.18
141
0.09
142
0.0
143
25.4
144
1.0
145
0.0
146
1.0
147
0.09
 71
     0
 72
     0
 73
     1
 74
     1
 75
     0
 76
     0
 77
     0
 78
     0
170
     0
171
     2
172
     0
173
     0
174
     0
175
     0
176
     0
177
     0
178
     0
  0
DIMSTYLE
  2
DUAL-DIM
 70
     0
  3

  4

  5

  6

  7

 40
1.0
 41
5.0
 42
1.5
 43
1.0
 44
0.18
 45
0.0
 46
0.0
 47
0.0
 48
0.0
140
5.0
141
2.5
142
0.0
143
0.03937
144
1.0
145
0.0
146
1.0
147
1.0
 71
     0
 72
     0
 73
     0
 74
     0
 75
     0
 76
     0
 77
     1
 78
     8
170
     1
171
     2
172
     0
173
     0
174
     0
175
     0
176
     0
177
     0
178
     5
  0
DIMSTYLE
  2
AM_ISO
 70
     0
  3

  4
"
  5

  6

  7

 40
1.0
 41
3.5
 42
1.0
 43
10.0
 44
1.0
 45
0.0
 46
0.0
 47
0.1
 48
0.1
140
3.5
141
0.0
142
0.0
143
0.0393701
144
1.0
145
0.0
146
0.71
147
1.5
 71
     0
 72
     0
 73
     0
 74
     0
 75
     0
 76
     0
 77
     1
 78
     8
170
     0
171
     2
172
     1
173
     0
174
     0
175
     0
176
   256
177
   256
178
     2
  0
DIMSTYLE
  2
AM_ISO$3
 70
     0
  3

  4
"
  5

  6

  7

 40
1.0
 41
3.5
 42
1.0
 43
10.0
 44
1.0
 45
0.0
 46
0.0
 47
0.1
 48
0.1
140
3.5
141
0.0
142
0.0
143
0.0393701
144
1.0
145
0.0
146
0.71
147
1.5
 71
     0
 72
     0
 73
     0
 74
     1
 75
     0
 76
     0
 77
     1
 78
     8
170
     0
171
     2
172
     0
173
     0
174
     0
175
     0
176
   256
177
   256
178
     2
  0
DIMSTYLE
  2
AM_ISO$0
 70
     0
  3

  4
"
  5

  6

  7

 40
1.0
 41
3.5
 42
1.0
 43
10.0
 44
1.0
 45
0.0
 46
0.0
 47
0.1
 48
0.1
140
3.5
141
0.0
142
0.0
143
0.0393701
144
1.0
145
0.0
146
0.71
147
1.5
 71
     0
 72
     0
 73
     0
 74
     0
 75
     0
 76
     0
 77
     1
 78
     8
170
     0
171
     2
172
     1
173
     0
174
     0
175
     0
176
   256
177
   256
178
     2
  0
ENDTAB
  0
ENDSEC
  0
SECTION
  2
BLOCKS
  0
BLOCK
  8
0
  2
$MODEL_SPACE
 70
     0
 10
0.0
 20
0.0
 30
0.0
  3
$MODEL_SPACE
  1

  0
ENDBLK
  5
110
  8
0
  0
BLOCK
 67
     1
  8
0
  2
$PAPER_SPACE
 70
     0
 10
0.0
 20
0.0
 30
0.0
  3
$PAPER_SPACE
  1

  0
ENDBLK
  5
112
 67
     1
  8
0
  0
BLOCK
  8
0
  2
_FILLED
 70
     0
 10
0.0
 20
0.0
 30
0.0
  3
_FILLED
  1

  0
SOLID
  5
3D
  8
0
  6
BYBLOCK
 62
     0
 10
0.0
 20
0.0
 30
0.0
 11
-1.0
 21
0.2
 31
0.0
 12
-1.0
 22
-0.2
 32
0.0
 13
-1.0
 23
-0.2
 33
0.0
  0
ENDBLK
  5
3E
  8
0
  6
BYBLOCK
 62
     0
  0
BLOCK
  8
0
  2
*X392
 70
     1
 10
0.0
 20
0.0
 30
0.0
  3
*X392
  1

  0
LINE
  5
23E5
  8
CUTOUT
 10
44.9999999999992
 20
1848.122292025696
 30
0.0
 11
51.87770797430312
 21
1855.0
 31
0.0
  0
LINE
  5
23E6
  8
CUTOUT
 10
44.99999999999915
 20
1772.992196524625
 30
0.0
 11
127.0078034753737
 21
1855.0
 31
0.0
  0
LINE
  5
23E7
  8
CUTOUT
 10
44.99999999999915
 20
1697.862101023554
 30
0.0
 11
202.1378989764444
 21
1855.0
 31
0.0
  0
LINE
  5
23E8
  8
CUTOUT
 10
44.99999999999926
 20
1622.732005522484
 30
0.0
 11
277.2679944775152
 21
1855.0
 31
0.0
  0
LINE
  5
23E9
  8
CUTOUT
 10
44.99999999999926
 20
1547.601910021413
 30
0.0
 11
352.3980899785858
 21
1855.0
 31
0.0
  0
LINE
  5
23EA
  8
CUTOUT
 10
47.528185479657
 20
1475.0
 30
0.0
 11
427.5281854796565
 21
1855.0
 31
0.0
  0
LINE
  5
23EB
  8
CUTOUT
 10
122.6582809807277
 20
1475.0
 30
0.0
 11
502.6582809807272
 21
1855.0
 31
0.0
  0
LINE
  5
23EC
  8
CUTOUT
 10
197.7883764817983
 20
1475.0
 30
0.0
 11
577.7883764817977
 21
1855.0
 31
0.0
  0
LINE
  5
23ED
  8
CUTOUT
 10
272.9184719828691
 20
1475.0
 30
0.0
 11
652.9184719828686
 21
1855.0
 31
0.0
  0
LINE
  5
23EE
  8
CUTOUT
 10
348.0485674839397
 20
1475.0
 30
0.0
 11
728.0485674839392
 21
1855.0
 31
0.0
  0
LINE
  5
23EF
  8
CUTOUT
 10
423.1786629850103
 20
1475.0
 30
0.0
 11
803.1786629850099
 21
1855.0
 31
0.0
  0
LINE
  5
23F0
  8
CUTOUT
 10
498.308758486081
 20
1475.0
 30
0.0
 11
854.9999999999991
 21
1831.691241513918
 31
0.0
  0
LINE
  5
23F1
  8
CUTOUT
 10
573.4388539871518
 20
1475.0
 30
0.0
 11
854.9999999999991
 21
1756.561146012848
 31
0.0
  0
LINE
  5
23F2
  8
CUTOUT
 10
648.5689494882224
 20
1475.0
 30
0.0
 11
854.9999999999991
 21
1681.431050511777
 31
0.0
  0
LINE
  5
23F3
  8
CUTOUT
 10
723.6990449892932
 20
1475.0
 30
0.0
 11
854.9999999999991
 21
1606.300955010706
 31
0.0
  0
LINE
  5
23F4
  8
CUTOUT
 10
798.8291404903637
 20
1475.0
 30
0.0
 11
854.9999999999991
 21
1531.170859509635
 31
0.0
  0
LINE
  5
23F5
  8
CUTOUT
 10
44.99999999999915
 20
495.7805730064233
 30
0.0
 11
49.21942699357606
 21
500.0000000000001
 31
0.0
  0
LINE
  5
23F6
  8
CUTOUT
 10
44.99999999999915
 20
420.6504775053526
 30
0.0
 11
124.3495224946467
 21
500.0000000000002
 31
0.0
  0
LINE
  5
23F7
  8
CUTOUT
 10
44.99999999999915
 20
345.5203820042818
 30
0.0
 11
199.4796179957174
 21
500.0000000000001
 31
0.0
  0
LINE
  5
23F8
  8
CUTOUT
 10
44.99999999999915
 20
270.3902865032112
 30
0.0
 11
274.6097134967881
 21
500.0000000000002
 31
0.0
  0
LINE
  5
23F9
  8
CUTOUT
 10
44.99999999999915
 20
195.2601910021406
 30
0.0
 11
349.7398089978587
 21
500.0000000000002
 31
0.0
  0
LINE
  5
23FA
  8
CUTOUT
 10
44.99999999999909
 20
120.1300955010698
 30
0.0
 11
424.8699044989294
 21
500.0000000000002
 31
0.0
  0
LINE
  5
23FB
  8
CUTOUT
 10
109.9999999999999
 20
110.0
 30
0.0
 11
500.0000000000001
 21
500.0000000000002
 31
0.0
  0
LINE
  5
23FC
  8
CUTOUT
 10
185.1300955010706
 20
110.0
 30
0.0
 11
575.1300955010707
 21
500.0000000000002
 31
0.0
  0
LINE
  5
23FD
  8
CUTOUT
 10
260.2601910021413
 20
110.0
 30
0.0
 11
650.2601910021414
 21
500.0000000000001
 31
0.0
  0
LINE
  5
23FE
  8
CUTOUT
 10
335.3902865032119
 20
110.0
 30
0.0
 11
725.3902865032119
 21
500.0000000000002
 31
0.0
  0
LINE
  5
23FF
  8
CUTOUT
 10
410.5203820042826
 20
110.0
 30
0.0
 11
800.5203820042827
 21
500.0000000000001
 31
0.0
  0
LINE
  5
2400
  8
CUTOUT
 10
485.6504775053533
 20
110.0
 30
0.0
 11
854.9999999999991
 21
479.349522494646
 31
0.0
  0
LINE
  5
2401
  8
CUTOUT
 10
560.780573006424
 20
110.0
 30
0.0
 11
854.9999999999991
 21
404.2194269935753
 31
0.0
  0
LINE
  5
2402
  8
CUTOUT
 10
635.9106685074946
 20
110.0000000000001
 30
0.0
 11
854.9999999999991
 21
329.0893314925046
 31
0.0
  0
LINE
  5
2403
  8
CUTOUT
 10
711.0407640085652
 20
110.0
 30
0.0
 11
854.9999999999991
 21
253.9592359914338
 31
0.0
  0
LINE
  5
2404
  8
CUTOUT
 10
786.170859509636
 20
110.0
 30
0.0
 11
854.9999999999991
 21
178.8291404903632
 31
0.0
  0
ENDBLK
  5
2405
  8
0
  0
BLOCK
  8
0
  2
*D393
 70
     1
 10
0.0
 20
0.0
 30
0.0
  3
*D393
  1

  0
LINE
  5
245B
  8
DIMENSIONS
  6
BYBLOCK
 62
     0
 10
249.8157182587157
 20
2273.403363573331
 30
0.0
 11
249.8157182587157
 21
2333.946391122704
 31
0.0
  0
LINE
  5
245C
  8
DIMENSIONS
  6
BYBLOCK
 62
     0
 10
1059.815718258716
 20
2273.403363573331
 30
0.0
 11
1059.815718258716
 21
2333.946391122704
 31
0.0
  0
LINE
  5
245D
  8
DIMENSIONS
  6
BYBLOCK
 62
     0
 10
254.8157182587157
 20
2333.766391122704
 30
0.0
 11
1054.815718258716
 21
2333.766391122704
 31
0.0
  0
SOLID
  5
245E
  8
DIMENSIONS
 62
     0
 10
254.8157182587157
 20
2334.599724456037
 30
0.0
 11
254.8157182587157
 21
2332.93305778937
 31
0.0
 12
249.8157182587157
 22
2333.766391122704
 32
0.0
 13
249.8157182587157
 23
2333.766391122704
 33
0.0
  0
SOLID
  5
245F
  8
DIMENSIONS
 62
     0
 10
1054.815718258716
 20
2332.93305778937
 30
0.0
 11
1054.815718258716
 21
2334.599724456037
 31
0.0
 12
1059.815718258716
 22
2333.766391122704
 32
0.0
 13
1059.815718258716
 23
2333.766391122704
 33
0.0
  0
TEXT
  5
2460
  8
DIMENSIONS
  6
CONTINUOUS
 62
     5
 10
637.4407182587156
 20
2336.161391122704
 30
0.0
 40
5.0
  1
810 [31.89]
  0
POINT
  5
2461
  8
DEFPOINTS
 62
     0
 10
249.8157182587157
 20
2271.903363573331
 30
0.0
  0
POINT
  5
2462
  8
DEFPOINTS
 62
     0
 10
1059.815718258716
 20
2271.903363573331
 30
0.0
  0
POINT
  5
2463
  8
DEFPOINTS
 62
     0
 10
1059.815718258716
 20
2333.766391122704
 30
0.0
  0
ENDBLK
  5
245A
  8
0
  0
BLOCK
  8
0
  2
*D394
 70
     1
 10
0.0
 20
0.0
 30
0.0
  3
*D394
  1

  0
LINE
  5
246A
  8
DIMENSIONS
  6
BYBLOCK
 62
     0
 10
1124.815718258715
 20
2268.403363573325
 30
0.0
 11
1124.815718258715
 21
2351.228691619741
 31
0.0
  0
LINE
  5
246B
  8
DIMENSIONS
  6
BYBLOCK
 62
     0
 10
184.8157182587145
 20
2268.403363573331
 30
0.0
 11
184.8157182587145
 21
2351.228691619741
 31
0.0
  0
LINE
  5
246C
  8
DIMENSIONS
  6
BYBLOCK
 62
     0
 10
1119.815718258715
 20
2351.048691619741
 30
0.0
 11
189.8157182587145
 21
2351.048691619741
 31
0.0
  0
SOLID
  5
246D
  8
DIMENSIONS
 62
     0
 10
1119.815718258715
 20
2350.215358286408
 30
0.0
 11
1119.815718258715
 21
2351.882024953075
 31
0.0
 12
1124.815718258715
 22
2351.048691619741
 32
0.0
 13
1124.815718258715
 23
2351.048691619741
 33
0.0
  0
SOLID
  5
246E
  8
DIMENSIONS
 62
     0
 10
189.8157182587145
 20
2351.882024953075
 30
0.0
 11
189.8157182587145
 21
2350.215358286408
 31
0.0
 12
184.8157182587145
 22
2351.048691619741
 32
0.0
 13
184.8157182587145
 23
2351.048691619741
 33
0.0
  0
TEXT
  5
246F
  8
DIMENSIONS
  6
CONTINUOUS
 62
     5
 10
637.4382182587149
 20
2353.443691619741
 30
0.0
 40
5.0
  1
940 [37.01]
  0
POINT
  5
2470
  8
DEFPOINTS
 62
     0
 10
1124.815718258715
 20
2266.903363573325
 30
0.0
  0
POINT
  5
2471
  8
DEFPOINTS
 62
     0
 10
184.8157182587145
 20
2266.903363573331
 30
0.0
  0
POINT
  5
2472
  8
DEFPOINTS
 62
     0
 10
184.8157182587145
 20
2351.048691619741
 30
0.0
  0
ENDBLK
  5
2469
  8
0
  0
BLOCK
  8
0
  2
*D395
 70
     1
 10
0.0
 20
0.0
 30
0.0
  3
*D395
  1

  0
LINE
  5
2479
  8
DIMENSIONS
  6
BYBLOCK
 62
     0
 10
174.8157182587149
 20
2318.403363573331
 30
0.0
 11
174.8157182587149
 21
2368.155899463899
 31
0.0
  0
LINE
  5
247A
  8
DIMENSIONS
  6
BYBLOCK
 62
     0
 10
1134.815718258715
 20
2318.403363573331
 30
0.0
 11
1134.815718258715
 21
2368.155899463899
 31
0.0
  0
LINE
  5
247B
  8
DIMENSIONS
  6
BYBLOCK
 62
     0
 10
179.8157182587149
 20
2367.975899463899
 30
0.0
 11
1129.815718258715
 21
2367.975899463899
 31
0.0
  0
SOLID
  5
247C
  8
DIMENSIONS
 62
     0
 10
179.8157182587149
 20
2368.809232797232
 30
0.0
 11
179.8157182587149
 21
2367.142566130565
 31
0.0
 12
174.8157182587149
 22
2367.975899463899
 32
0.0
 13
174.8157182587149
 23
2367.975899463899
 33
0.0
  0
SOLID
  5
247D
  8
DIMENSIONS
 62
     0
 10
1129.815718258715
 20
2367.142566130565
 30
0.0
 11
1129.815718258715
 21
2368.809232797232
 31
0.0
 12
1134.815718258715
 22
2367.975899463899
 32
0.0
 13
1134.815718258715
 23
2367.975899463899
 33
0.0
  0
TEXT
  5
247E
  8
DIMENSIONS
  6
CONTINUOUS
 62
     5
 10
637.438218258715
 20
2370.370899463899
 30
0.0
 40
5.0
  1
960 [37.80]
  0
POINT
  5
247F
  8
DEFPOINTS
 62
     0
 10
174.8157182587149
 20
2316.903363573331
 30
0.0
  0
POINT
  5
2480
  8
DEFPOINTS
 62
     0
 10
1134.815718258715
 20
2316.903363573331
 30
0.0
  0
POINT
  5
2481
  8
DEFPOINTS
 62
     0
 10
1134.815718258715
 20
2367.975899463899
 30
0.0
  0
ENDBLK
  5
2478
  8
0
  0
BLOCK
  8
0
  2
*D396
 70
     1
 10
0.0
 20
0.0
 30
0.0
  3
*D396
  1

  0
LINE
  5
2488
  8
DIMENSIONS
  6
BYBLOCK
 62
     0
 10
173.3157182587149
 20
2316.903363573331
 30
0.0
 11
158.0297881935711
 21
2316.903363573331
 31
0.0
  0
LINE
  5
2489
  8
DIMENSIONS
  6
BYBLOCK
 62
     0
 10
173.3157182587149
 20
2266.903363573331
 30
0.0
 11
158.0297881935711
 21
2266.903363573331
 31
0.0
  0
LINE
  5
248A
  8
DIMENSIONS
  6
BYBLOCK
 62
     0
 10
158.2097881935711
 20
2311.903363573331
 30
0.0
 11
158.2097881935711
 21
2271.903363573331
 31
0.0
  0
SOLID
  5
248B
  8
DIMENSIONS
 62
     0
 10
159.0431215269044
 20
2311.903363573331
 30
0.0
 11
157.3764548602377
 21
2311.903363573331
 31
0.0
 12
158.2097881935711
 22
2316.903363573331
 32
0.0
 13
158.2097881935711
 23
2316.903363573331
 33
0.0
  0
SOLID
  5
248C
  8
DIMENSIONS
 62
     0
 10
157.3764548602377
 20
2271.903363573331
 30
0.0
 11
159.0431215269044
 21
2271.903363573331
 31
0.0
 12
158.2097881935711
 22
2266.903363573331
 32
0.0
 13
158.2097881935711
 23
2266.903363573331
 33
0.0
  0
TEXT
  5
248D
  8
DIMENSIONS
  6
CONTINUOUS
 62
     5
 10
155.8147881935711
 20
2278.405863573331
 30
0.0
 40
5.0
  1
50 [1.97]
 50
90.0
  0
POINT
  5
248E
  8
DEFPOINTS
 62
     0
 10
174.8157182587149
 20
2316.903363573331
 30
0.0
  0
POINT
  5
248F
  8
DEFPOINTS
 62
     0
 10
174.8157182587149
 20
2266.903363573331
 30
0.0
  0
POINT
  5
2490
  8
DEFPOINTS
 62
     0
 10
158.2097881935711
 20
2266.903363573331
 30
0.0
  0
ENDBLK
  5
2487
  8
0
  0
BLOCK
  8
0
  2
*D397
 70
     1
 10
0.0
 20
0.0
 30
0.0
  3
*D397
  1

  0
LINE
  5
2497
  8
DIMENSIONS
  6
BYBLOCK
 62
     0
 10
173.3157182587149
 20
2266.903363573331
 30
0.0
 11
158.0297881935711
 21
2266.903363573331
 31
0.0
  0
LINE
  5
2498
  8
DIMENSIONS
  6
BYBLOCK
 62
     0
 10
183.3157182587145
 20
2041.903363573331
 30
0.0
 11
158.0297881935711
 21
2041.903363573331
 31
0.0
  0
LINE
  5
2499
  8
DIMENSIONS
  6
BYBLOCK
 62
     0
 10
158.2097881935711
 20
2261.903363573331
 30
0.0
 11
158.2097881935711
 21
2046.903363573331
 31
0.0
  0
SOLID
  5
249A
  8
DIMENSIONS
 62
     0
 10
159.0431215269044
 20
2261.903363573331
 30
0.0
 11
157.3764548602377
 21
2261.903363573331
 31
0.0
 12
158.2097881935711
 22
2266.903363573331
 32
0.0
 13
158.2097881935711
 23
2266.903363573331
 33
0.0
  0
SOLID
  5
249B
  8
DIMENSIONS
 62
     0
 10
157.3764548602377
 20
2046.903363573331
 30
0.0
 11
159.0431215269044
 21
2046.903363573331
 31
0.0
 12
158.2097881935711
 22
2041.903363573331
 32
0.0
 13
158.2097881935711
 23
2041.903363573331
 33
0.0
  0
TEXT
  5
249C
  8
DIMENSIONS
  6
CONTINUOUS
 62
     5
 10
155.8147881935711
 20
2139.008363573331
 30
0.0
 40
5.0
  1
225 [8.86]
 50
90.0
  0
POINT
  5
249D
  8
DEFPOINTS
 62
     0
 10
174.8157182587149
 20
2266.903363573331
 30
0.0
  0
POINT
  5
249E
  8
DEFPOINTS
 62
     0
 10
184.8157182587145
 20
2041.903363573331
 30
0.0
  0
POINT
  5
249F
  8
DEFPOINTS
 62
     0
 10
158.2097881935711
 20
2041.903363573331
 30
0.0
  0
ENDBLK
  5
2496
  8
0
  0
BLOCK
  8
0
  2
*D398
 70
     1
 10
0.0
 20
0.0
 30
0.0
  3
*D398
  1

  0
LINE
  5
24A6
  8
DIMENSIONS
  6
BYBLOCK
 62
     0
 10
183.3157182587145
 20
2041.903363573331
 30
0.0
 11
158.0297881935711
 21
2041.903363573331
 31
0.0
  0
LINE
  5
24A7
  8
DIMENSIONS
  6
BYBLOCK
 62
     0
 10
183.3157182587146
 20
1816.903363573331
 30
0.0
 11
158.0297881935711
 21
1816.903363573331
 31
0.0
  0
LINE
  5
24A8
  8
DIMENSIONS
  6
BYBLOCK
 62
     0
 10
158.2097881935711
 20
2036.903363573331
 30
0.0
 11
158.2097881935711
 21
1821.903363573331
 31
0.0
  0
SOLID
  5
24A9
  8
DIMENSIONS
 62
     0
 10
159.0431215269044
 20
2036.903363573331
 30
0.0
 11
157.3764548602377
 21
2036.903363573331
 31
0.0
 12
158.2097881935711
 22
2041.903363573331
 32
0.0
 13
158.2097881935711
 23
2041.903363573331
 33
0.0
  0
SOLID
  5
24AA
  8
DIMENSIONS
 62
     0
 10
157.3764548602377
 20
1821.903363573331
 30
0.0
 11
159.0431215269044
 21
1821.903363573331
 31
0.0
 12
158.2097881935711
 22
1816.903363573331
 32
0.0
 13
158.2097881935711
 23
1816.903363573331
 33
0.0
  0
TEXT
  5
24AB
  8
DIMENSIONS
  6
CONTINUOUS
 62
     5
 10
155.8147881935711
 20
1914.008363573331
 30
0.0
 40
5.0
  1
225 [8.86]
 50
90.0
  0
POINT
  5
24AC
  8
DEFPOINTS
 62
     0
 10
184.8157182587145
 20
2041.903363573331
 30
0.0
  0
POINT
  5
24AD
  8
DEFPOINTS
 62
     0
 10
184.8157182587146
 20
1816.903363573331
 30
0.0
  0
POINT
  5
24AE
  8
DEFPOINTS
 62
     0
 10
158.2097881935711
 20
1816.903363573331
 30
0.0
  0
ENDBLK
  5
24A5
  8
0
  0
BLOCK
  8
0
  2
*D399
 70
     1
 10
0.0
 20
0.0
 30
0.0
  3
*D399
  1

  0
LINE
  5
24B5
  8
DIMENSIONS
  6
BYBLOCK
 62
     0
 10
183.3157182587146
 20
1816.903363573331
 30
0.0
 11
158.0297881935711
 21
1816.903363573331
 31
0.0
  0
LINE
  5
24B6
  8
DIMENSIONS
  6
BYBLOCK
 62
     0
 10
183.3157182587146
 20
1591.903363573331
 30
0.0
 11
158.0297881935711
 21
1591.903363573331
 31
0.0
  0
LINE
  5
24B7
  8
DIMENSIONS
  6
BYBLOCK
 62
     0
 10
158.2097881935711
 20
1811.903363573331
 30
0.0
 11
158.2097881935711
 21
1596.903363573331
 31
0.0
  0
SOLID
  5
24B8
  8
DIMENSIONS
 62
     0
 10
159.0431215269044
 20
1811.903363573331
 30
0.0
 11
157.3764548602377
 21
1811.903363573331
 31
0.0
 12
158.2097881935711
 22
1816.903363573331
 32
0.0
 13
158.2097881935711
 23
1816.903363573331
 33
0.0
  0
SOLID
  5
24B9
  8
DIMENSIONS
 62
     0
 10
157.3764548602377
 20
1596.903363573331
 30
0.0
 11
159.0431215269044
 21
1596.903363573331
 31
0.0
 12
158.2097881935711
 22
1591.903363573331
 32
0.0
 13
158.2097881935711
 23
1591.903363573331
 33
0.0
  0
TEXT
  5
24BA
  8
DIMENSIONS
  6
CONTINUOUS
 62
     5
 10
155.8147881935708
 20
1689.008363573331
 30
0.0
 40
5.0
  1
225 [8.86]
 50
90.0
  0
POINT
  5
24BB
  8
DEFPOINTS
 62
     0
 10
184.8157182587146
 20
1816.903363573331
 30
0.0
  0
POINT
  5
24BC
  8
DEFPOINTS
 62
     0
 10
184.8157182587146
 20
1591.903363573331
 30
0.0
  0
POINT
  5
24BD
  8
DEFPOINTS
 62
     0
 10
158.2097881935711
 20
1591.903363573331
 30
0.0
  0
ENDBLK
  5
24B4
  8
0
  0
BLOCK
  8
0
  2
*D401
 70
     1
 10
0.0
 20
0.0
 30
0.0
  3
*D401
  1

  0
LINE
  5
24D3
  8
DIMENSIONS
  6
BYBLOCK
 62
     0
 10
183.3157182587146
 20
1591.903363573331
 30
0.0
 11
158.0297881935711
 21
1591.903363573331
 31
0.0
  0
LINE
  5
24D4
  8
DIMENSIONS
  6
BYBLOCK
 62
     0
 10
183.3157182587147
 20
1366.903363573331
 30
0.0
 11
158.0297881935711
 21
1366.903363573331
 31
0.0
  0
LINE
  5
24D5
  8
DIMENSIONS
  6
BYBLOCK
 62
     0
 10
158.2097881935711
 20
1586.903363573331
 30
0.0
 11
158.2097881935711
 21
1371.903363573331
 31
0.0
  0
SOLID
  5
24D6
  8
DIMENSIONS
 62
     0
 10
159.0431215269044
 20
1586.903363573331
 30
0.0
 11
157.3764548602377
 21
1586.903363573331
 31
0.0
 12
158.2097881935711
 22
1591.903363573331
 32
0.0
 13
158.2097881935711
 23
1591.903363573331
 33
0.0
  0
SOLID
  5
24D7
  8
DIMENSIONS
 62
     0
 10
157.3764548602377
 20
1371.903363573331
 30
0.0
 11
159.0431215269044
 21
1371.903363573331
 31
0.0
 12
158.2097881935711
 22
1366.903363573331
 32
0.0
 13
158.2097881935711
 23
1366.903363573331
 33
0.0
  0
TEXT
  5
24D8
  8
DIMENSIONS
  6
CONTINUOUS
 62
     5
 10
155.8147881935708
 20
1464.008363573331
 30
0.0
 40
5.0
  1
225 [8.86]
 50
90.0
  0
POINT
  5
24D9
  8
DEFPOINTS
 62
     0
 10
184.8157182587146
 20
1591.903363573331
 30
0.0
  0
POINT
  5
24DA
  8
DEFPOINTS
 62
     0
 10
184.8157182587147
 20
1366.903363573331
 30
0.0
  0
POINT
  5
24DB
  8
DEFPOINTS
 62
     0
 10
158.2097881935711
 20
1366.903363573331
 30
0.0
  0
ENDBLK
  5
24D2
  8
0
  0
BLOCK
  8
0
  2
*D402
 70
     1
 10
0.0
 20
0.0
 30
0.0
  3
*D402
  1

  0
LINE
  5
24E2
  8
DIMENSIONS
  6
BYBLOCK
 62
     0
 10
183.3157182587147
 20
1366.903363573331
 30
0.0
 11
158.0297881935711
 21
1366.903363573331
 31
0.0
  0
LINE
  5
24E3
  8
DIMENSIONS
  6
BYBLOCK
 62
     0
 10
183.3157182587148
 20
1141.903363573331
 30
0.0
 11
158.0297881935711
 21
1141.903363573331
 31
0.0
  0
LINE
  5
24E4
  8
DIMENSIONS
  6
BYBLOCK
 62
     0
 10
158.2097881935711
 20
1361.903363573331
 30
0.0
 11
158.2097881935711
 21
1146.903363573331
 31
0.0
  0
SOLID
  5
24E5
  8
DIMENSIONS
 62
     0
 10
159.0431215269044
 20
1361.903363573331
 30
0.0
 11
157.3764548602377
 21
1361.903363573331
 31
0.0
 12
158.2097881935711
 22
1366.903363573331
 32
0.0
 13
158.2097881935711
 23
1366.903363573331
 33
0.0
  0
SOLID
  5
24E6
  8
DIMENSIONS
 62
     0
 10
157.3764548602377
 20
1146.903363573331
 30
0.0
 11
159.0431215269044
 21
1146.903363573331
 31
0.0
 12
158.2097881935711
 22
1141.903363573331
 32
0.0
 13
158.2097881935711
 23
1141.903363573331
 33
0.0
  0
TEXT
  5
24E7
  8
DIMENSIONS
  6
CONTINUOUS
 62
     5
 10
155.8147881935708
 20
1239.008363573331
 30
0.0
 40
5.0
  1
225 [8.86]
 50
90.0
  0
POINT
  5
24E8
  8
DEFPOINTS
 62
     0
 10
184.8157182587147
 20
1366.903363573331
 30
0.0
  0
POINT
  5
24E9
  8
DEFPOINTS
 62
     0
 10
184.8157182587148
 20
1141.903363573331
 30
0.0
  0
POINT
  5
24EA
  8
DEFPOINTS
 62
     0
 10
158.2097881935711
 20
1141.903363573331
 30
0.0
  0
ENDBLK
  5
24E1
  8
0
  0
BLOCK
  8
0
  2
*D403
 70
     1
 10
0.0
 20
0.0
 30
0.0
  3
*D403
  1

  0
LINE
  5
24F1
  8
DIMENSIONS
  6
BYBLOCK
 62
     0
 10
183.3157182587148
 20
1141.903363573331
 30
0.0
 11
158.0297881935711
 21
1141.903363573331
 31
0.0
  0
LINE
  5
24F2
  8
DIMENSIONS
  6
BYBLOCK
 62
     0
 10
183.3157182587148
 20
916.9033635733313
 30
0.0
 11
158.0297881935711
 21
916.9033635733313
 31
0.0
  0
LINE
  5
24F3
  8
DIMENSIONS
  6
BYBLOCK
 62
     0
 10
158.2097881935711
 20
1136.903363573331
 30
0.0
 11
158.2097881935711
 21
921.9033635733313
 31
0.0
  0
SOLID
  5
24F4
  8
DIMENSIONS
 62
     0
 10
159.0431215269044
 20
1136.903363573331
 30
0.0
 11
157.3764548602377
 21
1136.903363573331
 31
0.0
 12
158.2097881935711
 22
1141.903363573331
 32
0.0
 13
158.2097881935711
 23
1141.903363573331
 33
0.0
  0
SOLID
  5
24F5
  8
DIMENSIONS
 62
     0
 10
157.3764548602377
 20
921.9033635733313
 30
0.0
 11
159.0431215269044
 21
921.9033635733313
 31
0.0
 12
158.2097881935711
 22
916.9033635733313
 32
0.0
 13
158.2097881935711
 23
916.9033635733313
 33
0.0
  0
TEXT
  5
24F6
  8
DIMENSIONS
  6
CONTINUOUS
 62
     5
 10
155.8147881935708
 20
1014.008363573331
 30
0.0
 40
5.0
  1
225 [8.86]
 50
90.0
  0
POINT
  5
24F7
  8
DEFPOINTS
 62
     0
 10
184.8157182587148
 20
1141.903363573331
 30
0.0
  0
POINT
  5
24F8
  8
DEFPOINTS
 62
     0
 10
184.8157182587148
 20
916.9033635733313
 30
0.0
  0
POINT
  5
24F9
  8
DEFPOINTS
 62
     0
 10
158.2097881935711
 20
916.9033635733313
 30
0.0
  0
ENDBLK
  5
24F0
  8
0
  0
BLOCK
  8
0
  2
*D404
 70
     1
 10
0.0
 20
0.0
 30
0.0
  3
*D404
  1

  0
LINE
  5
2500
  8
DIMENSIONS
  6
BYBLOCK
 62
     0
 10
183.3157182587148
 20
916.9033635733313
 30
0.0
 11
158.0297881935711
 21
916.9033635733313
 31
0.0
  0
LINE
  5
2501
  8
DIMENSIONS
  6
BYBLOCK
 62
     0
 10
183.3157182587149
 20
691.9033635733313
 30
0.0
 11
158.0297881935711
 21
691.9033635733313
 31
0.0
  0
LINE
  5
2502
  8
DIMENSIONS
  6
BYBLOCK
 62
     0
 10
158.2097881935711
 20
911.9033635733313
 30
0.0
 11
158.2097881935711
 21
696.9033635733313
 31
0.0
  0
SOLID
  5
2503
  8
DIMENSIONS
 62
     0
 10
159.0431215269044
 20
911.9033635733313
 30
0.0
 11
157.3764548602377
 21
911.9033635733313
 31
0.0
 12
158.2097881935711
 22
916.9033635733313
 32
0.0
 13
158.2097881935711
 23
916.9033635733313
 33
0.0
  0
SOLID
  5
2504
  8
DIMENSIONS
 62
     0
 10
157.3764548602377
 20
696.9033635733313
 30
0.0
 11
159.0431215269044
 21
696.9033635733313
 31
0.0
 12
158.2097881935711
 22
691.9033635733313
 32
0.0
 13
158.2097881935711
 23
691.9033635733313
 33
0.0
  0
TEXT
  5
2505
  8
DIMENSIONS
  6
CONTINUOUS
 62
     5
 10
155.8147881935711
 20
789.0083635733313
 30
0.0
 40
5.0
  1
225 [8.86]
 50
90.0
  0
POINT
  5
2506
  8
DEFPOINTS
 62
     0
 10
184.8157182587148
 20
916.9033635733313
 30
0.0
  0
POINT
  5
2507
  8
DEFPOINTS
 62
     0
 10
184.8157182587149
 20
691.9033635733313
 30
0.0
  0
POINT
  5
2508
  8
DEFPOINTS
 62
     0
 10
158.2097881935711
 20
691.9033635733313
 30
0.0
  0
ENDBLK
  5
24FF
  8
0
  0
BLOCK
  8
0
  2
*D405
 70
     1
 10
0.0
 20
0.0
 30
0.0
  3
*D405
  1

  0
LINE
  5
250F
  8
DIMENSIONS
  6
BYBLOCK
 62
     0
 10
183.3157182587149
 20
691.9033635733313
 30
0.0
 11
158.0297881935711
 21
691.9033635733313
 31
0.0
  0
LINE
  5
2510
  8
DIMENSIONS
  6
BYBLOCK
 62
     0
 10
183.3157182587149
 20
466.9033635733313
 30
0.0
 11
158.0297881935711
 21
466.9033635733313
 31
0.0
  0
LINE
  5
2511
  8
DIMENSIONS
  6
BYBLOCK
 62
     0
 10
158.2097881935711
 20
686.9033635733313
 30
0.0
 11
158.2097881935711
 21
471.9033635733313
 31
0.0
  0
SOLID
  5
2512
  8
DIMENSIONS
 62
     0
 10
159.0431215269044
 20
686.9033635733313
 30
0.0
 11
157.3764548602377
 21
686.9033635733313
 31
0.0
 12
158.2097881935711
 22
691.9033635733313
 32
0.0
 13
158.2097881935711
 23
691.9033635733313
 33
0.0
  0
SOLID
  5
2513
  8
DIMENSIONS
 62
     0
 10
157.3764548602377
 20
471.9033635733313
 30
0.0
 11
159.0431215269044
 21
471.9033635733313
 31
0.0
 12
158.2097881935711
 22
466.9033635733313
 32
0.0
 13
158.2097881935711
 23
466.9033635733313
 33
0.0
  0
TEXT
  5
2514
  8
DIMENSIONS
  6
CONTINUOUS
 62
     5
 10
155.8147881935711
 20
564.0083635733313
 30
0.0
 40
5.0
  1
225 [8.86]
 50
90.0
  0
POINT
  5
2515
  8
DEFPOINTS
 62
     0
 10
184.8157182587149
 20
691.9033635733313
 30
0.0
  0
POINT
  5
2516
  8
DEFPOINTS
 62
     0
 10
184.8157182587149
 20
466.9033635733313
 30
0.0
  0
POINT
  5
2517
  8
DEFPOINTS
 62
     0
 10
158.2097881935711
 20
466.9033635733313
 30
0.0
  0
ENDBLK
  5
250E
  8
0
  0
BLOCK
  8
0
  2
*D406
 70
     1
 10
0.0
 20
0.0
 30
0.0
  3
*D406
  1

  0
LINE
  5
251E
  8
DIMENSIONS
  6
BYBLOCK
 62
     0
 10
183.3157182587149
 20
466.9033635733313
 30
0.0
 11
158.0297881935711
 21
466.9033635733313
 31
0.0
  0
LINE
  5
251F
  8
DIMENSIONS
  6
BYBLOCK
 62
     0
 10
173.3157182587149
 20
416.9033635733313
 30
0.0
 11
158.0297881935711
 21
416.9033635733313
 31
0.0
  0
LINE
  5
2520
  8
DIMENSIONS
  6
BYBLOCK
 62
     0
 10
158.2097881935711
 20
461.9033635733313
 30
0.0
 11
158.2097881935711
 21
421.9033635733313
 31
0.0
  0
SOLID
  5
2521
  8
DIMENSIONS
 62
     0
 10
159.0431215269044
 20
461.9033635733313
 30
0.0
 11
157.3764548602377
 21
461.9033635733313
 31
0.0
 12
158.2097881935711
 22
466.9033635733313
 32
0.0
 13
158.2097881935711
 23
466.9033635733313
 33
0.0
  0
SOLID
  5
2522
  8
DIMENSIONS
 62
     0
 10
157.3764548602377
 20
421.9033635733313
 30
0.0
 11
159.0431215269044
 21
421.9033635733313
 31
0.0
 12
158.2097881935711
 22
416.9033635733313
 32
0.0
 13
158.2097881935711
 23
416.9033635733313
 33
0.0
  0
TEXT
  5
2523
  8
DIMENSIONS
  6
CONTINUOUS
 62
     5
 10
155.8147881935711
 20
428.4058635733313
 30
0.0
 40
5.0
  1
50 [1.97]
 50
90.0
  0
POINT
  5
2524
  8
DEFPOINTS
 62
     0
 10
184.8157182587149
 20
466.9033635733313
 30
0.0
  0
POINT
  5
2525
  8
DEFPOINTS
 62
     0
 10
174.8157182587149
 20
416.9033635733313
 30
0.0
  0
POINT
  5
2526
  8
DEFPOINTS
 62
     0
 10
158.2097881935711
 20
416.9033635733313
 30
0.0
  0
ENDBLK
  5
251D
  8
0
  0
BLOCK
  8
0
  2
*D407
 70
     1
 10
0.0
 20
0.0
 30
0.0
  3
*D407
  1

  0
LINE
  5
2543
  8
DIMENSIONS
  6
BYBLOCK
 62
     0
 10
1136.315718258715
 20
2316.903363573331
 30
0.0
 11
1153.512922929298
 21
2316.903363573331
 31
0.0
  0
LINE
  5
2544
  8
DIMENSIONS
  6
BYBLOCK
 62
     0
 10
1061.315718258716
 20
2271.903363573331
 30
0.0
 11
1153.512922929298
 21
2271.903363573331
 31
0.0
  0
LINE
  5
2545
  8
DIMENSIONS
  6
BYBLOCK
 62
     0
 10
1153.332922929298
 20
2311.903363573331
 30
0.0
 11
1153.332922929298
 21
2276.903363573331
 31
0.0
  0
SOLID
  5
2546
  8
DIMENSIONS
 62
     0
 10
1154.166256262631
 20
2311.903363573331
 30
0.0
 11
1152.499589595965
 21
2311.903363573331
 31
0.0
 12
1153.332922929298
 22
2316.903363573331
 32
0.0
 13
1153.332922929298
 23
2316.903363573331
 33
0.0
  0
SOLID
  5
2547
  8
DIMENSIONS
 62
     0
 10
1152.499589595965
 20
2276.903363573331
 30
0.0
 11
1154.166256262631
 21
2276.903363573331
 31
0.0
 12
1153.332922929298
 22
2271.903363573331
 32
0.0
 13
1153.332922929298
 23
2271.903363573331
 33
0.0
  0
TEXT
  5
2548
  8
DIMENSIONS
  6
CONTINUOUS
 62
     5
 10
1150.937922929298
 20
2281.005863573331
 30
0.0
 40
5.0
  1
45 [1.77]
 50
90.0
  0
POINT
  5
2549
  8
DEFPOINTS
 62
     0
 10
1134.815718258715
 20
2316.903363573331
 30
0.0
  0
POINT
  5
254A
  8
DEFPOINTS
 62
     0
 10
1059.815718258716
 20
2271.903363573331
 30
0.0
  0
POINT
  5
254B
  8
DEFPOINTS
 62
     0
 10
1153.332922929298
 20
2271.903363573331
 30
0.0
  0
ENDBLK
  5
2542
  8
0
  0
BLOCK
  8
0
  2
*D408
 70
     1
 10
0.0
 20
0.0
 30
0.0
  3
*D408
  1

  0
LINE
  5
2552
  8
DIMENSIONS
  6
BYBLOCK
 62
     0
 10
1061.315718258716
 20
2271.903363573331
 30
0.0
 11
1153.512922929298
 21
2271.903363573331
 31
0.0
  0
LINE
  5
2553
  8
DIMENSIONS
  6
BYBLOCK
 62
     0
 10
1061.315718258716
 20
1891.903363573331
 30
0.0
 11
1153.512922929298
 21
1891.903363573331
 31
0.0
  0
LINE
  5
2554
  8
DIMENSIONS
  6
BYBLOCK
 62
     0
 10
1153.332922929298
 20
2266.903363573331
 30
0.0
 11
1153.332922929298
 21
1896.903363573331
 31
0.0
  0
SOLID
  5
2555
  8
DIMENSIONS
 62
     0
 10
1154.166256262631
 20
2266.903363573331
 30
0.0
 11
1152.499589595965
 21
2266.903363573331
 31
0.0
 12
1153.332922929298
 22
2271.903363573331
 32
0.0
 13
1153.332922929298
 23
2271.903363573331
 33
0.0
  0
SOLID
  5
2556
  8
DIMENSIONS
 62
     0
 10
1152.499589595965
 20
1896.903363573331
 30
0.0
 11
1154.166256262631
 21
1896.903363573331
 31
0.0
 12
1153.332922929298
 22
1891.903363573331
 32
0.0
 13
1153.332922929298
 23
1891.903363573331
 33
0.0
  0
TEXT
  5
2557
  8
DIMENSIONS
  6
CONTINUOUS
 62
     5
 10
1150.937922929298
 20
2064.523363573331
 30
0.0
 40
5.0
  1
380 [14.96]
 50
90.0
  0
POINT
  5
2558
  8
DEFPOINTS
 62
     0
 10
1059.815718258716
 20
2271.903363573331
 30
0.0
  0
POINT
  5
2559
  8
DEFPOINTS
 62
     0
 10
1059.815718258716
 20
1891.903363573331
 30
0.0
  0
POINT
  5
255A
  8
DEFPOINTS
 62
     0
 10
1153.332922929298
 20
1891.903363573331
 30
0.0
  0
ENDBLK
  5
2551
  8
0
  0
BLOCK
  8
0
  2
*D409
 70
     1
 10
0.0
 20
0.0
 30
0.0
  3
*D409
  1

  0
LINE
  5
2561
  8
DIMENSIONS
  6
BYBLOCK
 62
     0
 10
1061.315718258716
 20
1891.903363573331
 30
0.0
 11
1153.512922929298
 21
1891.903363573331
 31
0.0
  0
LINE
  5
2562
  8
DIMENSIONS
  6
BYBLOCK
 62
     0
 10
1061.315718258716
 20
916.9033635733314
 30
0.0
 11
1153.512922929298
 21
916.9033635733314
 31
0.0
  0
LINE
  5
2563
  8
DIMENSIONS
  6
BYBLOCK
 62
     0
 10
1153.332922929298
 20
1886.903363573331
 30
0.0
 11
1153.332922929298
 21
921.9033635733314
 31
0.0
  0
SOLID
  5
2564
  8
DIMENSIONS
 62
     0
 10
1154.166256262631
 20
1886.903363573331
 30
0.0
 11
1152.499589595965
 21
1886.903363573331
 31
0.0
 12
1153.332922929298
 22
1891.903363573331
 32
0.0
 13
1153.332922929298
 23
1891.903363573331
 33
0.0
  0
SOLID
  5
2565
  8
DIMENSIONS
 62
     0
 10
1152.499589595965
 20
921.9033635733314
 30
0.0
 11
1154.166256262631
 21
921.9033635733314
 31
0.0
 12
1153.332922929298
 22
916.9033635733314
 32
0.0
 13
1153.332922929298
 23
916.9033635733314
 33
0.0
  0
TEXT
  5
2566
  8
DIMENSIONS
  6
CONTINUOUS
 62
     5
 10
1150.937922929298
 20
1387.025863573331
 30
0.0
 40
5.0
  1
975 [38.39]
 50
90.0
  0
POINT
  5
2567
  8
DEFPOINTS
 62
     0
 10
1059.815718258716
 20
1891.903363573331
 30
0.0
  0
POINT
  5
2568
  8
DEFPOINTS
 62
     0
 10
1059.815718258716
 20
916.9033635733314
 30
0.0
  0
POINT
  5
2569
  8
DEFPOINTS
 62
     0
 10
1153.332922929298
 20
916.9033635733314
 30
0.0
  0
ENDBLK
  5
2560
  8
0
  0
BLOCK
  8
0
  2
*D410
 70
     1
 10
0.0
 20
0.0
 30
0.0
  3
*D410
  1

  0
LINE
  5
2570
  8
DIMENSIONS
  6
BYBLOCK
 62
     0
 10
1061.315718258716
 20
916.9033635733314
 30
0.0
 11
1153.512922929298
 21
916.9033635733314
 31
0.0
  0
LINE
  5
2571
  8
DIMENSIONS
  6
BYBLOCK
 62
     0
 10
1061.315718258716
 20
526.9033635733313
 30
0.0
 11
1153.512922929298
 21
526.9033635733313
 31
0.0
  0
LINE
  5
2572
  8
DIMENSIONS
  6
BYBLOCK
 62
     0
 10
1153.332922929298
 20
911.9033635733314
 30
0.0
 11
1153.332922929298
 21
531.9033635733313
 31
0.0
  0
SOLID
  5
2573
  8
DIMENSIONS
 62
     0
 10
1154.166256262631
 20
911.9033635733314
 30
0.0
 11
1152.499589595965
 21
911.9033635733314
 31
0.0
 12
1153.332922929298
 22
916.9033635733314
 32
0.0
 13
1153.332922929298
 23
916.9033635733314
 33
0.0
  0
SOLID
  5
2574
  8
DIMENSIONS
 62
     0
 10
1152.499589595965
 20
531.9033635733313
 30
0.0
 11
1154.166256262631
 21
531.9033635733313
 31
0.0
 12
1153.332922929298
 22
526.9033635733313
 32
0.0
 13
1153.332922929298
 23
526.9033635733313
 33
0.0
  0
TEXT
  5
2575
  8
DIMENSIONS
  6
CONTINUOUS
 62
     5
 10
1150.937922929298
 20
704.5233635733312
 30
0.0
 40
5.0
  1
390 [15.35]
 50
90.0
  0
POINT
  5
2576
  8
DEFPOINTS
 62
     0
 10
1059.815718258716
 20
916.9033635733314
 30
0.0
  0
POINT
  5
2577
  8
DEFPOINTS
 62
     0
 10
1059.815718258716
 20
526.9033635733313
 30
0.0
  0
POINT
  5
2578
  8
DEFPOINTS
 62
     0
 10
1153.332922929298
 20
526.9033635733313
 30
0.0
  0
ENDBLK
  5
256F
  8
0
  0
BLOCK
  8
0
  2
*D411
 70
     1
 10
0.0
 20
0.0
 30
0.0
  3
*D411
  1

  0
LINE
  5
257F
  8
DIMENSIONS
  6
BYBLOCK
 62
     0
 10
1061.315718258716
 20
526.9033635733313
 30
0.0
 11
1153.512922929298
 21
526.9033635733313
 31
0.0
  0
LINE
  5
2580
  8
DIMENSIONS
  6
BYBLOCK
 62
     0
 10
1136.315718258715
 20
416.9033635733313
 30
0.0
 11
1153.512922929298
 21
416.9033635733313
 31
0.0
  0
LINE
  5
2581
  8
DIMENSIONS
  6
BYBLOCK
 62
     0
 10
1153.332922929298
 20
521.9033635733313
 30
0.0
 11
1153.332922929298
 21
421.9033635733313
 31
0.0
  0
SOLID
  5
2582
  8
DIMENSIONS
 62
     0
 10
1154.166256262631
 20
521.9033635733313
 30
0.0
 11
1152.499589595965
 21
521.9033635733313
 31
0.0
 12
1153.332922929298
 22
526.9033635733313
 32
0.0
 13
1153.332922929298
 23
526.9033635733313
 33
0.0
  0
SOLID
  5
2583
  8
DIMENSIONS
 62
     0
 10
1152.499589595965
 20
421.9033635733313
 30
0.0
 11
1154.166256262631
 21
421.9033635733313
 31
0.0
 12
1153.332922929298
 22
416.9033635733313
 32
0.0
 13
1153.332922929298
 23
416.9033635733313
 33
0.0
  0
TEXT
  5
2584
  8
DIMENSIONS
  6
CONTINUOUS
 62
     5
 10
1150.937922929298
 20
456.2308635733314
 30
0.0
 40
5.0
  1
110 [4.33]
 50
90.0
  0
POINT
  5
2585
  8
DEFPOINTS
 62
     0
 10
1059.815718258716
 20
526.9033635733313
 30
0.0
  0
POINT
  5
2586
  8
DEFPOINTS
 62
     0
 10
1134.815718258715
 20
416.9033635733313
 30
0.0
  0
POINT
  5
2587
  8
DEFPOINTS
 62
     0
 10
1153.332922929298
 20
416.9033635733313
 30
0.0
  0
ENDBLK
  5
257E
  8
0
  0
BLOCK
  8
0
  2
*D412
 70
     1
 10
0.0
 20
0.0
 30
0.0
  3
*D412
  1

  0
LINE
  5
258E
  8
DIMENSIONS
  6
BYBLOCK
 62
     0
 10
1114.815719137807
 20
466.8991705048907
 30
0.0
 11
1070.530723030862
 21
466.8806015013297
 31
0.0
  0
TEXT
  5
258F
  8
DIMENSIONS
  6
CONTINUOUS
 62
     5
 10
1071.24968518313
 20
469.3559031846819
 30
0.0
 40
5.0
  1
Ø10 [Ø0.39]
 50
0.0240245131531003
  0
SOLID
  5
2590
  8
DIMENSIONS
 62
     0
 10
1114.816068560176
 20
466.065837244815
 30
0.0
 11
1114.815369715437
 21
467.7325037649665
 31
0.0
 12
1119.815718698261
 22
466.9012670391078
 32
0.0
 13
1119.815718698261
 23
466.9012670391078
 33
0.0
  0
LINE
  5
2591
  8
DIMENSIONS
  6
BYBLOCK
 62
     0
 10
1122.315718258716
 20
466.903363573325
 30
0.0
 11
1127.315718258716
 21
466.903363573325
 31
0.0
  0
LINE
  5
2592
  8
DIMENSIONS
  6
BYBLOCK
 62
     0
 10
1124.815718258716
 20
464.403363573325
 30
0.0
 11
1124.815718258716
 21
469.403363573325
 31
0.0
  0
POINT
  5
2593
  8
DEFPOINTS
 62
     0
 10
1119.815718698261
 20
466.9012670391078
 30
0.0
  0
POINT
  5
2594
  8
DEFPOINTS
 62
     0
 10
1129.81571781917
 20
466.9054601075421
 30
0.0
  0
ENDBLK
  5
258D
  8
0
  0
BLOCK
  8
0
  2
*X415
 70
     1
 10
0.0
 20
0.0
 30
0.0
  3
*X415
  1

  0
LINE
  5
262E
  8
CUTOUT
 10
67.9999999999998
 20
598.3300858899105
 30
0.0
 11
95.41991411008925
 21
625.75
 31
0.0
  0
LINE
  5
262F
  8
CUTOUT
 10
67.9999999999998
 20
554.1359120657512
 30
0.0
 11
139.6140879342485
 21
625.75
 31
0.0
  0
LINE
  5
2630
  8
CUTOUT
 10
67.9999999999998
 20
509.941738241592
 30
0.0
 11
183.8082617584077
 21
625.75
 31
0.0
  0
LINE
  5
2631
  8
CUTOUT
 10
67.99999999999977
 20
465.7475644174328
 30
0.0
 11
228.0024355825669
 21
625.75
 31
0.0
  0
LINE
  5
2632
  8
CUTOUT
 10
67.9999999999998
 20
421.5533905932736
 30
0.0
 11
272.1966094067261
 21
625.75
 31
0.0
  0
LINE
  5
2633
  8
CUTOUT
 10
67.9999999999998
 20
377.3592167691144
 30
0.0
 11
316.3907832308853
 21
625.75
 31
0.0
  0
LINE
  5
2634
  8
CUTOUT
 10
67.99999999999977
 20
333.1650429449551
 30
0.0
 11
360.5849570550446
 21
625.75
 31
0.0
  0
LINE
  5
2635
  8
CUTOUT
 10
67.99999999999977
 20
288.9708691207959
 30
0.0
 11
404.7791308792038
 21
625.75
 31
0.0
  0
LINE
  5
2636
  8
CUTOUT
 10
68.97330470336308
 20
245.75
 30
0.0
 11
438.9999999999998
 21
615.7766952966367
 31
0.0
  0
LINE
  5
2637
  8
CUTOUT
 10
67.9999999999998
 20
200.5825214724775
 30
0.0
 11
71.66747852752232
 21
204.25
 31
0.0
  0
LINE
  5
2638
  8
CUTOUT
 10
67.99999999999983
 20
156.3883476483183
 30
0.0
 11
115.8616523516816
 21
204.25
 31
0.0
  0
LINE
  5
2639
  8
CUTOUT
 10
67.99999999999983
 20
112.1941738241591
 30
0.0
 11
160.0558261758408
 21
204.25
 31
0.0
  0
LINE
  5
263A
  8
CUTOUT
 10
67.99999999999983
 20
67.99999999999983
 30
0.0
 11
204.25
 21
204.25
 31
0.0
  0
LINE
  5
263B
  8
CUTOUT
 10
113.1674785275223
 20
245.75
 30
0.0
 11
438.9999999999998
 21
571.5825214724775
 31
0.0
  0
LINE
  5
263C
  8
CUTOUT
 10
157.3616523516815
 20
245.75
 30
0.0
 11
438.9999999999998
 21
527.3883476483184
 31
0.0
  0
LINE
  5
263D
  8
CUTOUT
 10
201.5558261758408
 20
245.75
 30
0.0
 11
438.9999999999998
 21
483.1941738241591
 31
0.0
  0
LINE
  5
263E
  8
CUTOUT
 10
245.75
 20
245.75
 30
0.0
 11
438.9999999999997
 21
438.9999999999998
 31
0.0
  0
LINE
  5
263F
  8
CUTOUT
 10
86.94417382415912
 20
42.74999999999994
 30
0.0
 11
248.4441738241592
 21
204.25
 31
0.0
  0
LINE
  5
2640
  8
CUTOUT
 10
131.1383476483184
 20
42.74999999999989
 30
0.0
 11
292.6383476483184
 21
204.25
 31
0.0
  0
LINE
  5
2641
  8
CUTOUT
 10
175.3325214724775
 20
42.74999999999994
 30
0.0
 11
336.8325214724777
 21
204.25
 31
0.0
  0
LINE
  5
2642
  8
CUTOUT
 10
219.5266952966368
 20
42.74999999999994
 30
0.0
 11
381.0266952966368
 21
204.25
 31
0.0
  0
LINE
  5
2643
  8
CUTOUT
 10
289.9441738241592
 20
245.75
 30
0.0
 11
438.9999999999998
 21
394.8058261758406
 31
0.0
  0
LINE
  5
2644
  8
CUTOUT
 10
334.1383476483184
 20
245.75
 30
0.0
 11
438.9999999999998
 21
350.6116523516814
 31
0.0
  0
LINE
  5
2645
  8
CUTOUT
 10
378.3325214724776
 20
245.75
 30
0.0
 11
438.9999999999998
 21
306.4174785275221
 31
0.0
  0
LINE
  5
2646
  8
CUTOUT
 10
422.5266952966368
 20
245.75
 30
0.0
 11
438.9999999999998
 21
262.2233047033629
 31
0.0
  0
LINE
  5
2647
  8
CUTOUT
 10
263.720869120796
 20
42.74999999999994
 30
0.0
 11
425.220869120796
 21
204.25
 31
0.0
  0
LINE
  5
2648
  8
CUTOUT
 10
307.9150429449552
 20
42.74999999999994
 30
0.0
 11
438.9999999999997
 21
173.8349570550444
 31
0.0
  0
LINE
  5
2649
  8
CUTOUT
 10
352.1092167691144
 20
42.74999999999989
 30
0.0
 11
438.9999999999997
 21
129.6407832308852
 31
0.0
  0
LINE
  5
264A
  8
CUTOUT
 10
396.3033905932737
 20
42.74999999999994
 30
0.0
 11
438.9999999999998
 21
85.446609406726
 31
0.0
  0
ENDBLK
  5
264B
  8
0
  0
BLOCK
  8
0
  2
*D416
 70
     1
 10
0.0
 20
0.0
 30
0.0
  3
*D416
  1

  0
LINE
  5
2668
  8
DIMENSIONS
  6
BYBLOCK
 62
     0
 10
241.2838162235563
 20
1050.691204027002
 30
0.0
 11
241.2838162235563
 21
1110.177425948218
 31
0.0
  0
LINE
  5
2669
  8
DIMENSIONS
  6
BYBLOCK
 62
     0
 10
612.2838162235563
 20
1050.691204027002
 30
0.0
 11
612.2838162235563
 21
1110.177425948218
 31
0.0
  0
LINE
  5
266A
  8
DIMENSIONS
  6
BYBLOCK
 62
     0
 10
246.2838162235563
 20
1109.997425948218
 30
0.0
 11
607.2838162235563
 21
1109.997425948218
 31
0.0
  0
SOLID
  5
266B
  8
DIMENSIONS
 62
     0
 10
246.2838162235563
 20
1110.830759281552
 30
0.0
 11
246.2838162235563
 21
1109.164092614885
 31
0.0
 12
241.2838162235563
 22
1109.997425948218
 32
0.0
 13
241.2838162235563
 23
1109.997425948218
 33
0.0
  0
SOLID
  5
266C
  8
DIMENSIONS
 62
     0
 10
607.2838162235563
 20
1109.164092614885
 30
0.0
 11
607.2838162235563
 21
1110.830759281552
 31
0.0
 12
612.2838162235563
 22
1109.997425948218
 32
0.0
 13
612.2838162235563
 23
1109.997425948218
 33
0.0
  0
TEXT
  5
266D
  8
DIMENSIONS
  6
CONTINUOUS
 62
     5
 10
409.4038162235563
 20
1112.392425948218
 30
0.0
 40
5.0
  1
371 [14.61]
  0
POINT
  5
266E
  8
DEFPOINTS
 62
     0
 10
241.2838162235563
 20
1049.191204027002
 30
0.0
  0
POINT
  5
266F
  8
DEFPOINTS
 62
     0
 10
612.2838162235563
 20
1049.191204027002
 30
0.0
  0
POINT
  5
2670
  8
DEFPOINTS
 62
     0
 10
612.2838162235563
 20
1109.997425948218
 30
0.0
  0
ENDBLK
  5
2667
  8
0
  0
BLOCK
  8
0
  2
*D417
 70
     1
 10
0.0
 20
0.0
 30
0.0
  3
*D417
  1

  0
LINE
  5
2677
  8
DIMENSIONS
  6
BYBLOCK
 62
     0
 10
620.7838162235564
 20
1081.941204027002
 30
0.0
 11
620.7838162235564
 21
1130.233098940229
 31
0.0
  0
LINE
  5
2678
  8
DIMENSIONS
  6
BYBLOCK
 62
     0
 10
232.7838162235564
 20
1081.941204027003
 30
0.0
 11
232.7838162235564
 21
1130.233098940229
 31
0.0
  0
LINE
  5
2679
  8
DIMENSIONS
  6
BYBLOCK
 62
     0
 10
615.7838162235564
 20
1130.053098940229
 30
0.0
 11
237.7838162235564
 21
1130.053098940229
 31
0.0
  0
SOLID
  5
267A
  8
DIMENSIONS
 62
     0
 10
615.7838162235564
 20
1129.219765606896
 30
0.0
 11
615.7838162235564
 21
1130.886432273562
 31
0.0
 12
620.7838162235564
 22
1130.053098940229
 32
0.0
 13
620.7838162235564
 23
1130.053098940229
 33
0.0
  0
SOLID
  5
267B
  8
DIMENSIONS
 62
     0
 10
237.7838162235564
 20
1130.886432273562
 30
0.0
 11
237.7838162235564
 21
1129.219765606896
 31
0.0
 12
232.7838162235564
 22
1130.053098940229
 32
0.0
 13
232.7838162235564
 23
1130.053098940229
 33
0.0
  0
TEXT
  5
267C
  8
DIMENSIONS
  6
CONTINUOUS
 62
     5
 10
409.4038162235564
 20
1132.448098940229
 30
0.0
 40
5.0
  1
388 [15.28]
  0
POINT
  5
267D
  8
DEFPOINTS
 62
     0
 10
620.7838162235564
 20
1080.441204027002
 30
0.0
  0
POINT
  5
267E
  8
DEFPOINTS
 62
     0
 10
232.7838162235564
 20
1080.441204027003
 30
0.0
  0
POINT
  5
267F
  8
DEFPOINTS
 62
     0
 10
232.7838162235564
 20
1130.053098940229
 30
0.0
  0
ENDBLK
  5
2676
  8
0
  0
BLOCK
  8
0
  2
*D418
 70
     1
 10
0.0
 20
0.0
 30
0.0
  3
*D418
  1

  0
LINE
  5
2686
  8
DIMENSIONS
  6
BYBLOCK
 62
     0
 10
192.7838162235563
 20
1072.441204027002
 30
0.0
 11
192.7838162235563
 21
1148.746662207936
 31
0.0
  0
LINE
  5
2687
  8
DIMENSIONS
  6
BYBLOCK
 62
     0
 10
660.7838162235563
 20
1072.441204027002
 30
0.0
 11
660.7838162235563
 21
1148.746662207936
 31
0.0
  0
LINE
  5
2688
  8
DIMENSIONS
  6
BYBLOCK
 62
     0
 10
197.7838162235563
 20
1148.566662207936
 30
0.0
 11
655.7838162235563
 21
1148.566662207936
 31
0.0
  0
SOLID
  5
2689
  8
DIMENSIONS
 62
     0
 10
197.7838162235563
 20
1149.39999554127
 30
0.0
 11
197.7838162235563
 21
1147.733328874603
 31
0.0
 12
192.7838162235563
 22
1148.566662207936
 32
0.0
 13
192.7838162235563
 23
1148.566662207936
 33
0.0
  0
SOLID
  5
268A
  8
DIMENSIONS
 62
     0
 10
655.7838162235563
 20
1147.733328874603
 30
0.0
 11
655.7838162235563
 21
1149.39999554127
 31
0.0
 12
660.7838162235563
 22
1148.566662207936
 32
0.0
 13
660.7838162235563
 23
1148.566662207936
 33
0.0
  0
TEXT
  5
268B
  8
DIMENSIONS
  6
CONTINUOUS
 62
     5
 10
409.5063162235563
 20
1150.961662207937
 30
0.0
 40
5.0
  1
468 [18.43]
  0
POINT
  5
268C
  8
DEFPOINTS
 62
     0
 10
192.7838162235563
 20
1070.941204027002
 30
0.0
  0
POINT
  5
268D
  8
DEFPOINTS
 62
     0
 10
660.7838162235563
 20
1070.941204027002
 30
0.0
  0
POINT
  5
268E
  8
DEFPOINTS
 62
     0
 10
660.7838162235563
 20
1148.566662207936
 30
0.0
  0
ENDBLK
  5
2685
  8
0
  0
BLOCK
  8
0
  2
*D419
 70
     1
 10
0.0
 20
0.0
 30
0.0
  3
*D419
  1

  0
LINE
  5
2695
  8
DIMENSIONS
  6
BYBLOCK
 62
     0
 10
173.2838162235563
 20
1091.941204027002
 30
0.0
 11
173.2838162235563
 21
1165.836454117884
 31
0.0
  0
LINE
  5
2696
  8
DIMENSIONS
  6
BYBLOCK
 62
     0
 10
680.2838162235565
 20
1091.941204027002
 30
0.0
 11
680.2838162235565
 21
1165.836454117884
 31
0.0
  0
LINE
  5
2697
  8
DIMENSIONS
  6
BYBLOCK
 62
     0
 10
178.2838162235563
 20
1165.656454117884
 30
0.0
 11
675.2838162235565
 21
1165.656454117884
 31
0.0
  0
SOLID
  5
2698
  8
DIMENSIONS
 62
     0
 10
178.2838162235563
 20
1166.489787451217
 30
0.0
 11
178.2838162235563
 21
1164.823120784551
 31
0.0
 12
173.2838162235563
 22
1165.656454117884
 32
0.0
 13
173.2838162235563
 23
1165.656454117884
 33
0.0
  0
SOLID
  5
2699
  8
DIMENSIONS
 62
     0
 10
675.2838162235565
 20
1164.823120784551
 30
0.0
 11
675.2838162235565
 21
1166.489787451217
 31
0.0
 12
680.2838162235565
 22
1165.656454117884
 32
0.0
 13
680.2838162235565
 23
1165.656454117884
 33
0.0
  0
TEXT
  5
269A
  8
DIMENSIONS
  6
CONTINUOUS
 62
     5
 10
409.4063162235564
 20
1168.051454117884
 30
0.0
 40
5.0
  1
507 [19.96]
  0
POINT
  5
269B
  8
DEFPOINTS
 62
     0
 10
173.2838162235563
 20
1090.441204027002
 30
0.0
  0
POINT
  5
269C
  8
DEFPOINTS
 62
     0
 10
680.2838162235565
 20
1090.441204027002
 30
0.0
  0
POINT
  5
269D
  8
DEFPOINTS
 62
     0
 10
680.2838162235565
 20
1165.656454117884
 30
0.0
  0
ENDBLK
  5
2694
  8
0
  0
BLOCK
  8
0
  2
*D420
 70
     1
 10
0.0
 20
0.0
 30
0.0
  3
*D420
  1

  0
LINE
  5
26A4
  8
DIMENSIONS
  6
BYBLOCK
 62
     0
 10
181.7838162235563
 20
665.9412040270023
 30
0.0
 11
155.9635371989046
 21
665.9412040270023
 31
0.0
  0
LINE
  5
26A5
  8
DIMENSIONS
  6
BYBLOCK
 62
     0
 10
181.7838162235563
 20
847.9412040270023
 30
0.0
 11
155.9635371989046
 21
847.9412040270023
 31
0.0
  0
LINE
  5
26A6
  8
DIMENSIONS
  6
BYBLOCK
 62
     0
 10
156.1435371989046
 20
670.9412040270023
 30
0.0
 11
156.1435371989046
 21
842.9412040270023
 31
0.0
  0
SOLID
  5
26A7
  8
DIMENSIONS
 62
     0
 10
155.3102038655712
 20
670.9412040270023
 30
0.0
 11
156.9768705322379
 21
670.9412040270023
 31
0.0
 12
156.1435371989046
 22
665.9412040270023
 32
0.0
 13
156.1435371989046
 23
665.9412040270023
 33
0.0
  0
SOLID
  5
26A8
  8
DIMENSIONS
 62
     0
 10
156.9768705322379
 20
842.9412040270023
 30
0.0
 11
155.3102038655712
 21
842.9412040270023
 31
0.0
 12
156.1435371989046
 22
847.9412040270023
 32
0.0
 13
156.1435371989046
 23
847.9412040270023
 33
0.0
  0
TEXT
  5
26A9
  8
DIMENSIONS
  6
CONTINUOUS
 62
     5
 10
153.7485371989046
 20
741.2687040270023
 30
0.0
 40
5.0
  1
182 [7.17]
 50
90.0
  0
POINT
  5
26AA
  8
DEFPOINTS
 62
     0
 10
183.2838162235563
 20
665.9412040270023
 30
0.0
  0
POINT
  5
26AB
  8
DEFPOINTS
 62
     0
 10
183.2838162235563
 20
847.9412040270023
 30
0.0
  0
POINT
  5
26AC
  8
DEFPOINTS
 62
     0
 10
156.1435371989046
 20
847.9412040270023
 30
0.0
  0
ENDBLK
  5
26A3
  8
0
  0
BLOCK
  8
0
  2
*D421
 70
     1
 10
0.0
 20
0.0
 30
0.0
  3
*D421
  1

  0
LINE
  5
26B3
  8
DIMENSIONS
  6
BYBLOCK
 62
     0
 10
181.7838162235563
 20
1029.941204027002
 30
0.0
 11
138.2239542306728
 21
1029.941204027002
 31
0.0
  0
LINE
  5
26B4
  8
DIMENSIONS
  6
BYBLOCK
 62
     0
 10
181.7838162235563
 20
483.9412040270023
 30
0.0
 11
138.2239542306727
 21
483.9412040270023
 31
0.0
  0
LINE
  5
26B5
  8
DIMENSIONS
  6
BYBLOCK
 62
     0
 10
138.4039542306728
 20
1024.941204027002
 30
0.0
 11
138.4039542306728
 21
488.9412040270023
 31
0.0
  0
SOLID
  5
26B6
  8
DIMENSIONS
 62
     0
 10
139.2372875640061
 20
1024.941204027002
 30
0.0
 11
137.5706208973394
 21
1024.941204027002
 31
0.0
 12
138.4039542306728
 22
1029.941204027002
 32
0.0
 13
138.4039542306728
 23
1029.941204027002
 33
0.0
  0
SOLID
  5
26B7
  8
DIMENSIONS
 62
     0
 10
137.5706208973394
 20
488.9412040270023
 30
0.0
 11
139.2372875640061
 21
488.9412040270023
 31
0.0
 12
138.4039542306728
 22
483.9412040270023
 32
0.0
 13
138.4039542306728
 23
483.9412040270023
 33
0.0
  0
TEXT
  5
26B8
  8
DIMENSIONS
  6
CONTINUOUS
 62
     5
 10
136.0089542306728
 20
739.5637040270022
 30
0.0
 40
5.0
  1
546 [21.50]
 50
90.0
  0
POINT
  5
26B9
  8
DEFPOINTS
 62
     0
 10
183.2838162235563
 20
1029.941204027002
 30
0.0
  0
POINT
  5
26BA
  8
DEFPOINTS
 62
     0
 10
183.2838162235563
 20
483.9412040270023
 30
0.0
  0
POINT
  5
26BB
  8
DEFPOINTS
 62
     0
 10
138.4039542306728
 20
483.9412040270023
 30
0.0
  0
ENDBLK
  5
26B2
  8
0
  0
BLOCK
  8
0
  2
*D422
 70
     1
 10
0.0
 20
0.0
 30
0.0
  3
*D422
  1

  0
LINE
  5
26C2
  8
DIMENSIONS
  6
BYBLOCK
 62
     0
 10
191.2838162235563
 20
1070.941204027002
 30
0.0
 11
121.2849408040488
 21
1070.941204027002
 31
0.0
  0
LINE
  5
26C3
  8
DIMENSIONS
  6
BYBLOCK
 62
     0
 10
191.2838162235563
 20
442.9412040270023
 30
0.0
 11
121.2849408040488
 21
442.9412040270023
 31
0.0
  0
LINE
  5
26C4
  8
DIMENSIONS
  6
BYBLOCK
 62
     0
 10
121.4649408040488
 20
1065.941204027002
 30
0.0
 11
121.4649408040488
 21
447.9412040270023
 31
0.0
  0
SOLID
  5
26C5
  8
DIMENSIONS
 62
     0
 10
122.2982741373822
 20
1065.941204027002
 30
0.0
 11
120.6316074707155
 21
1065.941204027002
 31
0.0
 12
121.4649408040488
 22
1070.941204027002
 32
0.0
 13
121.4649408040488
 23
1070.941204027002
 33
0.0
  0
SOLID
  5
26C6
  8
DIMENSIONS
 62
     0
 10
120.6316074707155
 20
447.9412040270023
 30
0.0
 11
122.2982741373821
 21
447.9412040270023
 31
0.0
 12
121.4649408040488
 22
442.9412040270023
 32
0.0
 13
121.4649408040488
 23
442.9412040270023
 33
0.0
  0
TEXT
  5
26C7
  8
DIMENSIONS
  6
CONTINUOUS
 62
     5
 10
119.0699408040488
 20
739.5787040270022
 30
0.0
 40
5.0
  1
628 [24.72]
 50
90.0
  0
POINT
  5
26C8
  8
DEFPOINTS
 62
     0
 10
192.7838162235563
 20
1070.941204027002
 30
0.0
  0
POINT
  5
26C9
  8
DEFPOINTS
 62
     0
 10
192.7838162235563
 20
442.9412040270023
 30
0.0
  0
POINT
  5
26CA
  8
DEFPOINTS
 62
     0
 10
121.4649408040488
 20
442.9412040270023
 30
0.0
  0
ENDBLK
  5
26C1
  8
0
  0
BLOCK
  8
0
  2
*D423
 70
     1
 10
0.0
 20
0.0
 30
0.0
  3
*D423
  1

  0
LINE
  5
26D1
  8
DIMENSIONS
  6
BYBLOCK
 62
     0
 10
231.2838162235564
 20
1080.441204027003
 30
0.0
 11
104.2714730172337
 21
1080.441204027003
 31
0.0
  0
LINE
  5
26D2
  8
DIMENSIONS
  6
BYBLOCK
 62
     0
 10
231.2838162235564
 20
433.441204027001
 30
0.0
 11
104.2714730172336
 21
433.441204027001
 31
0.0
  0
LINE
  5
26D3
  8
DIMENSIONS
  6
BYBLOCK
 62
     0
 10
104.4514730172337
 20
1075.441204027003
 30
0.0
 11
104.4514730172336
 21
438.441204027001
 31
0.0
  0
SOLID
  5
26D4
  8
DIMENSIONS
 62
     0
 10
105.284806350567
 20
1075.441204027003
 30
0.0
 11
103.6181396839003
 21
1075.441204027003
 31
0.0
 12
104.4514730172337
 22
1080.441204027003
 32
0.0
 13
104.4514730172337
 23
1080.441204027003
 33
0.0
  0
SOLID
  5
26D5
  8
DIMENSIONS
 62
     0
 10
103.6181396839003
 20
438.441204027001
 30
0.0
 11
105.284806350567
 21
438.441204027001
 31
0.0
 12
104.4514730172336
 22
433.441204027001
 32
0.0
 13
104.4514730172336
 23
433.441204027001
 33
0.0
  0
TEXT
  5
26D6
  8
DIMENSIONS
  6
CONTINUOUS
 62
     5
 10
102.0564730172337
 20
739.5787040270021
 30
0.0
 40
5.0
  1
647 [25.47]
 50
90.0
  0
POINT
  5
26D7
  8
DEFPOINTS
 62
     0
 10
232.7838162235564
 20
1080.441204027003
 30
0.0
  0
POINT
  5
26D8
  8
DEFPOINTS
 62
     0
 10
232.7838162235564
 20
433.441204027001
 30
0.0
  0
POINT
  5
26D9
  8
DEFPOINTS
 62
     0
 10
104.4514730172336
 20
433.441204027001
 30
0.0
  0
ENDBLK
  5
26D0
  8
0
  0
BLOCK
  8
0
  2
*D424
 70
     1
 10
0.0
 20
0.0
 30
0.0
  3
*D424
  1

  0
LINE
  5
26E0
  8
DIMENSIONS
  6
BYBLOCK
 62
     0
 10
171.7838162235563
 20
1090.441204027002
 30
0.0
 11
88.47552701486487
 21
1090.441204027002
 31
0.0
  0
LINE
  5
26E1
  8
DIMENSIONS
  6
BYBLOCK
 62
     0
 10
171.7838162235563
 20
423.4412040270023
 30
0.0
 11
88.47552701486482
 21
423.4412040270023
 31
0.0
  0
LINE
  5
26E2
  8
DIMENSIONS
  6
BYBLOCK
 62
     0
 10
88.65552701486487
 20
1085.441204027002
 30
0.0
 11
88.65552701486483
 21
428.4412040270023
 31
0.0
  0
SOLID
  5
26E3
  8
DIMENSIONS
 62
     0
 10
89.4888603481982
 20
1085.441204027002
 30
0.0
 11
87.82219368153154
 21
1085.441204027002
 31
0.0
 12
88.65552701486487
 22
1090.441204027002
 32
0.0
 13
88.65552701486487
 23
1090.441204027002
 33
0.0
  0
SOLID
  5
26E4
  8
DIMENSIONS
 62
     0
 10
87.8221936815315
 20
428.4412040270023
 30
0.0
 11
89.48886034819816
 21
428.4412040270023
 31
0.0
 12
88.65552701486483
 22
423.4412040270023
 32
0.0
 13
88.65552701486483
 23
423.4412040270023
 33
0.0
  0
TEXT
  5
26E5
  8
DIMENSIONS
  6
CONTINUOUS
 62
     5
 10
86.2605270148648
 20
739.5787040270022
 30
0.0
 40
5.0
  1
667 [26.26]
 50
90.0
  0
POINT
  5
26E6
  8
DEFPOINTS
 62
     0
 10
173.2838162235563
 20
1090.441204027002
 30
0.0
  0
POINT
  5
26E7
  8
DEFPOINTS
 62
     0
 10
173.2838162235563
 20
423.4412040270023
 30
0.0
  0
POINT
  5
26E8
  8
DEFPOINTS
 62
     0
 10
88.65552701486483
 20
423.4412040270023
 30
0.0
  0
ENDBLK
  5
26DF
  8
0
  0
BLOCK
  8
0
  2
*D425
 70
     1
 10
0.0
 20
0.0
 30
0.0
  3
*D425
  1

  0
LINE
  5
26EF
  8
DIMENSIONS
  6
BYBLOCK
 62
     0
 10
681.7838162235565
 20
1090.441204027002
 30
0.0
 11
704.1376642433091
 21
1090.441204027002
 31
0.0
  0
LINE
  5
26F0
  8
DIMENSIONS
  6
BYBLOCK
 62
     0
 10
613.7838162235563
 20
1049.191204027002
 30
0.0
 11
704.1376642433091
 21
1049.191204027002
 31
0.0
  0
LINE
  5
26F1
  8
DIMENSIONS
  6
BYBLOCK
 62
     0
 10
703.9576642433092
 20
1085.441204027002
 30
0.0
 11
703.9576642433092
 21
1054.191204027002
 31
0.0
  0
SOLID
  5
26F2
  8
DIMENSIONS
 62
     0
 10
704.7909975766426
 20
1085.441204027002
 30
0.0
 11
703.1243309099758
 21
1085.441204027002
 31
0.0
 12
703.9576642433092
 22
1090.441204027002
 32
0.0
 13
703.9576642433092
 23
1090.441204027002
 33
0.0
  0
SOLID
  5
26F3
  8
DIMENSIONS
 62
     0
 10
703.1243309099758
 20
1054.191204027002
 30
0.0
 11
704.7909975766426
 21
1054.191204027002
 31
0.0
 12
703.9576642433092
 22
1049.191204027002
 32
0.0
 13
703.9576642433092
 23
1049.191204027002
 33
0.0
  0
TEXT
  5
26F4
  8
DIMENSIONS
  6
CONTINUOUS
 62
     5
 10
701.562664243309
 20
1051.568704027002
 30
0.0
 40
5.0
  1
41.25 [1.62]
 50
90.0
  0
POINT
  5
26F5
  8
DEFPOINTS
 62
     0
 10
680.2838162235565
 20
1090.441204027002
 30
0.0
  0
POINT
  5
26F6
  8
DEFPOINTS
 62
     0
 10
612.2838162235563
 20
1049.191204027002
 30
0.0
  0
POINT
  5
26F7
  8
DEFPOINTS
 62
     0
 10
703.9576642433092
 20
1049.191204027002
 30
0.0
  0
ENDBLK
  5
26EE
  8
0
  0
BLOCK
  8
0
  2
*D426
 70
     1
 10
0.0
 20
0.0
 30
0.0
  3
*D426
  1

  0
LINE
  5
26FE
  8
DIMENSIONS
  6
BYBLOCK
 62
     0
 10
613.7838162235563
 20
1049.191204027002
 30
0.0
 11
704.1376642433091
 21
1049.191204027002
 31
0.0
  0
LINE
  5
26FF
  8
DIMENSIONS
  6
BYBLOCK
 62
     0
 10
613.7838162235563
 20
669.1912040270023
 30
0.0
 11
704.1376642433091
 21
669.1912040270023
 31
0.0
  0
LINE
  5
2700
  8
DIMENSIONS
  6
BYBLOCK
 62
     0
 10
703.9576642433092
 20
1044.191204027002
 30
0.0
 11
703.9576642433092
 21
674.1912040270023
 31
0.0
  0
SOLID
  5
2701
  8
DIMENSIONS
 62
     0
 10
704.7909975766426
 20
1044.191204027002
 30
0.0
 11
703.1243309099758
 21
1044.191204027002
 31
0.0
 12
703.9576642433092
 22
1049.191204027002
 32
0.0
 13
703.9576642433092
 23
1049.191204027002
 33
0.0
  0
SOLID
  5
2702
  8
DIMENSIONS
 62
     0
 10
703.1243309099758
 20
674.1912040270023
 30
0.0
 11
704.7909975766426
 21
674.1912040270023
 31
0.0
 12
703.9576642433092
 22
669.1912040270023
 32
0.0
 13
703.9576642433092
 23
669.1912040270023
 33
0.0
  0
TEXT
  5
2703
  8
DIMENSIONS
  6
CONTINUOUS
 62
     5
 10
701.5626642433091
 20
841.8112040270022
 30
0.0
 40
5.0
  1
380 [14.96]
 50
90.0
  0
POINT
  5
2704
  8
DEFPOINTS
 62
     0
 10
612.2838162235563
 20
1049.191204027002
 30
0.0
  0
POINT
  5
2705
  8
DEFPOINTS
 62
     0
 10
612.2838162235563
 20
669.1912040270023
 30
0.0
  0
POINT
  5
2706
  8
DEFPOINTS
 62
     0
 10
703.9576642433092
 20
669.1912040270023
 30
0.0
  0
ENDBLK
  5
26FD
  8
0
  0
BLOCK
  8
0
  2
*D427
 70
     1
 10
0.0
 20
0.0
 30
0.0
  3
*D427
  1

  0
LINE
  5
270D
  8
DIMENSIONS
  6
BYBLOCK
 62
     0
 10
613.7838162235563
 20
669.1912040270023
 30
0.0
 11
704.1376642433091
 21
669.1912040270023
 31
0.0
  0
LINE
  5
270E
  8
DIMENSIONS
  6
BYBLOCK
 62
     0
 10
613.7838162235562
 20
627.6912040270023
 30
0.0
 11
704.1376642433091
 21
627.6912040270023
 31
0.0
  0
LINE
  5
270F
  8
DIMENSIONS
  6
BYBLOCK
 62
     0
 10
703.9576642433092
 20
664.1912040270023
 30
0.0
 11
703.9576642433092
 21
632.6912040270023
 31
0.0
  0
SOLID
  5
2710
  8
DIMENSIONS
 62
     0
 10
704.7909975766426
 20
664.1912040270023
 30
0.0
 11
703.1243309099758
 21
664.1912040270023
 31
0.0
 12
703.9576642433092
 22
669.1912040270023
 32
0.0
 13
703.9576642433092
 23
669.1912040270023
 33
0.0
  0
SOLID
  5
2711
  8
DIMENSIONS
 62
     0
 10
703.1243309099758
 20
632.6912040270023
 30
0.0
 11
704.7909975766426
 21
632.6912040270023
 31
0.0
 12
703.9576642433092
 22
627.6912040270023
 32
0.0
 13
703.9576642433092
 23
627.6912040270023
 33
0.0
  0
TEXT
  5
2712
  8
DIMENSIONS
  6
CONTINUOUS
 62
     5
 10
701.5626642433092
 20
632.1337040270023
 30
0.0
 40
5.0
  1
41.5 [1.63]
 50
90.0
  0
POINT
  5
2713
  8
DEFPOINTS
 62
     0
 10
612.2838162235563
 20
669.1912040270023
 30
0.0
  0
POINT
  5
2714
  8
DEFPOINTS
 62
     0
 10
612.2838162235562
 20
627.6912040270023
 30
0.0
  0
POINT
  5
2715
  8
DEFPOINTS
 62
     0
 10
703.9576642433092
 20
627.6912040270023
 30
0.0
  0
ENDBLK
  5
270C
  8
0
  0
BLOCK
  8
0
  2
*D428
 70
     1
 10
0.0
 20
0.0
 30
0.0
  3
*D428
  1

  0
LINE
  5
271C
  8
DIMENSIONS
  6
BYBLOCK
 62
     0
 10
613.7838162235562
 20
627.6912040270023
 30
0.0
 11
704.1376642433091
 21
627.6912040270023
 31
0.0
  0
LINE
  5
271D
  8
DIMENSIONS
  6
BYBLOCK
 62
     0
 10
613.7838162235562
 20
466.1912040270022
 30
0.0
 11
704.1376642433091
 21
466.1912040270022
 31
0.0
  0
LINE
  5
271E
  8
DIMENSIONS
  6
BYBLOCK
 62
     0
 10
703.9576642433092
 20
622.6912040270023
 30
0.0
 11
703.9576642433092
 21
471.1912040270022
 31
0.0
  0
SOLID
  5
271F
  8
DIMENSIONS
 62
     0
 10
704.7909975766426
 20
622.6912040270023
 30
0.0
 11
703.1243309099758
 21
622.6912040270023
 31
0.0
 12
703.9576642433092
 22
627.6912040270023
 32
0.0
 13
703.9576642433092
 23
627.6912040270023
 33
0.0
  0
SOLID
  5
2720
  8
DIMENSIONS
 62
     0
 10
703.1243309099758
 20
471.1912040270022
 30
0.0
 11
704.7909975766426
 21
471.1912040270022
 31
0.0
 12
703.9576642433092
 22
466.1912040270022
 32
0.0
 13
703.9576642433092
 23
466.1912040270022
 33
0.0
  0
TEXT
  5
2721
  8
DIMENSIONS
  6
CONTINUOUS
 62
     5
 10
701.5626642433091
 20
528.3587040270022
 30
0.0
 40
5.0
  1
161.5 [6.36]
 50
90.0
  0
POINT
  5
2722
  8
DEFPOINTS
 62
     0
 10
612.2838162235562
 20
627.6912040270023
 30
0.0
  0
POINT
  5
2723
  8
DEFPOINTS
 62
     0
 10
612.2838162235562
 20
466.1912040270022
 30
0.0
  0
POINT
  5
2724
  8
DEFPOINTS
 62
     0
 10
703.9576642433092
 20
466.1912040270022
 30
0.0
  0
ENDBLK
  5
271B
  8
0
  0
BLOCK
  8
0
  2
*D429
 70
     1
 10
0.0
 20
0.0
 30
0.0
  3
*D429
  1

  0
LINE
  5
272B
  8
DIMENSIONS
  6
BYBLOCK
 62
     0
 10
613.7838162235562
 20
466.1912040270022
 30
0.0
 11
704.1376642433091
 21
466.1912040270022
 31
0.0
  0
LINE
  5
272C
  8
DIMENSIONS
  6
BYBLOCK
 62
     0
 10
681.7838162235565
 20
423.4412040270023
 30
0.0
 11
704.1376642433091
 21
423.4412040270023
 31
0.0
  0
LINE
  5
272D
  8
DIMENSIONS
  6
BYBLOCK
 62
     0
 10
703.9576642433092
 20
461.1912040270022
 30
0.0
 11
703.9576642433092
 21
428.4412040270023
 31
0.0
  0
SOLID
  5
272E
  8
DIMENSIONS
 62
     0
 10
704.7909975766426
 20
461.1912040270022
 30
0.0
 11
703.1243309099758
 21
461.1912040270022
 31
0.0
 12
703.9576642433092
 22
466.1912040270022
 32
0.0
 13
703.9576642433092
 23
466.1912040270022
 33
0.0
  0
SOLID
  5
272F
  8
DIMENSIONS
 62
     0
 10
703.1243309099758
 20
428.4412040270023
 30
0.0
 11
704.7909975766426
 21
428.4412040270023
 31
0.0
 12
703.9576642433092
 22
423.4412040270023
 32
0.0
 13
703.9576642433092
 23
423.4412040270023
 33
0.0
  0
TEXT
  5
2730
  8
DIMENSIONS
  6
CONTINUOUS
 62
     5
 10
701.5626642433092
 20
426.5687040270022
 30
0.0
 40
5.0
  1
42.75 [1.68]
 50
90.0
  0
POINT
  5
2731
  8
DEFPOINTS
 62
     0
 10
612.2838162235562
 20
466.1912040270022
 30
0.0
  0
POINT
  5
2732
  8
DEFPOINTS
 62
     0
 10
680.2838162235565
 20
423.4412040270023
 30
0.0
  0
POINT
  5
2733
  8
DEFPOINTS
 62
     0
 10
703.9576642433092
 20
423.4412040270023
 30
0.0
  0
ENDBLK
  5
272A
  8
0
  0
BLOCK
  8
0
  2
*D430
 70
     1
 10
0.0
 20
0.0
 30
0.0
  3
*D430
  1

  0
LINE
  5
275D
  8
DIMENSIONS
  6
BYBLOCK
 62
     0
 10
612.283859095708
 20
433.4682007812348
 30
0.0
 11
571.8790628897415
 21
433.5965306465009
 31
0.0
  0
TEXT
  5
275E
  8
DIMENSIONS
  6
CONTINUOUS
 62
     5
 10
572.6069200778327
 20
436.0692313792512
 30
0.0
 40
5.0
  1
Ø7 [Ø0.28]
 50
359.8180232142763
  0
SOLID
  5
275F
  8
DIMENSIONS
 62
     0
 10
612.281212355097
 20
432.6348716510536
 30
0.0
 11
612.286505836319
 21
434.301529911416
 31
0.0
 12
617.2838338767953
 22
433.4523203375686
 32
0.0
 13
617.2838338767953
 23
433.4523203375686
 33
0.0
  0
LINE
  5
2760
  8
DIMENSIONS
  6
BYBLOCK
 62
     0
 10
618.2838162235563
 20
433.4412040270023
 30
0.0
 11
623.2838162235563
 21
433.4412040270023
 31
0.0
  0
LINE
  5
2761
  8
DIMENSIONS
  6
BYBLOCK
 62
     0
 10
620.7838162235563
 20
430.9412040270023
 30
0.0
 11
620.7838162235563
 21
435.9412040270023
 31
0.0
  0
POINT
  5
2762
  8
DEFPOINTS
 62
     0
 10
617.2838338767953
 20
433.4523203375686
 30
0.0
  0
POINT
  5
2763
  8
DEFPOINTS
 62
     0
 10
624.2837985703173
 20
433.430087716436
 30
0.0
  0
ENDBLK
  5
275C
  8
0
  0
BLOCK
  8
0
  2
*X432
 70
     1
 10
0.0
 20
0.0
 30
0.0
  3
*X432
  1

  0
LINE
  5
27AE
  8
CUTOUT
 10
20.99999999999991
 20
546.9106685074946
 30
0.0
 11
84.58933149250551
 21
610.5000000000002
 31
0.0
  0
LINE
  5
27AF
  8
CUTOUT
 10
20.99999999999989
 20
471.7805730064239
 30
0.0
 11
159.7194269935762
 21
610.5000000000002
 31
0.0
  0
LINE
  5
27B0
  8
CUTOUT
 10
86.84952249464673
 20
462.5000000000001
 30
0.0
 11
234.8495224946468
 21
610.5000000000002
 31
0.0
  0
LINE
  5
27B1
  8
CUTOUT
 10
161.9796179957174
 20
462.5000000000001
 30
0.0
 11
309.9796179957175
 21
610.5000000000002
 31
0.0
  0
LINE
  5
27B2
  8
CUTOUT
 10
50.49999999999989
 20
275.8902865032119
 30
0.0
 11
58.10971349678806
 21
283.5000000000001
 31
0.0
  0
LINE
  5
27B3
  8
CUTOUT
 10
50.49999999999989
 20
200.7601910021412
 30
0.0
 11
133.2398089978587
 21
283.5000000000001
 31
0.0
  0
LINE
  5
27B4
  8
CUTOUT
 10
237.1097134967881
 20
462.5000000000001
 30
0.0
 11
363.9999999999998
 21
589.3902865032119
 31
0.0
  0
LINE
  5
27B5
  8
CUTOUT
 10
312.2398089978587
 20
462.5000000000001
 30
0.0
 11
363.9999999999998
 21
514.2601910021411
 31
0.0
  0
LINE
  5
27B6
  8
CUTOUT
 10
50.49999999999989
 20
125.6300955010705
 30
0.0
 11
208.3699044989294
 21
283.5000000000001
 31
0.0
  0
LINE
  5
27B7
  8
CUTOUT
 10
50.49999999999991
 20
50.49999999999989
 30
0.0
 11
283.5000000000001
 21
283.5000000000001
 31
0.0
  0
LINE
  5
27B8
  8
CUTOUT
 10
100.1300955010709
 20
25.00000000000023
 30
0.0
 11
350.4999999999999
 21
275.3699044989293
 31
0.0
  0
LINE
  5
27B9
  8
CUTOUT
 10
175.2601910021416
 20
25.00000000000023
 30
0.0
 11
350.4999999999999
 21
200.2398089978586
 31
0.0
  0
LINE
  5
27BA
  8
CUTOUT
 10
250.3902865032122
 20
25.00000000000023
 30
0.0
 11
350.4999999999999
 21
125.1097134967879
 31
0.0
  0
LINE
  5
27BB
  8
CUTOUT
 10
325.520382004283
 20
25.00000000000023
 30
0.0
 11
350.4999999999999
 21
49.97961799571715
 31
0.0
  0
ENDBLK
  5
27BC
  8
0
  0
BLOCK
  8
0
  2
*D433
 70
     1
 10
0.0
 20
0.0
 30
0.0
  3
*D433
  1

  0
LINE
  5
27CB
  8
DIMENSIONS
  6
BYBLOCK
 62
     0
 10
173.4515369055121
 20
1315.968029279528
 30
0.0
 11
173.4515369055121
 21
1331.280653691485
 31
0.0
  0
LINE
  5
27CC
  8
DIMENSIONS
  6
BYBLOCK
 62
     0
 10
553.4515369055122
 20
1315.968029279528
 30
0.0
 11
553.4515369055122
 21
1331.280653691485
 31
0.0
  0
LINE
  5
27CD
  8
DIMENSIONS
  6
BYBLOCK
 62
     0
 10
178.4515369055121
 20
1331.100653691484
 30
0.0
 11
548.4515369055122
 21
1331.100653691484
 31
0.0
  0
SOLID
  5
27CE
  8
DIMENSIONS
 62
     0
 10
178.4515369055121
 20
1331.933987024818
 30
0.0
 11
178.4515369055121
 21
1330.267320358151
 31
0.0
 12
173.4515369055121
 22
1331.100653691484
 32
0.0
 13
173.4515369055121
 23
1331.100653691484
 33
0.0
  0
SOLID
  5
27CF
  8
DIMENSIONS
 62
     0
 10
548.4515369055122
 20
1330.267320358151
 30
0.0
 11
548.4515369055122
 21
1331.933987024818
 31
0.0
 12
553.4515369055122
 22
1331.100653691484
 32
0.0
 13
553.4515369055122
 23
1331.100653691484
 33
0.0
  0
TEXT
  5
27D0
  8
DIMENSIONS
  6
CONTINUOUS
 62
     5
 10
346.0715369055121
 20
1333.495653691485
 30
0.0
 40
5.0
  1
380 [14.96]
  0
POINT
  5
27D1
  8
DEFPOINTS
 62
     0
 10
173.4515369055121
 20
1314.468029279528
 30
0.0
  0
POINT
  5
27D2
  8
DEFPOINTS
 62
     0
 10
553.4515369055122
 20
1314.468029279528
 30
0.0
  0
POINT
  5
27D3
  8
DEFPOINTS
 62
     0
 10
553.4515369055122
 20
1331.100653691484
 30
0.0
  0
ENDBLK
  5
27CA
  8
0
  0
BLOCK
  8
0
  2
*D434
 70
     1
 10
0.0
 20
0.0
 30
0.0
  3
*D434
  1

  0
LINE
  5
27DA
  8
DIMENSIONS
  6
BYBLOCK
 62
     0
 10
191.9515369055121
 20
1033.968029279528
 30
0.0
 11
191.9515369055121
 21
1049.59435777938
 31
0.0
  0
LINE
  5
27DB
  8
DIMENSIONS
  6
BYBLOCK
 62
     0
 10
534.9515369055121
 20
1033.968029279528
 30
0.0
 11
534.9515369055121
 21
1049.59435777938
 31
0.0
  0
LINE
  5
27DC
  8
DIMENSIONS
  6
BYBLOCK
 62
     0
 10
196.9515369055121
 20
1049.41435777938
 30
0.0
 11
529.9515369055121
 21
1049.41435777938
 31
0.0
  0
SOLID
  5
27DD
  8
DIMENSIONS
 62
     0
 10
196.9515369055121
 20
1050.247691112713
 30
0.0
 11
196.9515369055121
 21
1048.581024446047
 31
0.0
 12
191.9515369055121
 22
1049.41435777938
 32
0.0
 13
191.9515369055121
 23
1049.41435777938
 33
0.0
  0
SOLID
  5
27DE
  8
DIMENSIONS
 62
     0
 10
529.9515369055121
 20
1048.581024446047
 30
0.0
 11
529.9515369055121
 21
1050.247691112713
 31
0.0
 12
534.9515369055121
 22
1049.41435777938
 32
0.0
 13
534.9515369055121
 23
1049.41435777938
 33
0.0
  0
TEXT
  5
27DF
  8
DIMENSIONS
  6
CONTINUOUS
 62
     5
 10
346.0715369055121
 20
1051.80935777938
 30
0.0
 40
5.0
  1
343 [13.50]
  0
POINT
  5
27E0
  8
DEFPOINTS
 62
     0
 10
191.9515369055121
 20
1032.468029279528
 30
0.0
  0
POINT
  5
27E1
  8
DEFPOINTS
 62
     0
 10
534.9515369055121
 20
1032.468029279528
 30
0.0
  0
POINT
  5
27E2
  8
DEFPOINTS
 62
     0
 10
534.9515369055121
 20
1049.41435777938
 30
0.0
  0
ENDBLK
  5
27D9
  8
0
  0
BLOCK
  8
0
  2
*D435
 70
     1
 10
0.0
 20
0.0
 30
0.0
  3
*D435
  1

  0
LINE
  5
27E9
  8
DIMENSIONS
  6
BYBLOCK
 62
     0
 10
221.4515369055121
 20
706.9680292795283
 30
0.0
 11
221.4515369055121
 21
722.1359409300946
 31
0.0
  0
LINE
  5
27EA
  8
DIMENSIONS
  6
BYBLOCK
 62
     0
 10
521.4515369055121
 20
706.9680292795283
 30
0.0
 11
521.4515369055121
 21
722.1359409300946
 31
0.0
  0
LINE
  5
27EB
  8
DIMENSIONS
  6
BYBLOCK
 62
     0
 10
226.4515369055121
 20
721.9559409300947
 30
0.0
 11
516.4515369055121
 21
721.9559409300947
 31
0.0
  0
SOLID
  5
27EC
  8
DIMENSIONS
 62
     0
 10
226.4515369055121
 20
722.7892742634281
 30
0.0
 11
226.4515369055121
 21
721.1226075967613
 31
0.0
 12
221.4515369055121
 22
721.9559409300947
 32
0.0
 13
221.4515369055121
 23
721.9559409300947
 33
0.0
  0
SOLID
  5
27ED
  8
DIMENSIONS
 62
     0
 10
516.4515369055121
 20
721.1226075967613
 30
0.0
 11
516.4515369055121
 21
722.7892742634281
 31
0.0
 12
521.4515369055121
 22
721.9559409300947
 32
0.0
 13
521.4515369055121
 23
721.9559409300947
 33
0.0
  0
TEXT
  5
27EE
  8
DIMENSIONS
  6
CONTINUOUS
 62
     5
 10
354.0715369055121
 20
724.3509409300947
 30
0.0
 40
5.0
  1
300 [11.81]
  0
POINT
  5
27EF
  8
DEFPOINTS
 62
     0
 10
221.4515369055121
 20
705.4680292795283
 30
0.0
  0
POINT
  5
27F0
  8
DEFPOINTS
 62
     0
 10
521.4515369055121
 20
705.4680292795283
 30
0.0
  0
POINT
  5
27F1
  8
DEFPOINTS
 62
     0
 10
521.4515369055121
 20
721.9559409300947
 30
0.0
  0
ENDBLK
  5
27E8
  8
0
  0
BLOCK
  8
0
  2
*D436
 70
     1
 10
0.0
 20
0.0
 30
0.0
  3
*D436
  1

  0
LINE
  5
27F8
  8
DIMENSIONS
  6
BYBLOCK
 62
     0
 10
171.9515369055121
 20
1314.468029279528
 30
0.0
 11
155.680642588635
 21
1314.468029279528
 31
0.0
  0
LINE
  5
27F9
  8
DIMENSIONS
  6
BYBLOCK
 62
     0
 10
190.4515369055121
 20
1032.468029279528
 30
0.0
 11
155.680642588635
 21
1032.468029279528
 31
0.0
  0
LINE
  5
27FA
  8
DIMENSIONS
  6
BYBLOCK
 62
     0
 10
155.860642588635
 20
1309.468029279528
 30
0.0
 11
155.860642588635
 21
1037.468029279528
 31
0.0
  0
SOLID
  5
27FB
  8
DIMENSIONS
 62
     0
 10
156.6939759219683
 20
1309.468029279528
 30
0.0
 11
155.0273092553016
 21
1309.468029279528
 31
0.0
 12
155.860642588635
 22
1314.468029279528
 32
0.0
 13
155.860642588635
 23
1314.468029279528
 33
0.0
  0
SOLID
  5
27FC
  8
DIMENSIONS
 62
     0
 10
155.0273092553016
 20
1037.468029279528
 30
0.0
 11
156.6939759219683
 21
1037.468029279528
 31
0.0
 12
155.860642588635
 22
1032.468029279528
 32
0.0
 13
155.860642588635
 23
1032.468029279528
 33
0.0
  0
TEXT
  5
27FD
  8
DIMENSIONS
  6
CONTINUOUS
 62
     5
 10
153.4656425886346
 20
1156.133029279528
 30
0.0
 40
5.0
  1
282 [11.10]
 50
90.0
  0
POINT
  5
27FE
  8
DEFPOINTS
 62
     0
 10
173.4515369055121
 20
1314.468029279528
 30
0.0
  0
POINT
  5
27FF
  8
DEFPOINTS
 62
     0
 10
191.9515369055121
 20
1032.468029279528
 30
0.0
  0
POINT
  5
2800
  8
DEFPOINTS
 62
     0
 10
155.860642588635
 20
1032.468029279528
 30
0.0
  0
ENDBLK
  5
27F7
  8
0
  0
BLOCK
  8
0
  2
*D437
 70
     1
 10
0.0
 20
0.0
 30
0.0
  3
*D437
  1

  0
LINE
  5
2807
  8
DIMENSIONS
  6
BYBLOCK
 62
     0
 10
190.4515369055121
 20
1032.468029279528
 30
0.0
 11
155.680642588635
 21
1032.468029279528
 31
0.0
  0
LINE
  5
2808
  8
DIMENSIONS
  6
BYBLOCK
 62
     0
 10
190.4515369055121
 20
884.4680292795282
 30
0.0
 11
155.680642588635
 21
884.4680292795282
 31
0.0
  0
LINE
  5
2809
  8
DIMENSIONS
  6
BYBLOCK
 62
     0
 10
155.860642588635
 20
1027.468029279528
 30
0.0
 11
155.860642588635
 21
889.4680292795282
 31
0.0
  0
SOLID
  5
280A
  8
DIMENSIONS
 62
     0
 10
156.6939759219683
 20
1027.468029279528
 30
0.0
 11
155.0273092553016
 21
1027.468029279528
 31
0.0
 12
155.860642588635
 22
1032.468029279528
 32
0.0
 13
155.860642588635
 23
1032.468029279528
 33
0.0
  0
SOLID
  5
280B
  8
DIMENSIONS
 62
     0
 10
155.0273092553016
 20
889.4680292795282
 30
0.0
 11
156.6939759219683
 21
889.4680292795282
 31
0.0
 12
155.860642588635
 22
884.4680292795282
 32
0.0
 13
155.860642588635
 23
884.4680292795282
 33
0.0
  0
TEXT
  5
280C
  8
DIMENSIONS
  6
CONTINUOUS
 62
     5
 10
153.465642588635
 20
942.7955292795283
 30
0.0
 40
5.0
  1
148 [5.83]
 50
90.0
  0
POINT
  5
280D
  8
DEFPOINTS
 62
     0
 10
191.9515369055121
 20
1032.468029279528
 30
0.0
  0
POINT
  5
280E
  8
DEFPOINTS
 62
     0
 10
191.9515369055121
 20
884.4680292795282
 30
0.0
  0
POINT
  5
280F
  8
DEFPOINTS
 62
     0
 10
155.860642588635
 20
884.4680292795282
 30
0.0
  0
ENDBLK
  5
2806
  8
0
  0
BLOCK
  8
0
  2
*D438
 70
     1
 10
0.0
 20
0.0
 30
0.0
  3
*D438
  1

  0
LINE
  5
2816
  8
DIMENSIONS
  6
BYBLOCK
 62
     0
 10
190.4515369055121
 20
884.4680292795282
 30
0.0
 11
155.680642588635
 21
884.4680292795282
 31
0.0
  0
LINE
  5
2817
  8
DIMENSIONS
  6
BYBLOCK
 62
     0
 10
219.9515369055121
 20
705.4680292795283
 30
0.0
 11
155.680642588635
 21
705.4680292795283
 31
0.0
  0
LINE
  5
2818
  8
DIMENSIONS
  6
BYBLOCK
 62
     0
 10
155.860642588635
 20
879.4680292795282
 30
0.0
 11
155.860642588635
 21
710.4680292795283
 31
0.0
  0
SOLID
  5
2819
  8
DIMENSIONS
 62
     0
 10
156.6939759219683
 20
879.4680292795282
 30
0.0
 11
155.0273092553016
 21
879.4680292795282
 31
0.0
 12
155.860642588635
 22
884.4680292795282
 32
0.0
 13
155.860642588635
 23
884.4680292795282
 33
0.0
  0
SOLID
  5
281A
  8
DIMENSIONS
 62
     0
 10
155.0273092553016
 20
710.4680292795283
 30
0.0
 11
156.6939759219683
 21
710.4680292795283
 31
0.0
 12
155.860642588635
 22
705.4680292795283
 32
0.0
 13
155.860642588635
 23
705.4680292795283
 33
0.0
  0
TEXT
  5
281B
  8
DIMENSIONS
  6
CONTINUOUS
 62
     5
 10
153.465642588635
 20
779.2955292795283
 30
0.0
 40
5.0
  1
179 [7.05]
 50
90.0
  0
POINT
  5
281C
  8
DEFPOINTS
 62
     0
 10
191.9515369055121
 20
884.4680292795282
 30
0.0
  0
POINT
  5
281D
  8
DEFPOINTS
 62
     0
 10
221.4515369055121
 20
705.4680292795283
 30
0.0
  0
POINT
  5
281E
  8
DEFPOINTS
 62
     0
 10
155.860642588635
 20
705.4680292795283
 30
0.0
  0
ENDBLK
  5
2815
  8
0
  0
BLOCK
  8
0
  2
*D439
 70
     1
 10
0.0
 20
0.0
 30
0.0
  3
*D439
  1

  0
LINE
  5
2825
  8
DIMENSIONS
  6
BYBLOCK
 62
     0
 10
219.9515369055121
 20
705.4680292795283
 30
0.0
 11
155.680642588635
 21
705.4680292795283
 31
0.0
  0
LINE
  5
2826
  8
DIMENSIONS
  6
BYBLOCK
 62
     0
 10
219.9515369055121
 20
446.9680292795283
 30
0.0
 11
155.6806425886349
 21
446.9680292795283
 31
0.0
  0
LINE
  5
2827
  8
DIMENSIONS
  6
BYBLOCK
 62
     0
 10
155.860642588635
 20
700.4680292795283
 30
0.0
 11
155.8606425886349
 21
451.9680292795283
 31
0.0
  0
SOLID
  5
2828
  8
DIMENSIONS
 62
     0
 10
156.6939759219683
 20
700.4680292795283
 30
0.0
 11
155.0273092553016
 21
700.4680292795283
 31
0.0
 12
155.860642588635
 22
705.4680292795283
 32
0.0
 13
155.860642588635
 23
705.4680292795283
 33
0.0
  0
SOLID
  5
2829
  8
DIMENSIONS
 62
     0
 10
155.0273092553016
 20
451.9680292795283
 30
0.0
 11
156.6939759219683
 21
451.9680292795283
 31
0.0
 12
155.8606425886349
 22
446.9680292795283
 32
0.0
 13
155.8606425886349
 23
446.9680292795283
 33
0.0
  0
TEXT
  5
282A
  8
DIMENSIONS
  6
CONTINUOUS
 62
     5
 10
153.465642588635
 20
555.9730292795283
 30
0.0
 40
5.0
  1
258.5 [10.18]
 50
90.0
  0
POINT
  5
282B
  8
DEFPOINTS
 62
     0
 10
221.4515369055121
 20
705.4680292795283
 30
0.0
  0
POINT
  5
282C
  8
DEFPOINTS
 62
     0
 10
221.4515369055121
 20
446.9680292795283
 30
0.0
  0
POINT
  5
282D
  8
DEFPOINTS
 62
     0
 10
155.8606425886349
 20
446.9680292795283
 30
0.0
  0
ENDBLK
  5
2824
  8
0
  0
BLOCK
  8
0
  2
*D440
 70
     1
 10
0.0
 20
0.0
 30
0.0
  3
*D440
  1

  0
LINE
  5
2834
  8
DIMENSIONS
  6
BYBLOCK
 62
     0
 10
219.9515369055121
 20
446.9680292795283
 30
0.0
 11
139.3767640668111
 21
446.9680292795283
 31
0.0
  0
LINE
  5
2835
  8
DIMENSIONS
  6
BYBLOCK
 62
     0
 10
171.9515369055121
 20
424.4680292795283
 30
0.0
 11
139.3767640668111
 21
424.4680292795283
 31
0.0
  0
LINE
  5
2836
  8
DIMENSIONS
  6
BYBLOCK
 62
     0
 10
139.5567640668111
 20
446.9680292795283
 30
0.0
 11
139.5567640668111
 21
486.2880292795282
 31
0.0
  0
LINE
  5
2837
  8
DIMENSIONS
  6
BYBLOCK
 62
     0
 10
139.5567640668111
 20
441.9680292795283
 30
0.0
 11
139.5567640668111
 21
429.4680292795283
 31
0.0
  0
SOLID
  5
2838
  8
DIMENSIONS
 62
     0
 10
140.3900974001444
 20
441.9680292795283
 30
0.0
 11
138.7234307334778
 21
441.9680292795283
 31
0.0
 12
139.5567640668111
 22
446.9680292795283
 32
0.0
 13
139.5567640668111
 23
446.9680292795283
 33
0.0
  0
SOLID
  5
2839
  8
DIMENSIONS
 62
     0
 10
138.7234307334778
 20
429.4680292795283
 30
0.0
 11
140.3900974001444
 21
429.4680292795283
 31
0.0
 12
139.5567640668111
 22
424.4680292795283
 32
0.0
 13
139.5567640668111
 23
424.4680292795283
 33
0.0
  0
TEXT
  5
283A
  8
DIMENSIONS
  6
CONTINUOUS
 62
     5
 10
137.1617640668111
 20
452.7630292795283
 30
0.0
 40
5.0
  1
22.5 [0.89]
 50
90.0
  0
POINT
  5
283B
  8
DEFPOINTS
 62
     0
 10
221.4515369055121
 20
446.9680292795283
 30
0.0
  0
POINT
  5
283C
  8
DEFPOINTS
 62
     0
 10
173.4515369055121
 20
424.4680292795283
 30
0.0
  0
POINT
  5
283E
  8
DEFPOINTS
 62
     0
 10
139.5567640668111
 20
424.4680292795283
 30
0.0
  0
ENDBLK
  5
2833
  8
0
  0
BLOCK
  8
0
  2
*D441
 70
     1
 10
0.0
 20
0.0
 30
0.0
  3
*D441
  1

  0
LINE
  5
2845
  8
DIMENSIONS
  6
BYBLOCK
 62
     0
 10
171.9515369055121
 20
424.4680292795283
 30
0.0
 11
121.4693158327505
 21
424.4680292795283
 31
0.0
  0
LINE
  5
2846
  8
DIMENSIONS
  6
BYBLOCK
 62
     0
 10
171.9515369055121
 20
1314.468029279528
 30
0.0
 11
121.4693158327505
 21
1314.468029279528
 31
0.0
  0
LINE
  5
2847
  8
DIMENSIONS
  6
BYBLOCK
 62
     0
 10
121.6493158327505
 20
429.4680292795283
 30
0.0
 11
121.6493158327505
 21
1309.468029279528
 31
0.0
  0
SOLID
  5
2848
  8
DIMENSIONS
 62
     0
 10
120.8159824994171
 20
429.4680292795283
 30
0.0
 11
122.4826491660838
 21
429.4680292795283
 31
0.0
 12
121.6493158327505
 22
424.4680292795283
 32
0.0
 13
121.6493158327505
 23
424.4680292795283
 33
0.0
  0
SOLID
  5
2849
  8
DIMENSIONS
 62
     0
 10
122.4826491660838
 20
1309.468029279528
 30
0.0
 11
120.8159824994172
 21
1309.468029279528
 31
0.0
 12
121.6493158327505
 22
1314.468029279528
 32
0.0
 13
121.6493158327505
 23
1314.468029279528
 33
0.0
  0
TEXT
  5
284A
  8
DIMENSIONS
  6
CONTINUOUS
 62
     5
 10
119.2543158327505
 20
852.0930292795283
 30
0.0
 40
5.0
  1
890 [35.04]
 50
90.0
  0
POINT
  5
284B
  8
DEFPOINTS
 62
     0
 10
173.4515369055121
 20
424.4680292795283
 30
0.0
  0
POINT
  5
284C
  8
DEFPOINTS
 62
     0
 10
173.4515369055121
 20
1314.468029279528
 30
0.0
  0
POINT
  5
284D
  8
DEFPOINTS
 62
     0
 10
121.6493158327505
 20
1314.468029279528
 30
0.0
  0
ENDBLK
  5
2844
  8
0
  0
BLOCK
  8
0
  2
*D442
 70
     1
 10
0.0
 20
0.0
 30
0.0
  3
*D442
  1

  0
LINE
  5
2854
  8
DIMENSIONS
  6
BYBLOCK
 62
     0
 10
521.4515369055121
 20
706.9680292795283
 30
0.0
 11
521.4515369055121
 21
722.1359409300946
 31
0.0
  0
LINE
  5
2855
  8
DIMENSIONS
  6
BYBLOCK
 62
     0
 10
553.4515369055122
 20
706.9680292795283
 30
0.0
 11
553.4515369055122
 21
722.1359409300946
 31
0.0
  0
LINE
  5
2856
  8
DIMENSIONS
  6
BYBLOCK
 62
     0
 10
526.4515369055121
 20
721.9559409300947
 30
0.0
 11
548.4515369055122
 21
721.9559409300947
 31
0.0
  0
SOLID
  5
2857
  8
DIMENSIONS
 62
     0
 10
526.4515369055121
 20
722.7892742634281
 30
0.0
 11
526.4515369055121
 21
721.1226075967613
 31
0.0
 12
521.4515369055121
 22
721.9559409300947
 32
0.0
 13
521.4515369055121
 23
721.9559409300947
 33
0.0
  0
SOLID
  5
2858
  8
DIMENSIONS
 62
     0
 10
548.4515369055122
 20
721.1226075967613
 30
0.0
 11
548.4515369055122
 21
722.7892742634281
 31
0.0
 12
553.4515369055122
 22
721.9559409300947
 32
0.0
 13
553.4515369055122
 23
721.9559409300947
 33
0.0
  0
TEXT
  5
2859
  8
DIMENSIONS
  6
CONTINUOUS
 62
     5
 10
523.9515369055121
 20
724.3509409300947
 30
0.0
 40
5.0
  1
32 [1.26]
  0
POINT
  5
285A
  8
DEFPOINTS
 62
     0
 10
521.4515369055121
 20
705.4680292795283
 30
0.0
  0
POINT
  5
285B
  8
DEFPOINTS
 62
     0
 10
553.4515369055122
 20
705.4680292795283
 30
0.0
  0
POINT
  5
285C
  8
DEFPOINTS
 62
     0
 10
553.4515369055122
 20
721.9559409300947
 30
0.0
  0
ENDBLK
  5
2853
  8
0
  0
BLOCK
  8
0
  2
*X444
 70
     1
 10
0.0
 20
0.0
 30
0.0
  3
*X444
  1

  0
LINE
  5
28D4
  8
CUTOUT
 10
624.5000000000002
 20
624.5000000000002
 30
0.0
 11
656.9999999999999
 21
657.0
 31
0.0
  0
LINE
  5
28D5
  8
CUTOUT
 10
624.5000000000002
 20
549.3699044989296
 30
0.0
 11
732.1300955010705
 21
657.0
 31
0.0
  0
LINE
  5
28D6
  8
CUTOUT
 10
675.2601910021415
 20
525.0000000000002
 30
0.0
 11
807.2601910021413
 21
657.0
 31
0.0
  0
LINE
  5
28D7
  8
CUTOUT
 10
750.3902865032121
 20
525.0000000000002
 30
0.0
 11
882.3902865032119
 21
657.0
 31
0.0
  0
LINE
  5
28D8
  8
CUTOUT
 10
825.5203820042829
 20
525.0000000000002
 30
0.0
 11
956.5000000000002
 21
655.9796179957177
 31
0.0
  0
LINE
  5
28D9
  8
CUTOUT
 10
553.5000000000002
 20
177.8495224946469
 30
0.0
 11
607.6504775053536
 21
232.0000000000002
 31
0.0
  0
LINE
  5
28DA
  8
CUTOUT
 10
900.6504775053535
 20
525.0000000000002
 30
0.0
 11
956.5000000000002
 21
580.849522494647
 31
0.0
  0
LINE
  5
28DB
  8
CUTOUT
 10
553.5000000000002
 20
102.7194269935762
 30
0.0
 11
682.7805730064242
 21
232.0000000000002
 31
0.0
  0
LINE
  5
28DC
  8
CUTOUT
 10
572.9106685074948
 20
47.00000000000023
 30
0.0
 11
757.9106685074948
 21
232.0000000000002
 31
0.0
  0
LINE
  5
28DD
  8
CUTOUT
 10
648.0407640085656
 20
47.00000000000023
 30
0.0
 11
833.0407640085656
 21
232.0000000000002
 31
0.0
  0
LINE
  5
28DE
  8
CUTOUT
 10
723.1708595096363
 20
47.00000000000028
 30
0.0
 11
908.1708595096362
 21
232.0000000000003
 31
0.0
  0
LINE
  5
28DF
  8
CUTOUT
 10
798.300955010707
 20
47.00000000000028
 30
0.0
 11
956.5000000000002
 21
205.1990449892936
 31
0.0
  0
LINE
  5
28E0
  8
CUTOUT
 10
873.4310505117776
 20
47.00000000000023
 30
0.0
 11
956.5000000000002
 21
130.0689494882229
 31
0.0
  0
LINE
  5
28E1
  8
CUTOUT
 10
948.5611460128483
 20
47.00000000000028
 30
0.0
 11
956.5000000000002
 21
54.93885398715219
 31
0.0
  0
ENDBLK
  5
28E2
  8
0
  0
BLOCK
  8
0
  2
*D445
 70
     1
 10
0.0
 20
0.0
 30
0.0
  3
*D445
  1

  0
LINE
  5
2903
  8
DIMENSIONS
  6
BYBLOCK
 62
     0
 10
250.0309386341544
 20
1485.117208669808
 30
0.0
 11
250.0309386341544
 21
1514.423111871768
 31
0.0
  0
LINE
  5
2904
  8
DIMENSIONS
  6
BYBLOCK
 62
     0
 10
606.5309386341545
 20
1485.117208669807
 30
0.0
 11
606.5309386341545
 21
1514.423111871768
 31
0.0
  0
LINE
  5
2905
  8
DIMENSIONS
  6
BYBLOCK
 62
     0
 10
255.0309386341544
 20
1514.243111871767
 30
0.0
 11
601.5309386341545
 21
1514.243111871767
 31
0.0
  0
SOLID
  5
2906
  8
DIMENSIONS
 62
     0
 10
255.0309386341544
 20
1515.076445205101
 30
0.0
 11
255.0309386341544
 21
1513.409778538434
 31
0.0
 12
250.0309386341544
 22
1514.243111871767
 32
0.0
 13
250.0309386341544
 23
1514.243111871767
 33
0.0
  0
SOLID
  5
2907
  8
DIMENSIONS
 62
     0
 10
601.5309386341545
 20
1513.409778538434
 30
0.0
 11
601.5309386341545
 21
1515.076445205101
 31
0.0
 12
606.5309386341545
 22
1514.243111871767
 32
0.0
 13
606.5309386341545
 23
1514.243111871767
 33
0.0
  0
TEXT
  5
2908
  8
DIMENSIONS
  6
CONTINUOUS
 62
     5
 10
407.9909386341544
 20
1516.638111871768
 30
0.0
 40
5.0
  1
356.5 [14.04]
  0
POINT
  5
2909
  8
DEFPOINTS
 62
     0
 10
250.0309386341544
 20
1483.617208669808
 30
0.0
  0
POINT
  5
290A
  8
DEFPOINTS
 62
     0
 10
606.5309386341545
 20
1483.617208669807
 30
0.0
  0
POINT
  5
290B
  8
DEFPOINTS
 62
     0
 10
606.5309386341545
 20
1514.243111871767
 30
0.0
  0
ENDBLK
  5
2902
  8
0
  0
BLOCK
  8
0
  2
*D446
 70
     1
 10
0.0
 20
0.0
 30
0.0
  3
*D446
  1

  0
LINE
  5
2912
  8
DIMENSIONS
  6
BYBLOCK
 62
     0
 10
661.5309386341544
 20
1475.117208669807
 30
0.0
 11
661.5309386341544
 21
1534.657229923282
 31
0.0
  0
LINE
  5
2913
  8
DIMENSIONS
  6
BYBLOCK
 62
     0
 10
195.0309386341544
 20
1475.117208669807
 30
0.0
 11
195.0309386341544
 21
1534.657229923282
 31
0.0
  0
LINE
  5
2914
  8
DIMENSIONS
  6
BYBLOCK
 62
     0
 10
656.5309386341544
 20
1534.477229923282
 30
0.0
 11
200.0309386341544
 21
1534.477229923282
 31
0.0
  0
SOLID
  5
2915
  8
DIMENSIONS
 62
     0
 10
656.5309386341544
 20
1533.643896589948
 30
0.0
 11
656.5309386341544
 21
1535.310563256615
 31
0.0
 12
661.5309386341544
 22
1534.477229923282
 32
0.0
 13
661.5309386341544
 23
1534.477229923282
 33
0.0
  0
SOLID
  5
2916
  8
DIMENSIONS
 62
     0
 10
200.0309386341544
 20
1535.310563256615
 30
0.0
 11
200.0309386341544
 21
1533.643896589948
 31
0.0
 12
195.0309386341544
 22
1534.477229923282
 32
0.0
 13
195.0309386341544
 23
1534.477229923282
 33
0.0
  0
TEXT
  5
2917
  8
DIMENSIONS
  6
CONTINUOUS
 62
     5
 10
408.0934386341544
 20
1536.872229923282
 30
0.0
 40
5.0
  1
466.5 [18.37]
  0
POINT
  5
2918
  8
DEFPOINTS
 62
     0
 10
661.5309386341544
 20
1473.617208669807
 30
0.0
  0
POINT
  5
2919
  8
DEFPOINTS
 62
     0
 10
195.0309386341544
 20
1473.617208669807
 30
0.0
  0
POINT
  5
291A
  8
DEFPOINTS
 62
     0
 10
195.0309386341544
 20
1534.477229923282
 30
0.0
  0
ENDBLK
  5
2911
  8
0
  0
BLOCK
  8
0
  2
*D447
 70
     1
 10
0.0
 20
0.0
 30
0.0
  3
*D447
  1

  0
LINE
  5
2921
  8
DIMENSIONS
  6
BYBLOCK
 62
     0
 10
681.5309386341544
 20
1495.117208669807
 30
0.0
 11
681.5309386341544
 21
1554.358871183966
 31
0.0
  0
LINE
  5
2922
  8
DIMENSIONS
  6
BYBLOCK
 62
     0
 10
175.0309386341547
 20
1495.117208669807
 30
0.0
 11
175.0309386341547
 21
1554.358871183966
 31
0.0
  0
LINE
  5
2923
  8
DIMENSIONS
  6
BYBLOCK
 62
     0
 10
676.5309386341544
 20
1554.178871183966
 30
0.0
 11
180.0309386341547
 21
1554.178871183966
 31
0.0
  0
SOLID
  5
2924
  8
DIMENSIONS
 62
     0
 10
676.5309386341544
 20
1553.345537850633
 30
0.0
 11
676.5309386341544
 21
1555.0122045173
 31
0.0
 12
681.5309386341544
 22
1554.178871183966
 32
0.0
 13
681.5309386341544
 23
1554.178871183966
 33
0.0
  0
SOLID
  5
2925
  8
DIMENSIONS
 62
     0
 10
180.0309386341547
 20
1555.0122045173
 30
0.0
 11
180.0309386341547
 21
1553.345537850633
 31
0.0
 12
175.0309386341547
 22
1554.178871183966
 32
0.0
 13
175.0309386341547
 23
1554.178871183966
 33
0.0
  0
TEXT
  5
2926
  8
DIMENSIONS
  6
CONTINUOUS
 62
     5
 10
407.9934386341545
 20
1556.573871183967
 30
0.0
 40
5.0
  1
506.5 [19.94]
  0
POINT
  5
2927
  8
DEFPOINTS
 62
     0
 10
681.5309386341544
 20
1493.617208669807
 30
0.0
  0
POINT
  5
2928
  8
DEFPOINTS
 62
     0
 10
175.0309386341547
 20
1493.617208669807
 30
0.0
  0
POINT
  5
2929
  8
DEFPOINTS
 62
     0
 10
175.0309386341547
 20
1554.178871183966
 30
0.0
  0
ENDBLK
  5
2920
  8
0
  0
BLOCK
  8
0
  2
*D448
 70
     1
 10
0.0
 20
0.0
 30
0.0
  3
*D448
  1

  0
LINE
  5
2930
  8
DIMENSIONS
  6
BYBLOCK
 62
     0
 10
292.5309386341546
 20
1087.117208669807
 30
0.0
 11
292.5309386341546
 21
1105.19944758635
 31
0.0
  0
LINE
  5
2931
  8
DIMENSIONS
  6
BYBLOCK
 62
     0
 10
195.0309386341544
 20
1087.117208669807
 30
0.0
 11
195.0309386341544
 21
1105.19944758635
 31
0.0
  0
LINE
  5
2932
  8
DIMENSIONS
  6
BYBLOCK
 62
     0
 10
287.5309386341546
 20
1105.01944758635
 30
0.0
 11
200.0309386341544
 21
1105.01944758635
 31
0.0
  0
SOLID
  5
2933
  8
DIMENSIONS
 62
     0
 10
287.5309386341546
 20
1104.186114253017
 30
0.0
 11
287.5309386341546
 21
1105.852780919683
 31
0.0
 12
292.5309386341546
 22
1105.01944758635
 32
0.0
 13
292.5309386341546
 23
1105.01944758635
 33
0.0
  0
SOLID
  5
2934
  8
DIMENSIONS
 62
     0
 10
200.0309386341544
 20
1105.852780919683
 30
0.0
 11
200.0309386341544
 21
1104.186114253017
 31
0.0
 12
195.0309386341544
 22
1105.01944758635
 32
0.0
 13
195.0309386341544
 23
1105.01944758635
 33
0.0
  0
TEXT
  5
2935
  8
DIMENSIONS
  6
CONTINUOUS
 62
     5
 10
227.3734386341545
 20
1107.41444758635
 30
0.0
 40
5.0
  1
97.5 [3.84]
  0
POINT
  5
2936
  8
DEFPOINTS
 62
     0
 10
292.5309386341546
 20
1085.617208669807
 30
0.0
  0
POINT
  5
2937
  8
DEFPOINTS
 62
     0
 10
195.0309386341544
 20
1085.617208669807
 30
0.0
  0
POINT
  5
2938
  8
DEFPOINTS
 62
     0
 10
195.0309386341544
 20
1105.01944758635
 30
0.0
  0
ENDBLK
  5
292F
  8
0
  0
BLOCK
  8
0
  2
*D449
 70
     1
 10
0.0
 20
0.0
 30
0.0
  3
*D449
  1

  0
LINE
  5
293F
  8
DIMENSIONS
  6
BYBLOCK
 62
     0
 10
292.5309386341546
 20
1087.117208669807
 30
0.0
 11
292.5309386341546
 21
1105.19944758635
 31
0.0
  0
LINE
  5
2940
  8
DIMENSIONS
  6
BYBLOCK
 62
     0
 10
624.5309386341546
 20
1087.117208669807
 30
0.0
 11
624.5309386341546
 21
1105.19944758635
 31
0.0
  0
LINE
  5
2941
  8
DIMENSIONS
  6
BYBLOCK
 62
     0
 10
297.5309386341546
 20
1105.01944758635
 30
0.0
 11
619.5309386341546
 21
1105.01944758635
 31
0.0
  0
SOLID
  5
2942
  8
DIMENSIONS
 62
     0
 10
297.5309386341546
 20
1105.852780919683
 30
0.0
 11
297.5309386341546
 21
1104.186114253017
 31
0.0
 12
292.5309386341546
 22
1105.01944758635
 32
0.0
 13
292.5309386341546
 23
1105.01944758635
 33
0.0
  0
SOLID
  5
2943
  8
DIMENSIONS
 62
     0
 10
619.5309386341546
 20
1104.186114253017
 30
0.0
 11
619.5309386341546
 21
1105.852780919683
 31
0.0
 12
624.5309386341546
 22
1105.01944758635
 32
0.0
 13
624.5309386341546
 23
1105.01944758635
 33
0.0
  0
TEXT
  5
2944
  8
DIMENSIONS
  6
CONTINUOUS
 62
     5
 10
441.1509386341546
 20
1107.41444758635
 30
0.0
 40
5.0
  1
332 [13.07]
  0
POINT
  5
2945
  8
DEFPOINTS
 62
     0
 10
292.5309386341546
 20
1085.617208669807
 30
0.0
  0
POINT
  5
2946
  8
DEFPOINTS
 62
     0
 10
624.5309386341546
 20
1085.617208669807
 30
0.0
  0
POINT
  5
2947
  8
DEFPOINTS
 62
     0
 10
624.5309386341546
 20
1105.01944758635
 30
0.0
  0
ENDBLK
  5
293E
  8
0
  0
BLOCK
  8
0
  2
*D450
 70
     1
 10
0.0
 20
0.0
 30
0.0
  3
*D450
  1

  0
LINE
  5
294E
  8
DIMENSIONS
  6
BYBLOCK
 62
     0
 10
624.5309386341546
 20
1087.117208669807
 30
0.0
 11
624.5309386341546
 21
1105.19944758635
 31
0.0
  0
LINE
  5
294F
  8
DIMENSIONS
  6
BYBLOCK
 62
     0
 10
661.5309386341544
 20
1087.117208669807
 30
0.0
 11
661.5309386341544
 21
1105.19944758635
 31
0.0
  0
LINE
  5
2950
  8
DIMENSIONS
  6
BYBLOCK
 62
     0
 10
629.5309386341546
 20
1105.01944758635
 30
0.0
 11
656.5309386341544
 21
1105.01944758635
 31
0.0
  0
SOLID
  5
2951
  8
DIMENSIONS
 62
     0
 10
629.5309386341546
 20
1105.852780919683
 30
0.0
 11
629.5309386341546
 21
1104.186114253017
 31
0.0
 12
624.5309386341546
 22
1105.01944758635
 32
0.0
 13
624.5309386341546
 23
1105.01944758635
 33
0.0
  0
SOLID
  5
2952
  8
DIMENSIONS
 62
     0
 10
656.5309386341544
 20
1104.186114253017
 30
0.0
 11
656.5309386341544
 21
1105.852780919683
 31
0.0
 12
661.5309386341544
 22
1105.01944758635
 32
0.0
 13
661.5309386341544
 23
1105.01944758635
 33
0.0
  0
TEXT
  5
2953
  8
DIMENSIONS
  6
CONTINUOUS
 62
     5
 10
629.5309386341545
 20
1107.41444758635
 30
0.0
 40
5.0
  1
37 [1.46]
  0
POINT
  5
2954
  8
DEFPOINTS
 62
     0
 10
624.5309386341546
 20
1085.617208669807
 30
0.0
  0
POINT
  5
2955
  8
DEFPOINTS
 62
     0
 10
661.5309386341544
 20
1085.617208669807
 30
0.0
  0
POINT
  5
2956
  8
DEFPOINTS
 62
     0
 10
661.5309386341544
 20
1105.01944758635
 30
0.0
  0
ENDBLK
  5
294D
  8
0
  0
BLOCK
  8
0
  2
*D451
 70
     1
 10
0.0
 20
0.0
 30
0.0
  3
*D451
  1

  0
LINE
  5
295D
  8
DIMENSIONS
  6
BYBLOCK
 62
     0
 10
624.5309386341546
 20
662.1172086698066
 30
0.0
 11
624.5309386341546
 21
678.4295731508563
 31
0.0
  0
LINE
  5
295E
  8
DIMENSIONS
  6
BYBLOCK
 62
     0
 10
661.5309386341544
 20
662.1172086698066
 30
0.0
 11
661.5309386341544
 21
678.4295731508563
 31
0.0
  0
LINE
  5
295F
  8
DIMENSIONS
  6
BYBLOCK
 62
     0
 10
629.5309386341546
 20
678.2495731508563
 30
0.0
 11
656.5309386341544
 21
678.2495731508563
 31
0.0
  0
SOLID
  5
2960
  8
DIMENSIONS
 62
     0
 10
629.5309386341546
 20
679.0829064841897
 30
0.0
 11
629.5309386341546
 21
677.416239817523
 31
0.0
 12
624.5309386341546
 22
678.2495731508563
 32
0.0
 13
624.5309386341546
 23
678.2495731508563
 33
0.0
  0
SOLID
  5
2961
  8
DIMENSIONS
 62
     0
 10
656.5309386341544
 20
677.416239817523
 30
0.0
 11
656.5309386341544
 21
679.0829064841897
 31
0.0
 12
661.5309386341544
 22
678.2495731508563
 32
0.0
 13
661.5309386341544
 23
678.2495731508563
 33
0.0
  0
TEXT
  5
2962
  8
DIMENSIONS
  6
CONTINUOUS
 62
     5
 10
629.5309386341545
 20
680.6445731508563
 30
0.0
 40
5.0
  1
37 [1.46]
  0
POINT
  5
2963
  8
DEFPOINTS
 62
     0
 10
624.5309386341546
 20
660.6172086698066
 30
0.0
  0
POINT
  5
2964
  8
DEFPOINTS
 62
     0
 10
661.5309386341544
 20
660.6172086698066
 30
0.0
  0
POINT
  5
2965
  8
DEFPOINTS
 62
     0
 10
661.5309386341544
 20
678.2495731508563
 30
0.0
  0
ENDBLK
  5
295C
  8
0
  0
BLOCK
  8
0
  2
*D452
 70
     1
 10
0.0
 20
0.0
 30
0.0
  3
*D452
  1

  0
LINE
  5
296C
  8
DIMENSIONS
  6
BYBLOCK
 62
     0
 10
624.5309386341546
 20
662.1172086698066
 30
0.0
 11
624.5309386341546
 21
678.4295731508563
 31
0.0
  0
LINE
  5
296D
  8
DIMENSIONS
  6
BYBLOCK
 62
     0
 10
221.5309386341546
 20
662.1172086698066
 30
0.0
 11
221.5309386341546
 21
678.4295731508563
 31
0.0
  0
LINE
  5
296E
  8
DIMENSIONS
  6
BYBLOCK
 62
     0
 10
619.5309386341546
 20
678.2495731508563
 30
0.0
 11
226.5309386341546
 21
678.2495731508563
 31
0.0
  0
SOLID
  5
296F
  8
DIMENSIONS
 62
     0
 10
619.5309386341546
 20
677.416239817523
 30
0.0
 11
619.5309386341546
 21
679.0829064841897
 31
0.0
 12
624.5309386341546
 22
678.2495731508563
 32
0.0
 13
624.5309386341546
 23
678.2495731508563
 33
0.0
  0
SOLID
  5
2970
  8
DIMENSIONS
 62
     0
 10
226.5309386341546
 20
679.0829064841897
 30
0.0
 11
226.5309386341546
 21
677.416239817523
 31
0.0
 12
221.5309386341546
 22
678.2495731508563
 32
0.0
 13
221.5309386341546
 23
678.2495731508563
 33
0.0
  0
TEXT
  5
2971
  8
DIMENSIONS
  6
CONTINUOUS
 62
     5
 10
405.7534386341546
 20
680.6445731508563
 30
0.0
 40
5.0
  1
403 [15.87]
  0
POINT
  5
2972
  8
DEFPOINTS
 62
     0
 10
624.5309386341546
 20
660.6172086698066
 30
0.0
  0
POINT
  5
2973
  8
DEFPOINTS
 62
     0
 10
221.5309386341546
 20
660.6172086698066
 30
0.0
  0
POINT
  5
2974
  8
DEFPOINTS
 62
     0
 10
221.5309386341546
 20
678.2495731508563
 30
0.0
  0
ENDBLK
  5
296B
  8
0
  0
BLOCK
  8
0
  2
*D453
 70
     1
 10
0.0
 20
0.0
 30
0.0
  3
*D453
  1

  0
LINE
  5
297B
  8
DIMENSIONS
  6
BYBLOCK
 62
     0
 10
221.5309386341546
 20
662.1172086698066
 30
0.0
 11
221.5309386341546
 21
694.0271390677316
 31
0.0
  0
LINE
  5
297C
  8
DIMENSIONS
  6
BYBLOCK
 62
     0
 10
195.0309386341544
 20
662.1172086698066
 30
0.0
 11
195.0309386341544
 21
694.0271390677316
 31
0.0
  0
LINE
  5
297D
  8
DIMENSIONS
  6
BYBLOCK
 62
     0
 10
221.5309386341546
 20
693.8471390677316
 30
0.0
 11
260.8509386341546
 21
693.8471390677316
 31
0.0
  0
LINE
  5
297E
  8
DIMENSIONS
  6
BYBLOCK
 62
     0
 10
216.5309386341546
 20
693.8471390677316
 30
0.0
 11
200.0309386341544
 21
693.8471390677316
 31
0.0
  0
SOLID
  5
297F
  8
DIMENSIONS
 62
     0
 10
216.5309386341546
 20
693.0138057343983
 30
0.0
 11
216.5309386341546
 21
694.680472401065
 31
0.0
 12
221.5309386341546
 22
693.8471390677316
 32
0.0
 13
221.5309386341546
 23
693.8471390677316
 33
0.0
  0
SOLID
  5
2980
  8
DIMENSIONS
 62
     0
 10
200.0309386341544
 20
694.680472401065
 30
0.0
 11
200.0309386341544
 21
693.0138057343983
 31
0.0
 12
195.0309386341544
 22
693.8471390677316
 32
0.0
 13
195.0309386341544
 23
693.8471390677316
 33
0.0
  0
TEXT
  5
2981
  8
DIMENSIONS
  6
CONTINUOUS
 62
     5
 10
227.3259386341546
 20
696.2421390677316
 30
0.0
 40
5.0
  1
26.5 [1.04]
  0
POINT
  5
2982
  8
DEFPOINTS
 62
     0
 10
221.5309386341546
 20
660.6172086698066
 30
0.0
  0
POINT
  5
2983
  8
DEFPOINTS
 62
     0
 10
195.0309386341544
 20
660.6172086698066
 30
0.0
  0
POINT
  5
2984
  8
DEFPOINTS
 62
     0
 10
195.0309386341544
 20
693.8471390677316
 30
0.0
  0
ENDBLK
  5
297A
  8
0
  0
BLOCK
  8
0
  2
*D454
 70
     1
 10
0.0
 20
0.0
 30
0.0
  3
*D454
  1

  0
LINE
  5
29A7
  8
DIMENSIONS
  6
BYBLOCK
 62
     0
 10
173.5309386341547
 20
1493.617208669807
 30
0.0
 11
136.2209000689003
 21
1493.617208669807
 31
0.0
  0
LINE
  5
29A8
  8
DIMENSIONS
  6
BYBLOCK
 62
     0
 10
248.5309386341544
 20
1483.617208669808
 30
0.0
 11
136.2209000689003
 21
1483.617208669808
 31
0.0
  0
LINE
  5
29A9
  8
DIMENSIONS
  6
BYBLOCK
 62
     0
 10
136.4009000689003
 20
1483.617208669808
 30
0.0
 11
136.4009000689003
 21
1445.672208669808
 31
0.0
  0
LINE
  5
29AA
  8
DIMENSIONS
  6
BYBLOCK
 62
     0
 10
136.4009000689003
 20
1498.617208669807
 30
0.0
 11
136.4009000689003
 21
1503.617208669807
 31
0.0
  0
LINE
  5
29AB
  8
DIMENSIONS
  6
BYBLOCK
 62
     0
 10
136.4009000689003
 20
1478.617208669808
 30
0.0
 11
136.4009000689003
 21
1473.617208669808
 31
0.0
  0
SOLID
  5
29AC
  8
DIMENSIONS
 62
     0
 10
135.5675667355669
 20
1498.617208669807
 30
0.0
 11
137.2342334022336
 21
1498.617208669807
 31
0.0
 12
136.4009000689003
 22
1493.617208669807
 32
0.0
 13
136.4009000689003
 23
1493.617208669807
 33
0.0
  0
SOLID
  5
29AD
  8
DIMENSIONS
 62
     0
 10
137.2342334022336
 20
1478.617208669808
 30
0.0
 11
135.5675667355669
 21
1478.617208669808
 31
0.0
 12
136.4009000689003
 22
1483.617208669808
 32
0.0
 13
136.4009000689003
 23
1483.617208669808
 33
0.0
  0
TEXT
  5
29AE
  8
DIMENSIONS
  6
CONTINUOUS
 62
     5
 10
134.0059000689
 20
1445.912208669808
 30
0.0
 40
5.0
  1
10 [0.39]
 50
90.0
  0
POINT
  5
29AF
  8
DEFPOINTS
 62
     0
 10
175.0309386341547
 20
1493.617208669807
 30
0.0
  0
POINT
  5
29B0
  8
DEFPOINTS
 62
     0
 10
250.0309386341544
 20
1483.617208669808
 30
0.0
  0
POINT
  5
2A2A
  8
DEFPOINTS
 62
     0
 10
136.4009000689003
 20
1483.617208669808
 30
0.0
  0
ENDBLK
  5
29A6
  8
0
  0
BLOCK
  8
0
  2
*D455
 70
     1
 10
0.0
 20
0.0
 30
0.0
  3
*D455
  1

  0
LINE
  5
29B7
  8
DIMENSIONS
  6
BYBLOCK
 62
     0
 10
248.5309386341544
 20
1483.617208669808
 30
0.0
 11
155.3494387473239
 21
1483.617208669808
 31
0.0
  0
LINE
  5
29B8
  8
DIMENSIONS
  6
BYBLOCK
 62
     0
 10
183.5309386341546
 20
1418.617208669807
 30
0.0
 11
155.3494387473239
 21
1418.617208669807
 31
0.0
  0
LINE
  5
29B9
  8
DIMENSIONS
  6
BYBLOCK
 62
     0
 10
155.529438747324
 20
1478.617208669808
 30
0.0
 11
155.529438747324
 21
1423.617208669807
 31
0.0
  0
SOLID
  5
29BA
  8
DIMENSIONS
 62
     0
 10
156.3627720806573
 20
1478.617208669808
 30
0.0
 11
154.6961054139906
 21
1478.617208669808
 31
0.0
 12
155.529438747324
 22
1483.617208669808
 32
0.0
 13
155.529438747324
 23
1483.617208669808
 33
0.0
  0
SOLID
  5
29BB
  8
DIMENSIONS
 62
     0
 10
154.6961054139906
 20
1423.617208669807
 30
0.0
 11
156.3627720806573
 21
1423.617208669807
 31
0.0
 12
155.529438747324
 22
1418.617208669807
 32
0.0
 13
155.529438747324
 23
1418.617208669807
 33
0.0
  0
TEXT
  5
29BC
  8
DIMENSIONS
  6
CONTINUOUS
 62
     5
 10
153.1344387473237
 20
1437.634708669808
 30
0.0
 40
5.0
  1
65 [2.56]
 50
90.0
  0
POINT
  5
29BD
  8
DEFPOINTS
 62
     0
 10
250.0309386341544
 20
1483.617208669808
 30
0.0
  0
POINT
  5
29BE
  8
DEFPOINTS
 62
     0
 10
185.0309386341546
 20
1418.617208669807
 30
0.0
  0
POINT
  5
29BF
  8
DEFPOINTS
 62
     0
 10
155.529438747324
 20
1418.617208669807
 30
0.0
  0
ENDBLK
  5
29B6
  8
0
  0
BLOCK
  8
0
  2
*D456
 70
     1
 10
0.0
 20
0.0
 30
0.0
  3
*D456
  1

  0
LINE
  5
29C6
  8
DIMENSIONS
  6
BYBLOCK
 62
     0
 10
183.5309386341546
 20
1418.617208669807
 30
0.0
 11
155.3494387473239
 21
1418.617208669807
 31
0.0
  0
LINE
  5
29C7
  8
DIMENSIONS
  6
BYBLOCK
 62
     0
 10
183.5309386341546
 20
1235.617208669807
 30
0.0
 11
155.3494387473239
 21
1235.617208669807
 31
0.0
  0
LINE
  5
29C8
  8
DIMENSIONS
  6
BYBLOCK
 62
     0
 10
155.529438747324
 20
1413.617208669807
 30
0.0
 11
155.529438747324
 21
1240.617208669807
 31
0.0
  0
SOLID
  5
29C9
  8
DIMENSIONS
 62
     0
 10
156.3627720806573
 20
1413.617208669807
 30
0.0
 11
154.6961054139906
 21
1413.617208669807
 31
0.0
 12
155.529438747324
 22
1418.617208669807
 32
0.0
 13
155.529438747324
 23
1418.617208669807
 33
0.0
  0
SOLID
  5
29CA
  8
DIMENSIONS
 62
     0
 10
154.6961054139906
 20
1240.617208669807
 30
0.0
 11
156.3627720806573
 21
1240.617208669807
 31
0.0
 12
155.529438747324
 22
1235.617208669807
 32
0.0
 13
155.529438747324
 23
1235.617208669807
 33
0.0
  0
TEXT
  5
29CB
  8
DIMENSIONS
  6
CONTINUOUS
 62
     5
 10
153.1344387473237
 20
1311.444708669807
 30
0.0
 40
5.0
  1
183 [7.20]
 50
90.0
  0
POINT
  5
29CC
  8
DEFPOINTS
 62
     0
 10
185.0309386341546
 20
1418.617208669807
 30
0.0
  0
POINT
  5
29CD
  8
DEFPOINTS
 62
     0
 10
185.0309386341546
 20
1235.617208669807
 30
0.0
  0
POINT
  5
29CE
  8
DEFPOINTS
 62
     0
 10
155.529438747324
 20
1235.617208669807
 30
0.0
  0
ENDBLK
  5
29C5
  8
0
  0
BLOCK
  8
0
  2
*D457
 70
     1
 10
0.0
 20
0.0
 30
0.0
  3
*D457
  1

  0
LINE
  5
29D5
  8
DIMENSIONS
  6
BYBLOCK
 62
     0
 10
183.5309386341546
 20
1235.617208669807
 30
0.0
 11
155.3494387473239
 21
1235.617208669807
 31
0.0
  0
LINE
  5
29D6
  8
DIMENSIONS
  6
BYBLOCK
 62
     0
 10
183.5309386341546
 20
1052.617208669807
 30
0.0
 11
155.3494387473239
 21
1052.617208669807
 31
0.0
  0
LINE
  5
29D7
  8
DIMENSIONS
  6
BYBLOCK
 62
     0
 10
155.529438747324
 20
1230.617208669807
 30
0.0
 11
155.529438747324
 21
1057.617208669807
 31
0.0
  0
SOLID
  5
29D8
  8
DIMENSIONS
 62
     0
 10
156.3627720806573
 20
1230.617208669807
 30
0.0
 11
154.6961054139906
 21
1230.617208669807
 31
0.0
 12
155.529438747324
 22
1235.617208669807
 32
0.0
 13
155.529438747324
 23
1235.617208669807
 33
0.0
  0
SOLID
  5
29D9
  8
DIMENSIONS
 62
     0
 10
154.6961054139906
 20
1057.617208669807
 30
0.0
 11
156.3627720806573
 21
1057.617208669807
 31
0.0
 12
155.529438747324
 22
1052.617208669807
 32
0.0
 13
155.529438747324
 23
1052.617208669807
 33
0.0
  0
TEXT
  5
29DA
  8
DIMENSIONS
  6
CONTINUOUS
 62
     5
 10
153.1344387473237
 20
1128.444708669806
 30
0.0
 40
5.0
  1
183 [7.20]
 50
90.0
  0
POINT
  5
29DB
  8
DEFPOINTS
 62
     0
 10
185.0309386341546
 20
1235.617208669807
 30
0.0
  0
POINT
  5
29DC
  8
DEFPOINTS
 62
     0
 10
185.0309386341546
 20
1052.617208669807
 30
0.0
  0
POINT
  5
29DD
  8
DEFPOINTS
 62
     0
 10
155.529438747324
 20
1052.617208669807
 30
0.0
  0
ENDBLK
  5
29D4
  8
0
  0
BLOCK
  8
0
  2
*D458
 70
     1
 10
0.0
 20
0.0
 30
0.0
  3
*D458
  1

  0
LINE
  5
29E4
  8
DIMENSIONS
  6
BYBLOCK
 62
     0
 10
183.5309386341546
 20
1052.617208669807
 30
0.0
 11
155.3494387473239
 21
1052.617208669807
 31
0.0
  0
LINE
  5
29E5
  8
DIMENSIONS
  6
BYBLOCK
 62
     0
 10
183.5309386341546
 20
869.6172086698067
 30
0.0
 11
155.3494387473239
 21
869.6172086698067
 31
0.0
  0
LINE
  5
29E6
  8
DIMENSIONS
  6
BYBLOCK
 62
     0
 10
155.529438747324
 20
1047.617208669807
 30
0.0
 11
155.529438747324
 21
874.6172086698067
 31
0.0
  0
SOLID
  5
29E7
  8
DIMENSIONS
 62
     0
 10
156.3627720806573
 20
1047.617208669807
 30
0.0
 11
154.6961054139906
 21
1047.617208669807
 31
0.0
 12
155.529438747324
 22
1052.617208669807
 32
0.0
 13
155.529438747324
 23
1052.617208669807
 33
0.0
  0
SOLID
  5
29E8
  8
DIMENSIONS
 62
     0
 10
154.6961054139906
 20
874.6172086698067
 30
0.0
 11
156.3627720806573
 21
874.6172086698067
 31
0.0
 12
155.529438747324
 22
869.6172086698067
 32
0.0
 13
155.529438747324
 23
869.6172086698067
 33
0.0
  0
TEXT
  5
29E9
  8
DIMENSIONS
  6
CONTINUOUS
 62
     5
 10
153.134438747324
 20
945.4447086698066
 30
0.0
 40
5.0
  1
183 [7.20]
 50
90.0
  0
POINT
  5
29EA
  8
DEFPOINTS
 62
     0
 10
185.0309386341546
 20
1052.617208669807
 30
0.0
  0
POINT
  5
29EB
  8
DEFPOINTS
 62
     0
 10
185.0309386341546
 20
869.6172086698067
 30
0.0
  0
POINT
  5
29EC
  8
DEFPOINTS
 62
     0
 10
155.529438747324
 20
869.6172086698067
 30
0.0
  0
ENDBLK
  5
29E3
  8
0
  0
BLOCK
  8
0
  2
*D459
 70
     1
 10
0.0
 20
0.0
 30
0.0
  3
*D459
  1

  0
LINE
  5
29F3
  8
DIMENSIONS
  6
BYBLOCK
 62
     0
 10
183.5309386341546
 20
869.6172086698067
 30
0.0
 11
155.3494387473239
 21
869.6172086698067
 31
0.0
  0
LINE
  5
29F4
  8
DIMENSIONS
  6
BYBLOCK
 62
     0
 10
183.5309386341546
 20
686.6172086698067
 30
0.0
 11
155.3494387473239
 21
686.6172086698067
 31
0.0
  0
LINE
  5
29F5
  8
DIMENSIONS
  6
BYBLOCK
 62
     0
 10
155.529438747324
 20
864.6172086698067
 30
0.0
 11
155.529438747324
 21
691.6172086698067
 31
0.0
  0
SOLID
  5
29F6
  8
DIMENSIONS
 62
     0
 10
156.3627720806573
 20
864.6172086698067
 30
0.0
 11
154.6961054139906
 21
864.6172086698067
 31
0.0
 12
155.529438747324
 22
869.6172086698067
 32
0.0
 13
155.529438747324
 23
869.6172086698067
 33
0.0
  0
SOLID
  5
29F7
  8
DIMENSIONS
 62
     0
 10
154.6961054139906
 20
691.6172086698067
 30
0.0
 11
156.3627720806573
 21
691.6172086698067
 31
0.0
 12
155.529438747324
 22
686.6172086698067
 32
0.0
 13
155.529438747324
 23
686.6172086698067
 33
0.0
  0
TEXT
  5
29F8
  8
DIMENSIONS
  6
CONTINUOUS
 62
     5
 10
153.134438747324
 20
762.4447086698067
 30
0.0
 40
5.0
  1
183 [7.20]
 50
90.0
  0
POINT
  5
29F9
  8
DEFPOINTS
 62
     0
 10
185.0309386341546
 20
869.6172086698067
 30
0.0
  0
POINT
  5
29FA
  8
DEFPOINTS
 62
     0
 10
185.0309386341546
 20
686.6172086698067
 30
0.0
  0
POINT
  5
29FB
  8
DEFPOINTS
 62
     0
 10
155.529438747324
 20
686.6172086698067
 30
0.0
  0
ENDBLK
  5
29F2
  8
0
  0
BLOCK
  8
0
  2
*D460
 70
     1
 10
0.0
 20
0.0
 30
0.0
  3
*D460
  1

  0
LINE
  5
2A02
  8
DIMENSIONS
  6
BYBLOCK
 62
     0
 10
183.5309386341546
 20
686.6172086698067
 30
0.0
 11
155.3494387473239
 21
686.6172086698067
 31
0.0
  0
LINE
  5
2A03
  8
DIMENSIONS
  6
BYBLOCK
 62
     0
 10
183.5309386341546
 20
503.6172086698067
 30
0.0
 11
155.3494387473239
 21
503.6172086698067
 31
0.0
  0
LINE
  5
2A04
  8
DIMENSIONS
  6
BYBLOCK
 62
     0
 10
155.529438747324
 20
681.6172086698067
 30
0.0
 11
155.529438747324
 21
508.6172086698067
 31
0.0
  0
SOLID
  5
2A05
  8
DIMENSIONS
 62
     0
 10
156.3627720806573
 20
681.6172086698067
 30
0.0
 11
154.6961054139906
 21
681.6172086698067
 31
0.0
 12
155.529438747324
 22
686.6172086698067
 32
0.0
 13
155.529438747324
 23
686.6172086698067
 33
0.0
  0
SOLID
  5
2A06
  8
DIMENSIONS
 62
     0
 10
154.6961054139906
 20
508.6172086698067
 30
0.0
 11
156.3627720806573
 21
508.6172086698067
 31
0.0
 12
155.529438747324
 22
503.6172086698067
 32
0.0
 13
155.529438747324
 23
503.6172086698067
 33
0.0
  0
TEXT
  5
2A07
  8
DIMENSIONS
  6
CONTINUOUS
 62
     5
 10
153.134438747324
 20
579.4447086698067
 30
0.0
 40
5.0
  1
183 [7.20]
 50
90.0
  0
POINT
  5
2A08
  8
DEFPOINTS
 62
     0
 10
185.0309386341546
 20
686.6172086698067
 30
0.0
  0
POINT
  5
2A09
  8
DEFPOINTS
 62
     0
 10
185.0309386341546
 20
503.6172086698067
 30
0.0
  0
POINT
  5
2A0A
  8
DEFPOINTS
 62
     0
 10
155.529438747324
 20
503.6172086698067
 30
0.0
  0
ENDBLK
  5
2A01
  8
0
  0
BLOCK
  8
0
  2
*D461
 70
     1
 10
0.0
 20
0.0
 30
0.0
  3
*D461
  1

  0
LINE
  5
2A11
  8
DIMENSIONS
  6
BYBLOCK
 62
     0
 10
183.5309386341546
 20
503.6172086698067
 30
0.0
 11
155.3494387473239
 21
503.6172086698067
 31
0.0
  0
LINE
  5
2A12
  8
DIMENSIONS
  6
BYBLOCK
 62
     0
 10
248.5309386341544
 20
438.6172086698047
 30
0.0
 11
155.3494387473239
 21
438.6172086698047
 31
0.0
  0
LINE
  5
2A13
  8
DIMENSIONS
  6
BYBLOCK
 62
     0
 10
155.529438747324
 20
498.6172086698067
 30
0.0
 11
155.529438747324
 21
443.6172086698047
 31
0.0
  0
SOLID
  5
2A14
  8
DIMENSIONS
 62
     0
 10
156.3627720806573
 20
498.6172086698067
 30
0.0
 11
154.6961054139906
 21
498.6172086698067
 31
0.0
 12
155.529438747324
 22
503.6172086698067
 32
0.0
 13
155.529438747324
 23
503.6172086698067
 33
0.0
  0
SOLID
  5
2A15
  8
DIMENSIONS
 62
     0
 10
154.6961054139906
 20
443.6172086698047
 30
0.0
 11
156.3627720806573
 21
443.6172086698047
 31
0.0
 12
155.529438747324
 22
438.6172086698047
 32
0.0
 13
155.529438747324
 23
438.6172086698047
 33
0.0
  0
TEXT
  5
2A16
  8
DIMENSIONS
  6
CONTINUOUS
 62
     5
 10
153.134438747324
 20
457.6347086698057
 30
0.0
 40
5.0
  1
65 [2.56]
 50
90.0
  0
POINT
  5
2A17
  8
DEFPOINTS
 62
     0
 10
185.0309386341546
 20
503.6172086698067
 30
0.0
  0
POINT
  5
2A18
  8
DEFPOINTS
 62
     0
 10
250.0309386341544
 20
438.6172086698047
 30
0.0
  0
POINT
  5
2A19
  8
DEFPOINTS
 62
     0
 10
155.529438747324
 20
438.6172086698047
 30
0.0
  0
ENDBLK
  5
2A10
  8
0
  0
BLOCK
  8
0
  2
*D462
 70
     1
 10
0.0
 20
0.0
 30
0.0
  3
*D462
  1

  0
LINE
  5
2A20
  8
DIMENSIONS
  6
BYBLOCK
 62
     0
 10
248.5309386341544
 20
438.6172086698047
 30
0.0
 11
137.1009263500497
 21
438.6172086698047
 31
0.0
  0
LINE
  5
2A21
  8
DIMENSIONS
  6
BYBLOCK
 62
     0
 10
173.5309386341547
 20
428.6172086698067
 30
0.0
 11
137.1009263500497
 21
428.6172086698067
 31
0.0
  0
LINE
  5
2A22
  8
DIMENSIONS
  6
BYBLOCK
 62
     0
 10
137.2809263500497
 20
438.6172086698047
 30
0.0
 11
137.2809263500497
 21
476.5622086698046
 31
0.0
  0
LINE
  5
2A23
  8
DIMENSIONS
  6
BYBLOCK
 62
     0
 10
137.2809263500497
 20
443.6172086698047
 30
0.0
 11
137.2809263500497
 21
448.6172086698047
 31
0.0
  0
LINE
  5
2A24
  8
DIMENSIONS
  6
BYBLOCK
 62
     0
 10
137.2809263500497
 20
423.6172086698067
 30
0.0
 11
137.2809263500497
 21
418.6172086698067
 31
0.0
  0
SOLID
  5
2A25
  8
DIMENSIONS
 62
     0
 10
136.4475930167164
 20
443.6172086698047
 30
0.0
 11
138.1142596833831
 21
443.6172086698047
 31
0.0
 12
137.2809263500497
 22
438.6172086698047
 32
0.0
 13
137.2809263500497
 23
438.6172086698047
 33
0.0
  0
SOLID
  5
2A26
  8
DIMENSIONS
 62
     0
 10
138.1142596833831
 20
423.6172086698067
 30
0.0
 11
136.4475930167164
 21
423.6172086698067
 31
0.0
 12
137.2809263500497
 22
428.6172086698067
 32
0.0
 13
137.2809263500497
 23
428.6172086698067
 33
0.0
  0
TEXT
  5
2A27
  8
DIMENSIONS
  6
CONTINUOUS
 62
     5
 10
134.8859263500498
 20
448.8572086698046
 30
0.0
 40
5.0
  1
10 [0.39]
 50
90.0
  0
POINT
  5
2A28
  8
DEFPOINTS
 62
     0
 10
250.0309386341544
 20
438.6172086698047
 30
0.0
  0
POINT
  5
2A29
  8
DEFPOINTS
 62
     0
 10
175.0309386341547
 20
428.6172086698067
 30
0.0
  0
POINT
  5
2A2B
  8
DEFPOINTS
 62
     0
 10
137.2809263500497
 20
428.6172086698067
 30
0.0
  0
ENDBLK
  5
2A1F
  8
0
  0
BLOCK
  8
0
  2
*D463
 70
     1
 10
0.0
 20
0.0
 30
0.0
  3
*D463
  1

  0
LINE
  5
2A32
  8
DIMENSIONS
  6
BYBLOCK
 62
     0
 10
683.0309386341544
 20
1493.617208669807
 30
0.0
 11
721.8246436911753
 21
1493.617208669807
 31
0.0
  0
LINE
  5
2A33
  8
DIMENSIONS
  6
BYBLOCK
 62
     0
 10
663.0309386341544
 20
1473.617208669807
 30
0.0
 11
721.8246436911753
 21
1473.617208669807
 31
0.0
  0
LINE
  5
2A34
  8
DIMENSIONS
  6
BYBLOCK
 62
     0
 10
721.6446436911754
 20
1473.617208669807
 30
0.0
 11
721.6446436911754
 21
1439.098406665218
 31
0.0
  0
LINE
  5
2A35
  8
DIMENSIONS
  6
BYBLOCK
 62
     0
 10
721.6446436911754
 20
1488.617208669807
 30
0.0
 11
721.6446436911754
 21
1478.617208669807
 31
0.0
  0
SOLID
  5
2A36
  8
DIMENSIONS
 62
     0
 10
722.4779770245087
 20
1488.617208669807
 30
0.0
 11
720.811310357842
 21
1488.617208669807
 31
0.0
 12
721.6446436911754
 22
1493.617208669807
 32
0.0
 13
721.6446436911754
 23
1493.617208669807
 33
0.0
  0
SOLID
  5
2A37
  8
DIMENSIONS
 62
     0
 10
720.811310357842
 20
1478.617208669807
 30
0.0
 11
722.4779770245087
 21
1478.617208669807
 31
0.0
 12
721.6446436911754
 22
1473.617208669807
 32
0.0
 13
721.6446436911754
 23
1473.617208669807
 33
0.0
  0
TEXT
  5
2A38
  8
DIMENSIONS
  6
CONTINUOUS
 62
     5
 10
719.2496436911752
 20
1439.893406665218
 30
0.0
 40
5.0
  1
20 [0.79]
 50
90.0
  0
POINT
  5
2A39
  8
DEFPOINTS
 62
     0
 10
681.5309386341544
 20
1493.617208669807
 30
0.0
  0
POINT
  5
2A3A
  8
DEFPOINTS
 62
     0
 10
661.5309386341544
 20
1473.617208669807
 30
0.0
  0
POINT
  5
2A95
  8
DEFPOINTS
 62
     0
 10
721.6446436911754
 20
1473.617208669807
 30
0.0
  0
ENDBLK
  5
2A31
  8
0
  0
BLOCK
  8
0
  2
*D464
 70
     1
 10
0.0
 20
0.0
 30
0.0
  3
*D464
  1

  0
LINE
  5
2A41
  8
DIMENSIONS
  6
BYBLOCK
 62
     0
 10
663.0309386341544
 20
1473.617208669807
 30
0.0
 11
702.1688236278626
 21
1473.617208669807
 31
0.0
  0
LINE
  5
2A42
  8
DIMENSIONS
  6
BYBLOCK
 62
     0
 10
626.0309386341546
 20
1085.617208669807
 30
0.0
 11
702.1688236278626
 21
1085.617208669807
 31
0.0
  0
LINE
  5
2A43
  8
DIMENSIONS
  6
BYBLOCK
 62
     0
 10
701.9888236278626
 20
1468.617208669807
 30
0.0
 11
701.9888236278626
 21
1090.617208669807
 31
0.0
  0
SOLID
  5
2A44
  8
DIMENSIONS
 62
     0
 10
702.822156961196
 20
1468.617208669807
 30
0.0
 11
701.1554902945293
 21
1468.617208669807
 31
0.0
 12
701.9888236278626
 22
1473.617208669807
 32
0.0
 13
701.9888236278626
 23
1473.617208669807
 33
0.0
  0
SOLID
  5
2A45
  8
DIMENSIONS
 62
     0
 10
701.1554902945293
 20
1090.617208669807
 30
0.0
 11
702.822156961196
 21
1090.617208669807
 31
0.0
 12
701.9888236278626
 22
1085.617208669807
 32
0.0
 13
701.9888236278626
 23
1085.617208669807
 33
0.0
  0
TEXT
  5
2A46
  8
DIMENSIONS
  6
CONTINUOUS
 62
     5
 10
699.5938236278625
 20
1262.237208669806
 30
0.0
 40
5.0
  1
388 [15.28]
 50
90.0
  0
POINT
  5
2A47
  8
DEFPOINTS
 62
     0
 10
661.5309386341544
 20
1473.617208669807
 30
0.0
  0
POINT
  5
2A48
  8
DEFPOINTS
 62
     0
 10
624.5309386341546
 20
1085.617208669807
 30
0.0
  0
POINT
  5
2A49
  8
DEFPOINTS
 62
     0
 10
701.9888236278626
 20
1085.617208669807
 30
0.0
  0
ENDBLK
  5
2A40
  8
0
  0
BLOCK
  8
0
  2
*D465
 70
     1
 10
0.0
 20
0.0
 30
0.0
  3
*D465
  1

  0
LINE
  5
2A50
  8
DIMENSIONS
  6
BYBLOCK
 62
     0
 10
626.0309386341546
 20
1085.617208669807
 30
0.0
 11
702.1688236278626
 21
1085.617208669807
 31
0.0
  0
LINE
  5
2A51
  8
DIMENSIONS
  6
BYBLOCK
 62
     0
 10
626.0309386341546
 20
953.6172086698066
 30
0.0
 11
702.1688236278626
 21
953.6172086698066
 31
0.0
  0
LINE
  5
2A52
  8
DIMENSIONS
  6
BYBLOCK
 62
     0
 10
701.9888236278626
 20
1080.617208669807
 30
0.0
 11
701.9888236278626
 21
958.6172086698066
 31
0.0
  0
SOLID
  5
2A53
  8
DIMENSIONS
 62
     0
 10
702.822156961196
 20
1080.617208669807
 30
0.0
 11
701.1554902945293
 21
1080.617208669807
 31
0.0
 12
701.9888236278626
 22
1085.617208669807
 32
0.0
 13
701.9888236278626
 23
1085.617208669807
 33
0.0
  0
SOLID
  5
2A54
  8
DIMENSIONS
 62
     0
 10
701.1554902945293
 20
958.6172086698066
 30
0.0
 11
702.822156961196
 21
958.6172086698066
 31
0.0
 12
701.9888236278626
 22
953.6172086698066
 32
0.0
 13
701.9888236278626
 23
953.6172086698066
 33
0.0
  0
TEXT
  5
2A55
  8
DIMENSIONS
  6
CONTINUOUS
 62
     5
 10
699.5938236278627
 20
1003.944708669807
 30
0.0
 40
5.0
  1
132 [5.20]
 50
90.0
  0
POINT
  5
2A56
  8
DEFPOINTS
 62
     0
 10
624.5309386341546
 20
1085.617208669807
 30
0.0
  0
POINT
  5
2A57
  8
DEFPOINTS
 62
     0
 10
624.5309386341546
 20
953.6172086698066
 30
0.0
  0
POINT
  5
2A58
  8
DEFPOINTS
 62
     0
 10
701.9888236278626
 20
953.6172086698066
 30
0.0
  0
ENDBLK
  5
2A4F
  8
0
  0
BLOCK
  8
0
  2
*D466
 70
     1
 10
0.0
 20
0.0
 30
0.0
  3
*D466
  1

  0
LINE
  5
2A5F
  8
DIMENSIONS
  6
BYBLOCK
 62
     0
 10
626.0309386341546
 20
953.6172086698066
 30
0.0
 11
702.1688236278626
 21
953.6172086698066
 31
0.0
  0
LINE
  5
2A60
  8
DIMENSIONS
  6
BYBLOCK
 62
     0
 10
626.0309386341546
 20
660.6172086698066
 30
0.0
 11
702.1688236278626
 21
660.6172086698066
 31
0.0
  0
LINE
  5
2A61
  8
DIMENSIONS
  6
BYBLOCK
 62
     0
 10
701.9888236278626
 20
948.6172086698066
 30
0.0
 11
701.9888236278626
 21
665.6172086698066
 31
0.0
  0
SOLID
  5
2A62
  8
DIMENSIONS
 62
     0
 10
702.822156961196
 20
948.6172086698066
 30
0.0
 11
701.1554902945293
 21
948.6172086698066
 31
0.0
 12
701.9888236278626
 22
953.6172086698066
 32
0.0
 13
701.9888236278626
 23
953.6172086698066
 33
0.0
  0
SOLID
  5
2A63
  8
DIMENSIONS
 62
     0
 10
701.1554902945293
 20
665.6172086698066
 30
0.0
 11
702.822156961196
 21
665.6172086698066
 31
0.0
 12
701.9888236278626
 22
660.6172086698066
 32
0.0
 13
701.9888236278626
 23
660.6172086698066
 33
0.0
  0
TEXT
  5
2A64
  8
DIMENSIONS
  6
CONTINUOUS
 62
     5
 10
699.5938236278627
 20
789.7822086698066
 30
0.0
 40
5.0
  1
293 [11.54]
 50
90.0
  0
POINT
  5
2A65
  8
DEFPOINTS
 62
     0
 10
624.5309386341546
 20
953.6172086698066
 30
0.0
  0
POINT
  5
2A66
  8
DEFPOINTS
 62
     0
 10
624.5309386341546
 20
660.6172086698066
 30
0.0
  0
POINT
  5
2A67
  8
DEFPOINTS
 62
     0
 10
701.9888236278626
 20
660.6172086698066
 30
0.0
  0
ENDBLK
  5
2A5E
  8
0
  0
BLOCK
  8
0
  2
*D467
 70
     1
 10
0.0
 20
0.0
 30
0.0
  3
*D467
  1

  0
LINE
  5
2A6E
  8
DIMENSIONS
  6
BYBLOCK
 62
     0
 10
626.0309386341546
 20
660.6172086698066
 30
0.0
 11
702.1688236278626
 21
660.6172086698066
 31
0.0
  0
LINE
  5
2A6F
  8
DIMENSIONS
  6
BYBLOCK
 62
     0
 10
626.0309386341546
 20
475.6172086698067
 30
0.0
 11
702.1688236278626
 21
475.6172086698067
 31
0.0
  0
LINE
  5
2A70
  8
DIMENSIONS
  6
BYBLOCK
 62
     0
 10
701.9888236278626
 20
655.6172086698066
 30
0.0
 11
701.9888236278626
 21
480.6172086698067
 31
0.0
  0
SOLID
  5
2A71
  8
DIMENSIONS
 62
     0
 10
702.822156961196
 20
655.6172086698066
 30
0.0
 11
701.1554902945293
 21
655.6172086698066
 31
0.0
 12
701.9888236278626
 22
660.6172086698066
 32
0.0
 13
701.9888236278626
 23
660.6172086698066
 33
0.0
  0
SOLID
  5
2A72
  8
DIMENSIONS
 62
     0
 10
701.1554902945293
 20
480.6172086698067
 30
0.0
 11
702.822156961196
 21
480.6172086698067
 31
0.0
 12
701.9888236278626
 22
475.6172086698067
 32
0.0
 13
701.9888236278626
 23
475.6172086698067
 33
0.0
  0
TEXT
  5
2A73
  8
DIMENSIONS
  6
CONTINUOUS
 62
     5
 10
699.5938236278627
 20
552.4447086698066
 30
0.0
 40
5.0
  1
185 [7.28]
 50
90.0
  0
POINT
  5
2A74
  8
DEFPOINTS
 62
     0
 10
624.5309386341546
 20
660.6172086698066
 30
0.0
  0
POINT
  5
2A75
  8
DEFPOINTS
 62
     0
 10
624.5309386341546
 20
475.6172086698067
 30
0.0
  0
POINT
  5
2A76
  8
DEFPOINTS
 62
     0
 10
701.9888236278626
 20
475.6172086698067
 30
0.0
  0
ENDBLK
  5
2A6D
  8
0
  0
BLOCK
  8
0
  2
*D468
 70
     1
 10
0.0
 20
0.0
 30
0.0
  3
*D468
  1

  0
LINE
  5
2A7D
  8
DIMENSIONS
  6
BYBLOCK
 62
     0
 10
626.0309386341546
 20
475.6172086698067
 30
0.0
 11
723.4776449927402
 21
475.6172086698067
 31
0.0
  0
LINE
  5
2A7E
  8
DIMENSIONS
  6
BYBLOCK
 62
     0
 10
663.0309386341544
 20
448.6172086698066
 30
0.0
 11
723.4776449927402
 21
448.6172086698066
 31
0.0
  0
LINE
  5
2A7F
  8
DIMENSIONS
  6
BYBLOCK
 62
     0
 10
723.2976449927403
 20
475.6172086698067
 30
0.0
 11
723.2976449927403
 21
509.1172086698067
 31
0.0
  0
LINE
  5
2A80
  8
DIMENSIONS
  6
BYBLOCK
 62
     0
 10
723.2976449927403
 20
470.6172086698067
 30
0.0
 11
723.2976449927403
 21
453.6172086698066
 31
0.0
  0
SOLID
  5
2A81
  8
DIMENSIONS
 62
     0
 10
724.1309783260737
 20
470.6172086698067
 30
0.0
 11
722.4643116594069
 21
470.6172086698067
 31
0.0
 12
723.2976449927403
 22
475.6172086698067
 32
0.0
 13
723.2976449927403
 23
475.6172086698067
 33
0.0
  0
SOLID
  5
2A82
  8
DIMENSIONS
 62
     0
 10
722.4643116594069
 20
453.6172086698066
 30
0.0
 11
724.1309783260737
 21
453.6172086698066
 31
0.0
 12
723.2976449927403
 22
448.6172086698066
 32
0.0
 13
723.2976449927403
 23
448.6172086698066
 33
0.0
  0
TEXT
  5
2A83
  8
DIMENSIONS
  6
CONTINUOUS
 62
     5
 10
720.9026449927403
 20
481.4122086698067
 30
0.0
 40
5.0
  1
27 [1.06]
 50
90.0
  0
POINT
  5
2A84
  8
DEFPOINTS
 62
     0
 10
624.5309386341546
 20
475.6172086698067
 30
0.0
  0
POINT
  5
2A85
  8
DEFPOINTS
 62
     0
 10
661.5309386341544
 20
448.6172086698066
 30
0.0
  0
POINT
  5
2A97
  8
DEFPOINTS
 62
     0
 10
723.2976449927403
 20
448.6172086698066
 30
0.0
  0
ENDBLK
  5
2A7C
  8
0
  0
BLOCK
  8
0
  2
*D469
 70
     1
 10
0.0
 20
0.0
 30
0.0
  3
*D469
  1

  0
LINE
  5
2A8C
  8
DIMENSIONS
  6
BYBLOCK
 62
     0
 10
663.0309386341544
 20
448.6172086698066
 30
0.0
 11
744.6164353528628
 21
448.6172086698066
 31
0.0
  0
LINE
  5
2A8D
  8
DIMENSIONS
  6
BYBLOCK
 62
     0
 10
683.0309386341544
 20
428.6172086698066
 30
0.0
 11
744.6164353528628
 21
428.6172086698066
 31
0.0
  0
LINE
  5
2A8E
  8
DIMENSIONS
  6
BYBLOCK
 62
     0
 10
744.4364353528629
 20
448.6172086698066
 30
0.0
 11
744.4364353528629
 21
482.1172086698066
 31
0.0
  0
LINE
  5
2A8F
  8
DIMENSIONS
  6
BYBLOCK
 62
     0
 10
744.4364353528629
 20
443.6172086698066
 30
0.0
 11
744.4364353528629
 21
433.6172086698066
 31
0.0
  0
SOLID
  5
2A90
  8
DIMENSIONS
 62
     0
 10
745.2697686861962
 20
443.6172086698066
 30
0.0
 11
743.6031020195295
 21
443.6172086698066
 31
0.0
 12
744.4364353528629
 22
448.6172086698066
 32
0.0
 13
744.4364353528629
 23
448.6172086698066
 33
0.0
  0
SOLID
  5
2A91
  8
DIMENSIONS
 62
     0
 10
743.6031020195295
 20
433.6172086698066
 30
0.0
 11
745.2697686861962
 21
433.6172086698066
 31
0.0
 12
744.4364353528629
 22
428.6172086698066
 32
0.0
 13
744.4364353528629
 23
428.6172086698066
 33
0.0
  0
TEXT
  5
2A92
  8
DIMENSIONS
  6
CONTINUOUS
 62
     5
 10
742.0414353528628
 20
454.4122086698065
 30
0.0
 40
5.0
  1
20 [0.79]
 50
90.0
  0
POINT
  5
2A93
  8
DEFPOINTS
 62
     0
 10
661.5309386341544
 20
448.6172086698066
 30
0.0
  0
POINT
  5
2A94
  8
DEFPOINTS
 62
     0
 10
681.5309386341544
 20
428.6172086698066
 30
0.0
  0
POINT
  5
2A96
  8
DEFPOINTS
 62
     0
 10
744.4364353528629
 20
428.6172086698066
 30
0.0
  0
ENDBLK
  5
2A8B
  8
0
  0
BLOCK
  8
0
  2
*D470
 70
     1
 10
0.0
 20
0.0
 30
0.0
  3
*D470
  1

  0
LINE
  5
2A9E
  8
DIMENSIONS
  6
BYBLOCK
 62
     0
 10
598.0309489906211
 20
438.6304774235423
 30
0.0
 11
557.6259982203899
 21
438.6935508346819
 31
0.0
  0
TEXT
  5
2A9F
  8
DIMENSIONS
  6
CONTINUOUS
 62
     5
 10
558.349860892018
 20
441.1674238776296
 30
0.0
 40
5.0
  1
Ø7 [Ø0.28]
 50
359.9105595415047
  0
SOLID
  5
2AA0
  8
DIMENSIONS
 62
     0
 10
598.0296481324118
 20
437.7971451055489
 30
0.0
 11
598.0322498488305
 21
439.4638097415357
 31
0.0
 12
603.0309428985819
 22
438.6226722742861
 32
0.0
 13
603.0309428985819
 23
438.6226722742861
 33
0.0
  0
LINE
  5
2AA1
  8
DIMENSIONS
  6
BYBLOCK
 62
     0
 10
604.0309386341545
 20
438.6172086698067
 30
0.0
 11
609.0309386341545
 21
438.6172086698067
 31
0.0
  0
LINE
  5
2AA2
  8
DIMENSIONS
  6
BYBLOCK
 62
     0
 10
606.5309386341545
 20
436.1172086698067
 30
0.0
 11
606.5309386341545
 21
441.1172086698067
 31
0.0
  0
POINT
  5
2AA3
  8
DEFPOINTS
 62
     0
 10
603.0309428985819
 20
438.6226722742861
 30
0.0
  0
POINT
  5
2AA4
  8
DEFPOINTS
 62
     0
 10
610.0309343697271
 20
438.6117450653273
 30
0.0
  0
ENDBLK
  5
2A9D
  8
0
  0
BLOCK
  8
0
  2
*X472
 70
     1
 10
0.0
 20
0.0
 30
0.0
  3
*X472
  1

  0
LINE
  5
2B13
  8
CUTOUT
 10
17.5
 20
994.1912415139188
 30
0.0
 11
60.80875848608108
 21
1037.5
 31
0.0
  0
LINE
  5
2B14
  8
CUTOUT
 10
17.5
 20
919.0611460128482
 30
0.0
 11
135.9388539871518
 21
1037.5
 31
0.0
  0
LINE
  5
2B15
  8
CUTOUT
 10
17.49999999999997
 20
843.9310505117776
 30
0.0
 11
211.0689494882224
 21
1037.5
 31
0.0
  0
LINE
  5
2B16
  8
CUTOUT
 10
17.5
 20
768.8009550107068
 30
0.0
 11
286.1990449892932
 21
1037.5
 31
0.0
  0
LINE
  5
2B17
  8
CUTOUT
 10
17.49999999999997
 20
693.6708595096361
 30
0.0
 11
361.3291404903637
 21
1037.5
 31
0.0
  0
LINE
  5
2B18
  8
CUTOUT
 10
17.5
 20
618.5407640085655
 30
0.0
 11
436.4592359914344
 21
1037.5
 31
0.0
  0
LINE
  5
2B19
  8
CUTOUT
 10
17.5
 20
543.4106685074948
 30
0.0
 11
478.9999999999997
 21
1004.910668507495
 31
0.0
  0
LINE
  5
2B1A
  8
CUTOUT
 10
17.49999999999997
 20
468.2805730064241
 30
0.0
 11
478.9999999999997
 21
929.7805730064239
 31
0.0
  0
LINE
  5
2B1B
  8
CUTOUT
 10
17.5
 20
393.1504775053535
 30
0.0
 11
58.09952249464635
 21
433.7499999999998
 31
0.0
  0
LINE
  5
2B1C
  8
CUTOUT
 10
17.50000000000003
 20
318.0203820042827
 30
0.0
 11
133.229617995717
 21
433.7499999999998
 31
0.0
  0
LINE
  5
2B1D
  8
CUTOUT
 10
17.5
 20
242.8902865032121
 30
0.0
 11
208.3597134967877
 21
433.7499999999998
 31
0.0
  0
LINE
  5
2B1E
  8
CUTOUT
 10
17.49999999999994
 20
167.7601910021414
 30
0.0
 11
283.4898089978584
 21
433.7499999999999
 31
0.0
  0
LINE
  5
2B1F
  8
CUTOUT
 10
17.5
 20
92.63009550107074
 30
0.0
 11
358.619904498929
 21
433.7499999999999
 31
0.0
  0
LINE
  5
2B20
  8
CUTOUT
 10
17.5
 20
17.50000000000006
 30
0.0
 11
433.7499999999997
 21
433.7499999999999
 31
0.0
  0
LINE
  5
2B21
  8
CUTOUT
 10
80.59952249464621
 20
456.2499999999997
 30
0.0
 11
478.9999999999997
 21
854.6504775053533
 31
0.0
  0
LINE
  5
2B22
  8
CUTOUT
 10
155.7296179957169
 20
456.2499999999997
 30
0.0
 11
478.9999999999997
 21
779.5203820042825
 31
0.0
  0
LINE
  5
2B23
  8
CUTOUT
 10
230.8597134967875
 20
456.2499999999997
 30
0.0
 11
478.9999999999997
 21
704.3902865032119
 31
0.0
  0
LINE
  5
2B24
  8
CUTOUT
 10
305.9898089978582
 20
456.2499999999997
 30
0.0
 11
478.9999999999997
 21
629.2601910021413
 31
0.0
  0
LINE
  5
2B25
  8
CUTOUT
 10
381.1199044989289
 20
456.2499999999997
 30
0.0
 11
478.9999999999997
 21
554.1300955010705
 31
0.0
  0
LINE
  5
2B26
  8
CUTOUT
 10
456.2499999999995
 20
456.2499999999997
 30
0.0
 11
478.9999999999997
 21
478.9999999999999
 31
0.0
  0
LINE
  5
2B27
  8
CUTOUT
 10
17.5
 20
17.50000000000006
 30
0.0
 11
433.7499999999997
 21
433.7499999999999
 31
0.0
  0
LINE
  5
2B28
  8
CUTOUT
 10
456.2499999999995
 20
456.2499999999997
 30
0.0
 11
478.9999999999997
 21
478.9999999999999
 31
0.0
  0
LINE
  5
2B29
  8
CUTOUT
 10
92.6300955010706
 20
17.5
 30
0.0
 11
478.9999999999998
 21
403.8699044989293
 31
0.0
  0
LINE
  5
2B2A
  8
CUTOUT
 10
167.7601910021413
 20
17.5
 30
0.0
 11
478.9999999999998
 21
328.7398089978586
 31
0.0
  0
LINE
  5
2B2B
  8
CUTOUT
 10
242.8902865032119
 20
17.5
 30
0.0
 11
478.9999999999999
 21
253.6097134967879
 31
0.0
  0
LINE
  5
2B2C
  8
CUTOUT
 10
318.0203820042826
 20
17.5
 30
0.0
 11
478.9999999999999
 21
178.4796179957173
 31
0.0
  0
LINE
  5
2B2D
  8
CUTOUT
 10
393.1504775053533
 20
17.5
 30
0.0
 11
478.9999999999999
 21
103.3495224946467
 31
0.0
  0
LINE
  5
2B2E
  8
CUTOUT
 10
468.280573006424
 20
17.5
 30
0.0
 11
479.0
 21
28.21942699357606
 31
0.0
  0
ENDBLK
  5
2B2F
  8
0
  0
BLOCK
  8
0
  2
*D473
 70
     1
 10
0.0
 20
0.0
 30
0.0
  3
*D473
  1

  0
LINE
  5
2B63
  8
DIMENSIONS
  6
BYBLOCK
 62
     0
 10
594.5761442800847
 20
1474.636627205303
 30
0.0
 11
594.5761442800847
 21
1496.419242679056
 31
0.0
  0
LINE
  5
2B64
  8
DIMENSIONS
  6
BYBLOCK
 62
     0
 10
238.0761442800846
 20
1474.636627205303
 30
0.0
 11
238.0761442800846
 21
1496.419242679056
 31
0.0
  0
LINE
  5
2B65
  8
DIMENSIONS
  6
BYBLOCK
 62
     0
 10
589.5761442800847
 20
1496.239242679056
 30
0.0
 11
243.0761442800846
 21
1496.239242679056
 31
0.0
  0
SOLID
  5
2B66
  8
DIMENSIONS
 62
     0
 10
589.5761442800847
 20
1495.405909345722
 30
0.0
 11
589.5761442800847
 21
1497.072576012389
 31
0.0
 12
594.5761442800847
 22
1496.239242679056
 32
0.0
 13
594.5761442800847
 23
1496.239242679056
 33
0.0
  0
SOLID
  5
2B67
  8
DIMENSIONS
 62
     0
 10
243.0761442800846
 20
1497.072576012389
 30
0.0
 11
243.0761442800846
 21
1495.405909345722
 31
0.0
 12
238.0761442800846
 22
1496.239242679056
 32
0.0
 13
238.0761442800846
 23
1496.239242679056
 33
0.0
  0
TEXT
  5
2B68
  8
DIMENSIONS
  6
CONTINUOUS
 62
     5
 10
396.0361442800847
 20
1498.634242679056
 30
0.0
 40
5.0
  1
356.5 [14.04]
  0
POINT
  5
2B69
  8
DEFPOINTS
 62
     0
 10
594.5761442800847
 20
1473.136627205303
 30
0.0
  0
POINT
  5
2B6A
  8
DEFPOINTS
 62
     0
 10
238.0761442800846
 20
1473.136627205303
 30
0.0
  0
POINT
  5
2B6B
  8
DEFPOINTS
 62
     0
 10
238.0761442800846
 20
1496.239242679056
 30
0.0
  0
ENDBLK
  5
2B62
  8
0
  0
BLOCK
  8
0
  2
*D474
 70
     1
 10
0.0
 20
0.0
 30
0.0
  3
*D474
  1

  0
LINE
  5
2B72
  8
DIMENSIONS
  6
BYBLOCK
 62
     0
 10
185.5761442800847
 20
1463.136627205303
 30
0.0
 11
185.5761442800847
 21
1513.256578370277
 31
0.0
  0
LINE
  5
2B73
  8
DIMENSIONS
  6
BYBLOCK
 62
     0
 10
647.0761442800845
 20
1463.136627205303
 30
0.0
 11
647.0761442800845
 21
1513.256578370277
 31
0.0
  0
LINE
  5
2B74
  8
DIMENSIONS
  6
BYBLOCK
 62
     0
 10
190.5761442800847
 20
1513.076578370277
 30
0.0
 11
642.0761442800845
 21
1513.076578370277
 31
0.0
  0
SOLID
  5
2B75
  8
DIMENSIONS
 62
     0
 10
190.5761442800847
 20
1513.90991170361
 30
0.0
 11
190.5761442800847
 21
1512.243245036944
 31
0.0
 12
185.5761442800847
 22
1513.076578370277
 32
0.0
 13
185.5761442800847
 23
1513.076578370277
 33
0.0
  0
SOLID
  5
2B76
  8
DIMENSIONS
 62
     0
 10
642.0761442800845
 20
1512.243245036944
 30
0.0
 11
642.0761442800845
 21
1513.90991170361
 31
0.0
 12
647.0761442800845
 22
1513.076578370277
 32
0.0
 13
647.0761442800845
 23
1513.076578370277
 33
0.0
  0
TEXT
  5
2B77
  8
DIMENSIONS
  6
CONTINUOUS
 62
     5
 10
396.1386442800846
 20
1515.471578370277
 30
0.0
 40
5.0
  1
461.5 [18.17]
  0
POINT
  5
2B78
  8
DEFPOINTS
 62
     0
 10
185.5761442800847
 20
1461.636627205303
 30
0.0
  0
POINT
  5
2B79
  8
DEFPOINTS
 62
     0
 10
647.0761442800845
 20
1461.636627205303
 30
0.0
  0
POINT
  5
2B7A
  8
DEFPOINTS
 62
     0
 10
647.0761442800845
 20
1513.076578370277
 30
0.0
  0
ENDBLK
  5
2B71
  8
0
  0
BLOCK
  8
0
  2
*D475
 70
     1
 10
0.0
 20
0.0
 30
0.0
  3
*D475
  1

  0
LINE
  5
2B81
  8
DIMENSIONS
  6
BYBLOCK
 62
     0
 10
664.5761442800847
 20
1480.636627205303
 30
0.0
 11
664.5761442800847
 21
1529.677394125494
 31
0.0
  0
LINE
  5
2B82
  8
DIMENSIONS
  6
BYBLOCK
 62
     0
 10
168.0761442800846
 20
1480.636627205303
 30
0.0
 11
168.0761442800846
 21
1529.677394125494
 31
0.0
  0
LINE
  5
2B83
  8
DIMENSIONS
  6
BYBLOCK
 62
     0
 10
659.5761442800847
 20
1529.497394125494
 30
0.0
 11
173.0761442800846
 21
1529.497394125494
 31
0.0
  0
SOLID
  5
2B84
  8
DIMENSIONS
 62
     0
 10
659.5761442800847
 20
1528.664060792161
 30
0.0
 11
659.5761442800847
 21
1530.330727458827
 31
0.0
 12
664.5761442800847
 22
1529.497394125494
 32
0.0
 13
664.5761442800847
 23
1529.497394125494
 33
0.0
  0
SOLID
  5
2B85
  8
DIMENSIONS
 62
     0
 10
173.0761442800846
 20
1530.330727458827
 30
0.0
 11
173.0761442800846
 21
1528.664060792161
 31
0.0
 12
168.0761442800846
 22
1529.497394125494
 32
0.0
 13
168.0761442800846
 23
1529.497394125494
 33
0.0
  0
TEXT
  5
2B86
  8
DIMENSIONS
  6
CONTINUOUS
 62
     5
 10
396.1386442800847
 20
1531.892394125494
 30
0.0
 40
5.0
  1
496.5 [19.55]
  0
POINT
  5
2B87
  8
DEFPOINTS
 62
     0
 10
664.5761442800847
 20
1479.136627205303
 30
0.0
  0
POINT
  5
2B88
  8
DEFPOINTS
 62
     0
 10
168.0761442800846
 20
1479.136627205303
 30
0.0
  0
POINT
  5
2B89
  8
DEFPOINTS
 62
     0
 10
168.0761442800846
 20
1529.497394125494
 30
0.0
  0
ENDBLK
  5
2B80
  8
0
  0
BLOCK
  8
0
  2
*D476
 70
     1
 10
0.0
 20
0.0
 30
0.0
  3
*D476
  1

  0
LINE
  5
2B90
  8
DIMENSIONS
  6
BYBLOCK
 62
     0
 10
172.5761442800846
 20
860.1366272053035
 30
0.0
 11
149.2619444901579
 21
860.1366272053035
 31
0.0
  0
LINE
  5
2B91
  8
DIMENSIONS
  6
BYBLOCK
 62
     0
 10
172.5761442800846
 20
1043.136627205304
 30
0.0
 11
149.2619444901579
 21
1043.136627205304
 31
0.0
  0
LINE
  5
2B92
  8
DIMENSIONS
  6
BYBLOCK
 62
     0
 10
149.4419444901579
 20
865.1366272053035
 30
0.0
 11
149.4419444901579
 21
1038.136627205304
 31
0.0
  0
SOLID
  5
2B93
  8
DIMENSIONS
 62
     0
 10
148.6086111568245
 20
865.1366272053035
 30
0.0
 11
150.2752778234912
 21
865.1366272053035
 31
0.0
 12
149.4419444901579
 22
860.1366272053035
 32
0.0
 13
149.4419444901579
 23
860.1366272053035
 33
0.0
  0
SOLID
  5
2B94
  8
DIMENSIONS
 62
     0
 10
150.2752778234912
 20
1038.136627205304
 30
0.0
 11
148.6086111568245
 21
1038.136627205304
 31
0.0
 12
149.4419444901579
 22
1043.136627205304
 32
0.0
 13
149.4419444901579
 23
1043.136627205304
 33
0.0
  0
TEXT
  5
2B95
  8
DIMENSIONS
  6
CONTINUOUS
 62
     5
 10
147.0469444901579
 20
935.9641272053035
 30
0.0
 40
5.0
  1
183 [7.20]
 50
90.0
  0
POINT
  5
2B96
  8
DEFPOINTS
 62
     0
 10
174.0761442800846
 20
860.1366272053035
 30
0.0
  0
POINT
  5
2B97
  8
DEFPOINTS
 62
     0
 10
174.0761442800846
 20
1043.136627205304
 30
0.0
  0
POINT
  5
2B98
  8
DEFPOINTS
 62
     0
 10
149.4419444901579
 20
1043.136627205304
 30
0.0
  0
ENDBLK
  5
2B8F
  8
0
  0
BLOCK
  8
0
  2
*D477
 70
     1
 10
0.0
 20
0.0
 30
0.0
  3
*D477
  1

  0
LINE
  5
2B9F
  8
DIMENSIONS
  6
BYBLOCK
 62
     0
 10
172.5761442800846
 20
677.1366272053035
 30
0.0
 11
131.3258820377747
 21
677.1366272053035
 31
0.0
  0
LINE
  5
2BA0
  8
DIMENSIONS
  6
BYBLOCK
 62
     0
 10
172.5761442800846
 20
1226.136627205304
 30
0.0
 11
131.3258820377747
 21
1226.136627205304
 31
0.0
  0
LINE
  5
2BA1
  8
DIMENSIONS
  6
BYBLOCK
 62
     0
 10
131.5058820377747
 20
682.1366272053035
 30
0.0
 11
131.5058820377747
 21
1221.136627205304
 31
0.0
  0
SOLID
  5
2BA2
  8
DIMENSIONS
 62
     0
 10
130.6725487044413
 20
682.1366272053035
 30
0.0
 11
132.339215371108
 21
682.1366272053035
 31
0.0
 12
131.5058820377747
 22
677.1366272053035
 32
0.0
 13
131.5058820377747
 23
677.1366272053035
 33
0.0
  0
SOLID
  5
2BA3
  8
DIMENSIONS
 62
     0
 10
132.3392153711081
 20
1221.136627205304
 30
0.0
 11
130.6725487044414
 21
1221.136627205304
 31
0.0
 12
131.5058820377747
 22
1226.136627205304
 32
0.0
 13
131.5058820377747
 23
1226.136627205304
 33
0.0
  0
TEXT
  5
2BA4
  8
DIMENSIONS
  6
CONTINUOUS
 62
     5
 10
129.1108820377748
 20
934.2591272053035
 30
0.0
 40
5.0
  1
549 [21.61]
 50
90.0
  0
POINT
  5
2BA5
  8
DEFPOINTS
 62
     0
 10
174.0761442800846
 20
677.1366272053035
 30
0.0
  0
POINT
  5
2BA6
  8
DEFPOINTS
 62
     0
 10
174.0761442800846
 20
1226.136627205304
 30
0.0
  0
POINT
  5
2BA7
  8
DEFPOINTS
 62
     0
 10
131.5058820377747
 20
1226.136627205304
 30
0.0
  0
ENDBLK
  5
2B9E
  8
0
  0
BLOCK
  8
0
  2
*D478
 70
     1
 10
0.0
 20
0.0
 30
0.0
  3
*D478
  1

  0
LINE
  5
2BAE
  8
DIMENSIONS
  6
BYBLOCK
 62
     0
 10
172.5761442800846
 20
494.1366272053035
 30
0.0
 11
113.0389068460145
 21
494.1366272053035
 31
0.0
  0
LINE
  5
2BAF
  8
DIMENSIONS
  6
BYBLOCK
 62
     0
 10
172.5761442800846
 20
1409.136627205304
 30
0.0
 11
113.0389068460145
 21
1409.136627205304
 31
0.0
  0
LINE
  5
2BB0
  8
DIMENSIONS
  6
BYBLOCK
 62
     0
 10
113.2189068460145
 20
499.1366272053035
 30
0.0
 11
113.2189068460145
 21
1404.136627205304
 31
0.0
  0
SOLID
  5
2BB1
  8
DIMENSIONS
 62
     0
 10
112.3855735126811
 20
499.1366272053035
 30
0.0
 11
114.0522401793478
 21
499.1366272053035
 31
0.0
 12
113.2189068460145
 22
494.1366272053035
 32
0.0
 13
113.2189068460145
 23
494.1366272053035
 33
0.0
  0
SOLID
  5
2BB2
  8
DIMENSIONS
 62
     0
 10
114.0522401793479
 20
1404.136627205304
 30
0.0
 11
112.3855735126812
 21
1404.136627205304
 31
0.0
 12
113.2189068460145
 22
1409.136627205304
 32
0.0
 13
113.2189068460145
 23
1409.136627205304
 33
0.0
  0
TEXT
  5
2BB3
  8
DIMENSIONS
  6
CONTINUOUS
 62
     5
 10
110.8239068460144
 20
934.2591272053036
 30
0.0
 40
5.0
  1
915 [36.02]
 50
90.0
  0
POINT
  5
2BB4
  8
DEFPOINTS
 62
     0
 10
174.0761442800846
 20
494.1366272053035
 30
0.0
  0
POINT
  5
2BB5
  8
DEFPOINTS
 62
     0
 10
174.0761442800846
 20
1409.136627205304
 30
0.0
  0
POINT
  5
2BB6
  8
DEFPOINTS
 62
     0
 10
113.2189068460145
 20
1409.136627205304
 30
0.0
  0
ENDBLK
  5
2BAD
  8
0
  0
BLOCK
  8
0
  2
*D479
 70
     1
 10
0.0
 20
0.0
 30
0.0
  3
*D479
  1

  0
LINE
  5
2BBD
  8
DIMENSIONS
  6
BYBLOCK
 62
     0
 10
236.5761442800846
 20
430.1366272053035
 30
0.0
 11
94.44428427204511
 21
430.1366272053035
 31
0.0
  0
LINE
  5
2BBE
  8
DIMENSIONS
  6
BYBLOCK
 62
     0
 10
236.5761442800846
 20
1473.136627205303
 30
0.0
 11
94.44428427204517
 21
1473.136627205303
 31
0.0
  0
LINE
  5
2BBF
  8
DIMENSIONS
  6
BYBLOCK
 62
     0
 10
94.62428427204512
 20
435.1366272053035
 30
0.0
 11
94.62428427204517
 21
1468.136627205303
 31
0.0
  0
SOLID
  5
2BC0
  8
DIMENSIONS
 62
     0
 10
93.79095093871179
 20
435.1366272053035
 30
0.0
 11
95.45761760537845
 21
435.1366272053035
 31
0.0
 12
94.62428427204512
 22
430.1366272053035
 32
0.0
 13
94.62428427204512
 23
430.1366272053035
 33
0.0
  0
SOLID
  5
2BC1
  8
DIMENSIONS
 62
     0
 10
95.4576176053785
 20
1468.136627205303
 30
0.0
 11
93.79095093871184
 21
1468.136627205303
 31
0.0
 12
94.62428427204517
 22
1473.136627205303
 32
0.0
 13
94.62428427204517
 23
1473.136627205303
 33
0.0
  0
TEXT
  5
2BC2
  8
DIMENSIONS
  6
CONTINUOUS
 62
     5
 10
92.2292842720451
 20
932.0841272053034
 30
0.0
 40
5.0
  1
1043 [41.06]
 50
90.0
  0
POINT
  5
2BC3
  8
DEFPOINTS
 62
     0
 10
238.0761442800846
 20
430.1366272053035
 30
0.0
  0
POINT
  5
2BC4
  8
DEFPOINTS
 62
     0
 10
238.0761442800846
 20
1473.136627205303
 30
0.0
  0
POINT
  5
2BC5
  8
DEFPOINTS
 62
     0
 10
94.62428427204517
 20
1473.136627205303
 30
0.0
  0
ENDBLK
  5
2BBC
  8
0
  0
BLOCK
  8
0
  2
*D480
 70
     1
 10
0.0
 20
0.0
 30
0.0
  3
*D480
  1

  0
LINE
  5
2BCC
  8
DIMENSIONS
  6
BYBLOCK
 62
     0
 10
666.0761442800847
 20
1479.136627205303
 30
0.0
 11
703.6543197954255
 21
1479.136627205303
 31
0.0
  0
LINE
  5
2BCD
  8
DIMENSIONS
  6
BYBLOCK
 62
     0
 10
648.5761442800845
 20
1461.636627205303
 30
0.0
 11
703.6543197954255
 21
1461.636627205303
 31
0.0
  0
LINE
  5
2BCE
  8
DIMENSIONS
  6
BYBLOCK
 62
     0
 10
703.4743197954256
 20
1461.636627205303
 30
0.0
 11
703.4743197954256
 21
1422.871627205303
 31
0.0
  0
LINE
  5
2BCF
  8
DIMENSIONS
  6
BYBLOCK
 62
     0
 10
703.4743197954256
 20
1474.136627205303
 30
0.0
 11
703.4743197954256
 21
1466.636627205303
 31
0.0
  0
SOLID
  5
2BD0
  8
DIMENSIONS
 62
     0
 10
704.307653128759
 20
1474.136627205303
 30
0.0
 11
702.6409864620922
 21
1474.136627205303
 31
0.0
 12
703.4743197954256
 22
1479.136627205303
 32
0.0
 13
703.4743197954256
 23
1479.136627205303
 33
0.0
  0
SOLID
  5
2BD1
  8
DIMENSIONS
 62
     0
 10
702.6409864620922
 20
1466.636627205303
 30
0.0
 11
704.307653128759
 21
1466.636627205303
 31
0.0
 12
703.4743197954256
 22
1461.636627205303
 32
0.0
 13
703.4743197954256
 23
1461.636627205303
 33
0.0
  0
TEXT
  5
2BD2
  8
DIMENSIONS
  6
CONTINUOUS
 62
     5
 10
701.0793197954254
 20
1423.111627205303
 30
0.0
 40
5.0
  1
17.5 [0.69]
 50
90.0
  0
POINT
  5
2BD3
  8
DEFPOINTS
 62
     0
 10
664.5761442800847
 20
1479.136627205303
 30
0.0
  0
POINT
  5
2BD4
  8
DEFPOINTS
 62
     0
 10
647.0761442800845
 20
1461.636627205303
 30
0.0
  0
POINT
  5
2C11
  8
DEFPOINTS
 62
     0
 10
703.4743197954256
 20
1461.636627205303
 30
0.0
  0
ENDBLK
  5
2BCB
  8
0
  0
BLOCK
  8
0
  2
*D481
 70
     1
 10
0.0
 20
0.0
 30
0.0
  3
*D481
  1

  0
LINE
  5
2BDB
  8
DIMENSIONS
  6
BYBLOCK
 62
     0
 10
648.5761442800845
 20
1461.636627205303
 30
0.0
 11
685.1622340847749
 21
1461.636627205303
 31
0.0
  0
LINE
  5
2BDC
  8
DIMENSIONS
  6
BYBLOCK
 62
     0
 10
648.5761442800845
 20
880.3866272053028
 30
0.0
 11
685.1622340847749
 21
880.3866272053028
 31
0.0
  0
LINE
  5
2BDD
  8
DIMENSIONS
  6
BYBLOCK
 62
     0
 10
684.982234084775
 20
1456.636627205303
 30
0.0
 11
684.982234084775
 21
885.3866272053028
 31
0.0
  0
SOLID
  5
2BDE
  8
DIMENSIONS
 62
     0
 10
685.8155674181083
 20
1456.636627205303
 30
0.0
 11
684.1489007514416
 21
1456.636627205303
 31
0.0
 12
684.982234084775
 22
1461.636627205303
 32
0.0
 13
684.982234084775
 23
1461.636627205303
 33
0.0
  0
SOLID
  5
2BDF
  8
DIMENSIONS
 62
     0
 10
684.1489007514416
 20
885.3866272053028
 30
0.0
 11
685.8155674181083
 21
885.3866272053028
 31
0.0
 12
684.982234084775
 22
880.3866272053028
 32
0.0
 13
684.982234084775
 23
880.3866272053028
 33
0.0
  0
TEXT
  5
2BE0
  8
DIMENSIONS
  6
CONTINUOUS
 62
     5
 10
682.5872340847748
 20
1148.784127205303
 30
0.0
 40
5.0
  1
581.25 [22.88]
 50
90.0
  0
POINT
  5
2BE1
  8
DEFPOINTS
 62
     0
 10
647.0761442800845
 20
1461.636627205303
 30
0.0
  0
POINT
  5
2BE2
  8
DEFPOINTS
 62
     0
 10
647.0761442800845
 20
880.3866272053028
 30
0.0
  0
POINT
  5
2BE3
  8
DEFPOINTS
 62
     0
 10
684.982234084775
 20
880.3866272053028
 30
0.0
  0
ENDBLK
  5
2BDA
  8
0
  0
BLOCK
  8
0
  2
*D482
 70
     1
 10
0.0
 20
0.0
 30
0.0
  3
*D482
  1

  0
LINE
  5
2BEA
  8
DIMENSIONS
  6
BYBLOCK
 62
     0
 10
648.5761442800845
 20
880.3866272053028
 30
0.0
 11
705.8674665336922
 21
880.3866272053028
 31
0.0
  0
LINE
  5
2BEB
  8
DIMENSIONS
  6
BYBLOCK
 62
     0
 10
648.5761442800847
 20
857.8866272053031
 30
0.0
 11
705.8674665336922
 21
857.8866272053031
 31
0.0
  0
LINE
  5
2BEC
  8
DIMENSIONS
  6
BYBLOCK
 62
     0
 10
705.6874665336923
 20
857.8866272053031
 30
0.0
 11
705.6874665336923
 21
818.5666272053031
 31
0.0
  0
LINE
  5
2BED
  8
DIMENSIONS
  6
BYBLOCK
 62
     0
 10
705.6874665336923
 20
875.3866272053028
 30
0.0
 11
705.6874665336923
 21
862.8866272053031
 31
0.0
  0
SOLID
  5
2BEE
  8
DIMENSIONS
 62
     0
 10
706.5207998670256
 20
875.3866272053028
 30
0.0
 11
704.8541332003589
 21
875.3866272053028
 31
0.0
 12
705.6874665336923
 22
880.3866272053028
 32
0.0
 13
705.6874665336923
 23
880.3866272053028
 33
0.0
  0
SOLID
  5
2BEF
  8
DIMENSIONS
 62
     0
 10
704.8541332003589
 20
862.8866272053031
 30
0.0
 11
706.5207998670256
 21
862.8866272053031
 31
0.0
 12
705.6874665336923
 22
857.8866272053031
 32
0.0
 13
705.6874665336923
 23
857.8866272053031
 33
0.0
  0
TEXT
  5
2BF0
  8
DIMENSIONS
  6
CONTINUOUS
 62
     5
 10
703.2924665336923
 20
819.3616272053031
 30
0.0
 40
5.0
  1
22.5 [0.89]
 50
90.0
  0
POINT
  5
2BF1
  8
DEFPOINTS
 62
     0
 10
647.0761442800845
 20
880.3866272053028
 30
0.0
  0
POINT
  5
2BF2
  8
DEFPOINTS
 62
     0
 10
647.0761442800847
 20
857.8866272053031
 30
0.0
  0
POINT
  5
2C12
  8
DEFPOINTS
 62
     0
 10
705.6874665336923
 20
857.8866272053031
 30
0.0
  0
ENDBLK
  5
2BE9
  8
0
  0
BLOCK
  8
0
  2
*D483
 70
     1
 10
0.0
 20
0.0
 30
0.0
  3
*D483
  1

  0
LINE
  5
2BF9
  8
DIMENSIONS
  6
BYBLOCK
 62
     0
 10
648.5761442800847
 20
857.8866272053031
 30
0.0
 11
685.1622340847749
 21
857.8866272053031
 31
0.0
  0
LINE
  5
2BFA
  8
DIMENSIONS
  6
BYBLOCK
 62
     0
 10
648.5761442800847
 20
441.6366272053032
 30
0.0
 11
685.1622340847749
 21
441.6366272053032
 31
0.0
  0
LINE
  5
2BFB
  8
DIMENSIONS
  6
BYBLOCK
 62
     0
 10
684.982234084775
 20
852.8866272053031
 30
0.0
 11
684.982234084775
 21
446.6366272053032
 31
0.0
  0
SOLID
  5
2BFC
  8
DIMENSIONS
 62
     0
 10
685.8155674181083
 20
852.8866272053031
 30
0.0
 11
684.1489007514416
 21
852.8866272053031
 31
0.0
 12
684.982234084775
 22
857.8866272053031
 32
0.0
 13
684.982234084775
 23
857.8866272053031
 33
0.0
  0
SOLID
  5
2BFD
  8
DIMENSIONS
 62
     0
 10
684.1489007514416
 20
446.6366272053032
 30
0.0
 11
685.8155674181083
 21
446.6366272053032
 31
0.0
 12
684.982234084775
 22
441.6366272053032
 32
0.0
 13
684.982234084775
 23
441.6366272053032
 33
0.0
  0
TEXT
  5
2BFE
  8
DIMENSIONS
  6
CONTINUOUS
 62
     5
 10
682.587234084775
 20
627.6341272053031
 30
0.0
 40
5.0
  1
416.25 [16.39]
 50
90.0
  0
POINT
  5
2BFF
  8
DEFPOINTS
 62
     0
 10
647.0761442800847
 20
857.8866272053031
 30
0.0
  0
POINT
  5
2C00
  8
DEFPOINTS
 62
     0
 10
647.0761442800847
 20
441.6366272053032
 30
0.0
  0
POINT
  5
2C01
  8
DEFPOINTS
 62
     0
 10
684.982234084775
 20
441.6366272053032
 30
0.0
  0
ENDBLK
  5
2BF8
  8
0
  0
BLOCK
  8
0
  2
*D484
 70
     1
 10
0.0
 20
0.0
 30
0.0
  3
*D484
  1

  0
LINE
  5
2C08
  8
DIMENSIONS
  6
BYBLOCK
 62
     0
 10
648.5761442800847
 20
441.6366272053032
 30
0.0
 11
706.4708737185076
 21
441.6366272053032
 31
0.0
  0
LINE
  5
2C09
  8
DIMENSIONS
  6
BYBLOCK
 62
     0
 10
666.0761442800847
 20
424.1366272053035
 30
0.0
 11
706.4708737185076
 21
424.1366272053035
 31
0.0
  0
LINE
  5
2C0A
  8
DIMENSIONS
  6
BYBLOCK
 62
     0
 10
706.2908737185077
 20
441.6366272053032
 30
0.0
 11
706.2908737185077
 21
480.4016272053033
 31
0.0
  0
LINE
  5
2C0B
  8
DIMENSIONS
  6
BYBLOCK
 62
     0
 10
706.2908737185077
 20
436.6366272053032
 30
0.0
 11
706.2908737185077
 21
429.1366272053035
 31
0.0
  0
SOLID
  5
2C0C
  8
DIMENSIONS
 62
     0
 10
707.124207051841
 20
436.6366272053032
 30
0.0
 11
705.4575403851743
 21
436.6366272053032
 31
0.0
 12
706.2908737185077
 22
441.6366272053032
 32
0.0
 13
706.2908737185077
 23
441.6366272053032
 33
0.0
  0
SOLID
  5
2C0D
  8
DIMENSIONS
 62
     0
 10
705.4575403851743
 20
429.1366272053035
 30
0.0
 11
707.124207051841
 21
429.1366272053035
 31
0.0
 12
706.2908737185077
 22
424.1366272053035
 32
0.0
 13
706.2908737185077
 23
424.1366272053035
 33
0.0
  0
TEXT
  5
2C0E
  8
DIMENSIONS
  6
CONTINUOUS
 62
     5
 10
703.8958737185076
 20
446.8766272053032
 30
0.0
 40
5.0
  1
17.5 [0.69]
 50
90.0
  0
POINT
  5
2C0F
  8
DEFPOINTS
 62
     0
 10
647.0761442800847
 20
441.6366272053032
 30
0.0
  0
POINT
  5
2C10
  8
DEFPOINTS
 62
     0
 10
664.5761442800847
 20
424.1366272053035
 30
0.0
  0
POINT
  5
2C13
  8
DEFPOINTS
 62
     0
 10
706.2908737185077
 20
424.1366272053035
 30
0.0
  0
ENDBLK
  5
2C07
  8
0
  0
BLOCK
  8
0
  2
*D486
 70
     1
 10
0.0
 20
0.0
 30
0.0
  3
*D486
  1

  0
LINE
  5
2CA4
  8
DIMENSIONS
  6
BYBLOCK
 62
     0
 10
182.3824138406251
 20
1009.792418583976
 30
0.0
 11
182.3824138406251
 21
1035.347525742962
 31
0.0
  0
LINE
  5
2CA5
  8
DIMENSIONS
  6
BYBLOCK
 62
     0
 10
476.382413840625
 20
1009.792418583976
 30
0.0
 11
476.382413840625
 21
1035.347525742962
 31
0.0
  0
LINE
  5
2CA6
  8
DIMENSIONS
  6
BYBLOCK
 62
     0
 10
187.3824138406251
 20
1035.167525742962
 30
0.0
 11
471.382413840625
 21
1035.167525742962
 31
0.0
  0
SOLID
  5
2CA7
  8
DIMENSIONS
 62
     0
 10
187.3824138406251
 20
1036.000859076295
 30
0.0
 11
187.3824138406251
 21
1034.334192409629
 31
0.0
 12
182.3824138406251
 22
1035.167525742962
 32
0.0
 13
182.3824138406251
 23
1035.167525742962
 33
0.0
  0
SOLID
  5
2CA8
  8
DIMENSIONS
 62
     0
 10
471.382413840625
 20
1034.334192409629
 30
0.0
 11
471.382413840625
 21
1036.000859076295
 31
0.0
 12
476.382413840625
 22
1035.167525742962
 32
0.0
 13
476.382413840625
 23
1035.167525742962
 33
0.0
  0
TEXT
  5
2CA9
  8
DIMENSIONS
  6
CONTINUOUS
 62
     5
 10
312.0474138406251
 20
1037.562525742962
 30
0.0
 40
5.0
  1
294 [11.57]
  0
POINT
  5
2CAA
  8
DEFPOINTS
 62
     0
 10
182.3824138406251
 20
1008.292418583976
 30
0.0
  0
POINT
  5
2CAB
  8
DEFPOINTS
 62
     0
 10
476.382413840625
 20
1008.292418583976
 30
0.0
  0
POINT
  5
2CAC
  8
DEFPOINTS
 62
     0
 10
476.382413840625
 20
1035.167525742962
 30
0.0
  0
ENDBLK
  5
2CA3
  8
0
  0
BLOCK
  8
0
  2
*D487
 70
     1
 10
0.0
 20
0.0
 30
0.0
  3
*D487
  1

  0
LINE
  5
2CB3
  8
DIMENSIONS
  6
BYBLOCK
 62
     0
 10
178.8824138406251
 20
1013.292418583976
 30
0.0
 11
178.8824138406251
 21
1048.66441489354
 31
0.0
  0
LINE
  5
2CB4
  8
DIMENSIONS
  6
BYBLOCK
 62
     0
 10
479.8824138406251
 20
1013.292418583976
 30
0.0
 11
479.8824138406251
 21
1048.66441489354
 31
0.0
  0
LINE
  5
2CB5
  8
DIMENSIONS
  6
BYBLOCK
 62
     0
 10
183.8824138406251
 20
1048.48441489354
 30
0.0
 11
474.8824138406251
 21
1048.48441489354
 31
0.0
  0
SOLID
  5
2CB6
  8
DIMENSIONS
 62
     0
 10
183.8824138406251
 20
1049.317748226873
 30
0.0
 11
183.8824138406251
 21
1047.651081560206
 31
0.0
 12
178.8824138406251
 22
1048.48441489354
 32
0.0
 13
178.8824138406251
 23
1048.48441489354
 33
0.0
  0
SOLID
  5
2CB7
  8
DIMENSIONS
 62
     0
 10
474.8824138406251
 20
1047.651081560206
 30
0.0
 11
474.8824138406251
 21
1049.317748226873
 31
0.0
 12
479.8824138406251
 22
1048.48441489354
 32
0.0
 13
479.8824138406251
 23
1048.48441489354
 33
0.0
  0
TEXT
  5
2CB8
  8
DIMENSIONS
  6
CONTINUOUS
 62
     5
 10
312.0024138406251
 20
1050.87941489354
 30
0.0
 40
5.0
  1
301 [11.85]
  0
POINT
  5
2CB9
  8
DEFPOINTS
 62
     0
 10
178.8824138406251
 20
1011.792418583976
 30
0.0
  0
POINT
  5
2CBA
  8
DEFPOINTS
 62
     0
 10
479.8824138406251
 20
1011.792418583976
 30
0.0
  0
POINT
  5
2CBB
  8
DEFPOINTS
 62
     0
 10
479.8824138406251
 20
1048.48441489354
 30
0.0
  0
ENDBLK
  5
2CB2
  8
0
  0
BLOCK
  8
0
  2
*D488
 70
     1
 10
0.0
 20
0.0
 30
0.0
  3
*D488
  1

  0
LINE
  5
2CC2
  8
DIMENSIONS
  6
BYBLOCK
 62
     0
 10
180.8824138406251
 20
1008.292418583976
 30
0.0
 11
153.5192986559233
 21
1008.292418583976
 31
0.0
  0
LINE
  5
2CC3
  8
DIMENSIONS
  6
BYBLOCK
 62
     0
 10
180.8824138406251
 20
763.2924185839755
 30
0.0
 11
153.5192986559233
 21
763.2924185839755
 31
0.0
  0
LINE
  5
2CC4
  8
DIMENSIONS
  6
BYBLOCK
 62
     0
 10
153.6992986559233
 20
1003.292418583976
 30
0.0
 11
153.6992986559233
 21
768.2924185839755
 31
0.0
  0
SOLID
  5
2CC5
  8
DIMENSIONS
 62
     0
 10
154.5326319892567
 20
1003.292418583976
 30
0.0
 11
152.86596532259
 21
1003.292418583976
 31
0.0
 12
153.6992986559233
 22
1008.292418583976
 32
0.0
 13
153.6992986559233
 23
1008.292418583976
 33
0.0
  0
SOLID
  5
2CC6
  8
DIMENSIONS
 62
     0
 10
152.8659653225899
 20
768.2924185839755
 30
0.0
 11
154.5326319892566
 21
768.2924185839755
 31
0.0
 12
153.6992986559233
 22
763.2924185839755
 32
0.0
 13
153.6992986559233
 23
763.2924185839755
 33
0.0
  0
TEXT
  5
2CC7
  8
DIMENSIONS
  6
CONTINUOUS
 62
     5
 10
151.3042986559233
 20
870.3974185839754
 30
0.0
 40
5.0
  1
245 [9.65]
 50
90.0
  0
POINT
  5
2CC8
  8
DEFPOINTS
 62
     0
 10
182.3824138406251
 20
1008.292418583976
 30
0.0
  0
POINT
  5
2CC9
  8
DEFPOINTS
 62
     0
 10
182.3824138406251
 20
763.2924185839755
 30
0.0
  0
POINT
  5
2CCA
  8
DEFPOINTS
 62
     0
 10
153.6992986559233
 20
763.2924185839755
 30
0.0
  0
ENDBLK
  5
2CC1
  8
0
  0
BLOCK
  8
0
  2
*D489
 70
     1
 10
0.0
 20
0.0
 30
0.0
  3
*D489
  1

  0
LINE
  5
2CFE
  8
DIMENSIONS
  6
BYBLOCK
 62
     0
 10
180.8824138406251
 20
763.2924185839755
 30
0.0
 11
153.5192986559233
 21
763.2924185839755
 31
0.0
  0
LINE
  5
2CFF
  8
DIMENSIONS
  6
BYBLOCK
 62
     0
 10
180.8824138406251
 20
434.2924185839755
 30
0.0
 11
153.5192986559233
 21
434.2924185839755
 31
0.0
  0
LINE
  5
2D00
  8
DIMENSIONS
  6
BYBLOCK
 62
     0
 10
153.6992986559233
 20
758.2924185839755
 30
0.0
 11
153.6992986559233
 21
439.2924185839755
 31
0.0
  0
SOLID
  5
2D01
  8
DIMENSIONS
 62
     0
 10
154.5326319892566
 20
758.2924185839755
 30
0.0
 11
152.8659653225899
 21
758.2924185839755
 31
0.0
 12
153.6992986559233
 22
763.2924185839755
 32
0.0
 13
153.6992986559233
 23
763.2924185839755
 33
0.0
  0
SOLID
  5
2D02
  8
DIMENSIONS
 62
     0
 10
152.8659653225899
 20
439.2924185839755
 30
0.0
 11
154.5326319892566
 21
439.2924185839755
 31
0.0
 12
153.6992986559233
 22
434.2924185839755
 32
0.0
 13
153.6992986559233
 23
434.2924185839755
 33
0.0
  0
TEXT
  5
2D03
  8
DIMENSIONS
  6
CONTINUOUS
 62
     5
 10
151.3042986559233
 20
581.4124185839755
 30
0.0
 40
5.0
  1
329 [12.95]
 50
90.0
  0
POINT
  5
2D04
  8
DEFPOINTS
 62
     0
 10
182.3824138406251
 20
763.2924185839755
 30
0.0
  0
POINT
  5
2D05
  8
DEFPOINTS
 62
     0
 10
182.3824138406251
 20
434.2924185839755
 30
0.0
  0
POINT
  5
2D06
  8
DEFPOINTS
 62
     0
 10
153.6992986559233
 20
434.2924185839755
 30
0.0
  0
ENDBLK
  5
2CFD
  8
0
  0
BLOCK
  8
0
  2
*D490
 70
     1
 10
0.0
 20
0.0
 30
0.0
  3
*D490
  1

  0
LINE
  5
2D0D
  8
DIMENSIONS
  6
BYBLOCK
 62
     0
 10
177.3824138406251
 20
430.7924185839755
 30
0.0
 11
137.3648876341511
 21
430.7924185839755
 31
0.0
  0
LINE
  5
2D0E
  8
DIMENSIONS
  6
BYBLOCK
 62
     0
 10
177.3824138406251
 20
1011.792418583976
 30
0.0
 11
137.3648876341512
 21
1011.792418583976
 31
0.0
  0
LINE
  5
2D0F
  8
DIMENSIONS
  6
BYBLOCK
 62
     0
 10
137.5448876341511
 20
435.7924185839755
 30
0.0
 11
137.5448876341512
 21
1006.792418583976
 31
0.0
  0
SOLID
  5
2D10
  8
DIMENSIONS
 62
     0
 10
136.7115543008178
 20
435.7924185839755
 30
0.0
 11
138.3782209674845
 21
435.7924185839755
 31
0.0
 12
137.5448876341511
 22
430.7924185839755
 32
0.0
 13
137.5448876341511
 23
430.7924185839755
 33
0.0
  0
SOLID
  5
2D11
  8
DIMENSIONS
 62
     0
 10
138.3782209674845
 20
1006.792418583976
 30
0.0
 11
136.7115543008178
 21
1006.792418583976
 31
0.0
 12
137.5448876341512
 22
1011.792418583976
 32
0.0
 13
137.5448876341512
 23
1011.792418583976
 33
0.0
  0
TEXT
  5
2D12
  8
DIMENSIONS
  6
CONTINUOUS
 62
     5
 10
135.1498876341511
 20
703.9149185839755
 30
0.0
 40
5.0
  1
581 [22.87]
 50
90.0
  0
POINT
  5
2D13
  8
DEFPOINTS
 62
     0
 10
178.8824138406251
 20
430.7924185839755
 30
0.0
  0
POINT
  5
2D14
  8
DEFPOINTS
 62
     0
 10
178.8824138406251
 20
1011.792418583976
 30
0.0
  0
POINT
  5
2D15
  8
DEFPOINTS
 62
     0
 10
137.5448876341512
 20
1011.792418583976
 30
0.0
  0
ENDBLK
  5
2D0C
  8
0
  0
BLOCK
  8
0
  2
*D491
 70
     1
 10
0.0
 20
0.0
 30
0.0
  3
*D491
  1

  0
LINE
  5
2D1C
  8
DIMENSIONS
  6
BYBLOCK
 62
     0
 10
481.3824138406251
 20
1011.792418583976
 30
0.0
 11
521.9174565320213
 21
1011.792418583976
 31
0.0
  0
LINE
  5
2D1D
  8
DIMENSIONS
  6
BYBLOCK
 62
     0
 10
456.8824138406251
 20
1006.292418583975
 30
0.0
 11
521.9174565320213
 21
1006.292418583975
 31
0.0
  0
LINE
  5
2D1E
  8
DIMENSIONS
  6
BYBLOCK
 62
     0
 10
521.7374565320214
 20
1006.292418583975
 30
0.0
 11
521.7374565320214
 21
965.9374185839754
 31
0.0
  0
LINE
  5
2D1F
  8
DIMENSIONS
  6
BYBLOCK
 62
     0
 10
521.7374565320214
 20
1016.792418583976
 30
0.0
 11
521.7374565320214
 21
1021.792418583976
 31
0.0
  0
LINE
  5
2D20
  8
DIMENSIONS
  6
BYBLOCK
 62
     0
 10
521.7374565320214
 20
1001.292418583975
 30
0.0
 11
521.7374565320214
 21
996.2924185839754
 31
0.0
  0
SOLID
  5
2D21
  8
DIMENSIONS
 62
     0
 10
520.904123198688
 20
1016.792418583976
 30
0.0
 11
522.5707898653548
 21
1016.792418583976
 31
0.0
 12
521.7374565320214
 22
1011.792418583976
 32
0.0
 13
521.7374565320214
 23
1011.792418583976
 33
0.0
  0
SOLID
  5
2D22
  8
DIMENSIONS
 62
     0
 10
522.5707898653548
 20
1001.292418583975
 30
0.0
 11
520.904123198688
 21
1001.292418583975
 31
0.0
 12
521.7374565320214
 22
1006.292418583975
 32
0.0
 13
521.7374565320214
 23
1006.292418583975
 33
0.0
  0
TEXT
  5
2D23
  8
DIMENSIONS
  6
CONTINUOUS
 62
     5
 10
519.3424565320214
 20
966.6474185839754
 30
0.0
 40
5.0
  1
5.5 [0.22]
 50
90.0
  0
POINT
  5
2D24
  8
DEFPOINTS
 62
     0
 10
479.8824138406251
 20
1011.792418583976
 30
0.0
  0
POINT
  5
2D25
  8
DEFPOINTS
 62
     0
 10
455.3824138406251
 20
1006.292418583975
 30
0.0
  0
POINT
  5
2D62
  8
DEFPOINTS
 62
     0
 10
521.7374565320214
 20
1006.292418583975
 30
0.0
  0
ENDBLK
  5
2D1B
  8
0
  0
BLOCK
  8
0
  2
*D492
 70
     1
 10
0.0
 20
0.0
 30
0.0
  3
*D492
  1

  0
LINE
  5
2D2C
  8
DIMENSIONS
  6
BYBLOCK
 62
     0
 10
456.8824138406251
 20
1006.292418583975
 30
0.0
 11
505.2840000439359
 21
1006.292418583975
 31
0.0
  0
LINE
  5
2D2D
  8
DIMENSIONS
  6
BYBLOCK
 62
     0
 10
456.8824138406251
 20
855.2924185839754
 30
0.0
 11
505.2840000439359
 21
855.2924185839754
 31
0.0
  0
LINE
  5
2D2E
  8
DIMENSIONS
  6
BYBLOCK
 62
     0
 10
505.1040000439359
 20
1001.292418583975
 30
0.0
 11
505.1040000439359
 21
860.2924185839754
 31
0.0
  0
SOLID
  5
2D2F
  8
DIMENSIONS
 62
     0
 10
505.9373333772692
 20
1001.292418583975
 30
0.0
 11
504.2706667106026
 21
1001.292418583975
 31
0.0
 12
505.1040000439359
 22
1006.292418583975
 32
0.0
 13
505.1040000439359
 23
1006.292418583975
 33
0.0
  0
SOLID
  5
2D30
  8
DIMENSIONS
 62
     0
 10
504.2706667106026
 20
860.2924185839754
 30
0.0
 11
505.9373333772692
 21
860.2924185839754
 31
0.0
 12
505.1040000439359
 22
855.2924185839754
 32
0.0
 13
505.1040000439359
 23
855.2924185839754
 33
0.0
  0
TEXT
  5
2D31
  8
DIMENSIONS
  6
CONTINUOUS
 62
     5
 10
502.709000043936
 20
915.1199185839754
 30
0.0
 40
5.0
  1
151 [5.94]
 50
90.0
  0
POINT
  5
2D32
  8
DEFPOINTS
 62
     0
 10
455.3824138406251
 20
1006.292418583975
 30
0.0
  0
POINT
  5
2D33
  8
DEFPOINTS
 62
     0
 10
455.3824138406251
 20
855.2924185839754
 30
0.0
  0
POINT
  5
2D34
  8
DEFPOINTS
 62
     0
 10
505.1040000439359
 20
855.2924185839754
 30
0.0
  0
ENDBLK
  5
2D2B
  8
0
  0
BLOCK
  8
0
  2
*D493
 70
     1
 10
0.0
 20
0.0
 30
0.0
  3
*D493
  1

  0
LINE
  5
2D3B
  8
DIMENSIONS
  6
BYBLOCK
 62
     0
 10
456.8824138406251
 20
855.2924185839754
 30
0.0
 11
505.2840000439359
 21
855.2924185839754
 31
0.0
  0
LINE
  5
2D3C
  8
DIMENSIONS
  6
BYBLOCK
 62
     0
 10
477.8824138406251
 20
737.2924185839755
 30
0.0
 11
505.2840000439359
 21
737.2924185839755
 31
0.0
  0
LINE
  5
2D3D
  8
DIMENSIONS
  6
BYBLOCK
 62
     0
 10
505.1040000439359
 20
850.2924185839754
 30
0.0
 11
505.1040000439359
 21
742.2924185839755
 31
0.0
  0
SOLID
  5
2D3E
  8
DIMENSIONS
 62
     0
 10
505.9373333772692
 20
850.2924185839754
 30
0.0
 11
504.2706667106026
 21
850.2924185839754
 31
0.0
 12
505.1040000439359
 22
855.2924185839754
 32
0.0
 13
505.1040000439359
 23
855.2924185839754
 33
0.0
  0
SOLID
  5
2D3F
  8
DIMENSIONS
 62
     0
 10
504.2706667106026
 20
742.2924185839755
 30
0.0
 11
505.9373333772692
 21
742.2924185839755
 31
0.0
 12
505.1040000439359
 22
737.2924185839755
 32
0.0
 13
505.1040000439359
 23
737.2924185839755
 33
0.0
  0
TEXT
  5
2D40
  8
DIMENSIONS
  6
CONTINUOUS
 62
     5
 10
502.709000043936
 20
780.6199185839754
 30
0.0
 40
5.0
  1
118 [4.65]
 50
90.0
  0
POINT
  5
2D41
  8
DEFPOINTS
 62
     0
 10
455.3824138406251
 20
855.2924185839754
 30
0.0
  0
POINT
  5
2D42
  8
DEFPOINTS
 62
     0
 10
476.3824138406251
 20
737.2924185839755
 30
0.0
  0
POINT
  5
2D43
  8
DEFPOINTS
 62
     0
 10
505.1040000439359
 20
737.2924185839755
 30
0.0
  0
ENDBLK
  5
2D3A
  8
0
  0
BLOCK
  8
0
  2
*D494
 70
     1
 10
0.0
 20
0.0
 30
0.0
  3
*D494
  1

  0
LINE
  5
2D4A
  8
DIMENSIONS
  6
BYBLOCK
 62
     0
 10
477.8824138406251
 20
737.2924185839755
 30
0.0
 11
505.2840000439359
 21
737.2924185839755
 31
0.0
  0
LINE
  5
2D4B
  8
DIMENSIONS
  6
BYBLOCK
 62
     0
 10
477.8824138406251
 20
657.2924185839755
 30
0.0
 11
505.2840000439359
 21
657.2924185839755
 31
0.0
  0
LINE
  5
2D4C
  8
DIMENSIONS
  6
BYBLOCK
 62
     0
 10
505.1040000439359
 20
732.2924185839755
 30
0.0
 11
505.1040000439359
 21
662.2924185839755
 31
0.0
  0
SOLID
  5
2D4D
  8
DIMENSIONS
 62
     0
 10
505.9373333772692
 20
732.2924185839755
 30
0.0
 11
504.2706667106026
 21
732.2924185839755
 31
0.0
 12
505.1040000439359
 22
737.2924185839755
 32
0.0
 13
505.1040000439359
 23
737.2924185839755
 33
0.0
  0
SOLID
  5
2D4E
  8
DIMENSIONS
 62
     0
 10
504.2706667106026
 20
662.2924185839755
 30
0.0
 11
505.9373333772692
 21
662.2924185839755
 31
0.0
 12
505.1040000439359
 22
657.2924185839755
 32
0.0
 13
505.1040000439359
 23
657.2924185839755
 33
0.0
  0
TEXT
  5
2D4F
  8
DIMENSIONS
  6
CONTINUOUS
 62
     5
 10
502.7090000439359
 20
683.7974185839755
 30
0.0
 40
5.0
  1
80 [3.15]
 50
90.0
  0
POINT
  5
2D50
  8
DEFPOINTS
 62
     0
 10
476.3824138406251
 20
737.2924185839755
 30
0.0
  0
POINT
  5
2D51
  8
DEFPOINTS
 62
     0
 10
476.3824138406251
 20
657.2924185839755
 30
0.0
  0
POINT
  5
2D52
  8
DEFPOINTS
 62
     0
 10
505.1040000439359
 20
657.2924185839755
 30
0.0
  0
ENDBLK
  5
2D49
  8
0
  0
BLOCK
  8
0
  2
*D495
 70
     1
 10
0.0
 20
0.0
 30
0.0
  3
*D495
  1

  0
LINE
  5
2D59
  8
DIMENSIONS
  6
BYBLOCK
 62
     0
 10
477.8824138406251
 20
657.2924185839755
 30
0.0
 11
505.2840000439359
 21
657.2924185839755
 31
0.0
  0
LINE
  5
2D5A
  8
DIMENSIONS
  6
BYBLOCK
 62
     0
 10
481.3824138406251
 20
430.7924185839755
 30
0.0
 11
505.2840000439359
 21
430.7924185839755
 31
0.0
  0
LINE
  5
2D5B
  8
DIMENSIONS
  6
BYBLOCK
 62
     0
 10
505.1040000439359
 20
652.2924185839755
 30
0.0
 11
505.1040000439359
 21
435.7924185839755
 31
0.0
  0
SOLID
  5
2D5C
  8
DIMENSIONS
 62
     0
 10
505.9373333772692
 20
652.2924185839755
 30
0.0
 11
504.2706667106026
 21
652.2924185839755
 31
0.0
 12
505.1040000439359
 22
657.2924185839755
 32
0.0
 13
505.1040000439359
 23
657.2924185839755
 33
0.0
  0
SOLID
  5
2D5D
  8
DIMENSIONS
 62
     0
 10
504.2706667106026
 20
435.7924185839755
 30
0.0
 11
505.9373333772692
 21
435.7924185839755
 31
0.0
 12
505.1040000439359
 22
430.7924185839755
 32
0.0
 13
505.1040000439359
 23
430.7924185839755
 33
0.0
  0
TEXT
  5
2D5E
  8
DIMENSIONS
  6
CONTINUOUS
 62
     5
 10
502.7090000439359
 20
525.7374185839756
 30
0.0
 40
5.0
  1
226.5 [8.92]
 50
90.0
  0
POINT
  5
2D5F
  8
DEFPOINTS
 62
     0
 10
476.3824138406251
 20
657.2924185839755
 30
0.0
  0
POINT
  5
2D60
  8
DEFPOINTS
 62
     0
 10
479.8824138406251
 20
430.7924185839755
 30
0.0
  0
POINT
  5
2D61
  8
DEFPOINTS
 62
     0
 10
505.1040000439359
 20
430.7924185839755
 30
0.0
  0
ENDBLK
  5
2D58
  8
0
  0
BLOCK
  8
0
  2
*D496
 70
     1
 10
0.0
 20
0.0
 30
0.0
  3
*D496
  1

  0
LINE
  5
2D69
  8
DIMENSIONS
  6
BYBLOCK
 62
     0
 10
253.382413840625
 20
853.7924185839754
 30
0.0
 11
253.382413840625
 21
837.0403767342351
 31
0.0
  0
LINE
  5
2D6A
  8
DIMENSIONS
  6
BYBLOCK
 62
     0
 10
178.8824138406251
 20
853.7924185839754
 30
0.0
 11
178.8824138406251
 21
837.0403767342351
 31
0.0
  0
LINE
  5
2D6B
  8
DIMENSIONS
  6
BYBLOCK
 62
     0
 10
248.382413840625
 20
837.2203767342351
 30
0.0
 11
183.8824138406251
 21
837.2203767342351
 31
0.0
  0
SOLID
  5
2D6C
  8
DIMENSIONS
 62
     0
 10
248.382413840625
 20
836.3870434009017
 30
0.0
 11
248.382413840625
 21
838.0537100675684
 31
0.0
 12
253.382413840625
 22
837.2203767342351
 32
0.0
 13
253.382413840625
 23
837.2203767342351
 33
0.0
  0
SOLID
  5
2D6D
  8
DIMENSIONS
 62
     0
 10
183.8824138406251
 20
838.0537100675684
 30
0.0
 11
183.8824138406251
 21
836.3870434009017
 31
0.0
 12
178.8824138406251
 22
837.2203767342351
 32
0.0
 13
178.8824138406251
 23
837.2203767342351
 33
0.0
  0
TEXT
  5
2D6E
  8
DIMENSIONS
  6
CONTINUOUS
 62
     5
 10
199.7049138406251
 20
839.615376734235
 30
0.0
 40
5.0
  1
74.5 [2.93]
  0
POINT
  5
2D6F
  8
DEFPOINTS
 62
     0
 10
253.382413840625
 20
855.2924185839754
 30
0.0
  0
POINT
  5
2D70
  8
DEFPOINTS
 62
     0
 10
178.8824138406251
 20
855.2924185839754
 30
0.0
  0
POINT
  5
2D71
  8
DEFPOINTS
 62
     0
 10
178.8824138406251
 20
837.2203767342351
 30
0.0
  0
ENDBLK
  5
2D68
  8
0
  0
BLOCK
  8
0
  2
*D497
 70
     1
 10
0.0
 20
0.0
 30
0.0
  3
*D497
  1

  0
LINE
  5
2D78
  8
DIMENSIONS
  6
BYBLOCK
 62
     0
 10
253.382413840625
 20
853.7924185839754
 30
0.0
 11
253.382413840625
 21
837.0403767342351
 31
0.0
  0
LINE
  5
2D79
  8
DIMENSIONS
  6
BYBLOCK
 62
     0
 10
455.3824138406251
 20
853.7924185839754
 30
0.0
 11
455.3824138406251
 21
837.0403767342351
 31
0.0
  0
LINE
  5
2D7A
  8
DIMENSIONS
  6
BYBLOCK
 62
     0
 10
258.3824138406251
 20
837.2203767342351
 30
0.0
 11
450.3824138406251
 21
837.2203767342351
 31
0.0
  0
SOLID
  5
2D7B
  8
DIMENSIONS
 62
     0
 10
258.3824138406251
 20
838.0537100675684
 30
0.0
 11
258.3824138406251
 21
836.3870434009017
 31
0.0
 12
253.382413840625
 22
837.2203767342351
 32
0.0
 13
253.382413840625
 23
837.2203767342351
 33
0.0
  0
SOLID
  5
2D7C
  8
DIMENSIONS
 62
     0
 10
450.3824138406251
 20
836.3870434009017
 30
0.0
 11
450.3824138406251
 21
838.0537100675684
 31
0.0
 12
455.3824138406251
 22
837.2203767342351
 32
0.0
 13
455.3824138406251
 23
837.2203767342351
 33
0.0
  0
TEXT
  5
2D7D
  8
DIMENSIONS
  6
CONTINUOUS
 62
     5
 10
338.9874138406251
 20
839.615376734235
 30
0.0
 40
5.0
  1
202 [7.95]
  0
POINT
  5
2D7E
  8
DEFPOINTS
 62
     0
 10
253.382413840625
 20
855.2924185839754
 30
0.0
  0
POINT
  5
2D7F
  8
DEFPOINTS
 62
     0
 10
455.3824138406251
 20
855.2924185839754
 30
0.0
  0
POINT
  5
2D80
  8
DEFPOINTS
 62
     0
 10
455.3824138406251
 20
837.2203767342351
 30
0.0
  0
ENDBLK
  5
2D77
  8
0
  0
BLOCK
  8
0
  2
*D498
 70
     1
 10
0.0
 20
0.0
 30
0.0
  3
*D498
  1

  0
LINE
  5
2D87
  8
DIMENSIONS
  6
BYBLOCK
 62
     0
 10
296.3824138406251
 20
655.7924185839755
 30
0.0
 11
296.3824138406251
 21
639.6821628434926
 31
0.0
  0
LINE
  5
2D88
  8
DIMENSIONS
  6
BYBLOCK
 62
     0
 10
178.8824138406251
 20
655.7924185839755
 30
0.0
 11
178.8824138406251
 21
639.6821628434926
 31
0.0
  0
LINE
  5
2D89
  8
DIMENSIONS
  6
BYBLOCK
 62
     0
 10
291.3824138406251
 20
639.8621628434926
 30
0.0
 11
183.8824138406251
 21
639.8621628434926
 31
0.0
  0
SOLID
  5
2D8A
  8
DIMENSIONS
 62
     0
 10
291.3824138406251
 20
639.0288295101592
 30
0.0
 11
291.3824138406251
 21
640.6954961768259
 31
0.0
 12
296.3824138406251
 22
639.8621628434926
 32
0.0
 13
296.3824138406251
 23
639.8621628434926
 33
0.0
  0
SOLID
  5
2D8B
  8
DIMENSIONS
 62
     0
 10
183.8824138406251
 20
640.6954961768259
 30
0.0
 11
183.8824138406251
 21
639.0288295101592
 31
0.0
 12
178.8824138406251
 22
639.8621628434926
 32
0.0
 13
178.8824138406251
 23
639.8621628434926
 33
0.0
  0
TEXT
  5
2D8C
  8
DIMENSIONS
  6
CONTINUOUS
 62
     5
 10
219.0499138406251
 20
642.2571628434926
 30
0.0
 40
5.0
  1
117.5 [4.63]
  0
POINT
  5
2D8D
  8
DEFPOINTS
 62
     0
 10
296.3824138406251
 20
657.2924185839755
 30
0.0
  0
POINT
  5
2D8E
  8
DEFPOINTS
 62
     0
 10
178.8824138406251
 20
657.2924185839755
 30
0.0
  0
POINT
  5
2D8F
  8
DEFPOINTS
 62
     0
 10
178.8824138406251
 20
639.8621628434926
 30
0.0
  0
ENDBLK
  5
2D86
  8
0
  0
BLOCK
  8
0
  2
*D499
 70
     1
 10
0.0
 20
0.0
 30
0.0
  3
*D499
  1

  0
LINE
  5
2D96
  8
DIMENSIONS
  6
BYBLOCK
 62
     0
 10
296.3824138406251
 20
655.7924185839755
 30
0.0
 11
296.3824138406251
 21
639.6821628434926
 31
0.0
  0
LINE
  5
2D97
  8
DIMENSIONS
  6
BYBLOCK
 62
     0
 10
476.3824138406251
 20
655.7924185839755
 30
0.0
 11
476.3824138406251
 21
639.6821628434926
 31
0.0
  0
LINE
  5
2D98
  8
DIMENSIONS
  6
BYBLOCK
 62
     0
 10
301.3824138406251
 20
639.8621628434926
 30
0.0
 11
471.3824138406251
 21
639.8621628434926
 31
0.0
  0
SOLID
  5
2D99
  8
DIMENSIONS
 62
     0
 10
301.3824138406251
 20
640.6954961768259
 30
0.0
 11
301.3824138406251
 21
639.0288295101592
 31
0.0
 12
296.3824138406251
 22
639.8621628434926
 32
0.0
 13
296.3824138406251
 23
639.8621628434926
 33
0.0
  0
SOLID
  5
2D9A
  8
DIMENSIONS
 62
     0
 10
471.3824138406251
 20
639.0288295101592
 30
0.0
 11
471.3824138406251
 21
640.6954961768259
 31
0.0
 12
476.3824138406251
 22
639.8621628434926
 32
0.0
 13
476.3824138406251
 23
639.8621628434926
 33
0.0
  0
TEXT
  5
2D9B
  8
DIMENSIONS
  6
CONTINUOUS
 62
     5
 10
370.7099138406251
 20
642.2571628434926
 30
0.0
 40
5.0
  1
180 [7.09]
  0
POINT
  5
2D9C
  8
DEFPOINTS
 62
     0
 10
296.3824138406251
 20
657.2924185839755
 30
0.0
  0
POINT
  5
2D9D
  8
DEFPOINTS
 62
     0
 10
476.3824138406251
 20
657.2924185839755
 30
0.0
  0
POINT
  5
2D9E
  8
DEFPOINTS
 62
     0
 10
476.3824138406251
 20
639.8621628434926
 30
0.0
  0
ENDBLK
  5
2D95
  8
0
  0
BLOCK
  8
0
  2
*D500
 70
     1
 10
0.0
 20
0.0
 30
0.0
  3
*D500
  1

  0
LINE
  5
2DA5
  8
DIMENSIONS
  6
BYBLOCK
 62
     0
 10
467.8824140054315
 20
434.294092414655
 30
0.0
 11
427.4774147888437
 21
434.3020490180202
 31
0.0
  0
TEXT
  5
2DA6
  8
DIMENSIONS
  6
CONTINUOUS
 62
     5
 10
428.1979021549932
 20
436.7769071867279
 30
0.0
 40
5.0
  1
Ø7 [Ø0.28]
 50
359.9887172430384
  0
SOLID
  5
2DA7
  8
DIMENSIONS
 62
     0
 10
467.8822499043845
 20
433.4607590974791
 30
0.0
 11
467.8825781064785
 21
435.1274257318308
 31
0.0
 12
472.8824139084865
 22
434.293107808373
 32
0.0
 13
472.8824139084865
 23
434.293107808373
 33
0.0
  0
LINE
  5
2DA8
  8
DIMENSIONS
  6
BYBLOCK
 62
     0
 10
473.882413840625
 20
434.2924185839755
 30
0.0
 11
478.882413840625
 21
434.2924185839755
 31
0.0
  0
LINE
  5
2DA9
  8
DIMENSIONS
  6
BYBLOCK
 62
     0
 10
476.382413840625
 20
431.7924185839755
 30
0.0
 11
476.382413840625
 21
436.7924185839755
 31
0.0
  0
POINT
  5
2DAA
  8
DEFPOINTS
 62
     0
 10
472.8824139084865
 20
434.293107808373
 30
0.0
  0
POINT
  5
2DAB
  8
DEFPOINTS
 62
     0
 10
479.8824137727635
 20
434.2917293595781
 30
0.0
  0
ENDBLK
  5
2DA4
  8
0
  0
BLOCK
  8
0
  2
*X501
 70
     1
 10
0.0
 20
0.0
 30
0.0
  3
*X501
  1

  0
LINE
  5
2DBC
  8
0
 10
253.382413840625
 20
991.428330649727
 30
0.0
 11
268.2465017748735
 21
1006.292418583975
 31
0.0
1001
ACAD
1010
0.0
1020
0.0
1030
0.0
  0
LINE
  5
2DBD
  8
0
 10
253.382413840625
 20
947.2341568255678
 30
0.0
 11
312.4406755990327
 21
1006.292418583975
 31
0.0
1001
ACAD
1010
0.0
1020
0.0
1030
0.0
  0
LINE
  5
2DBE
  8
0
 10
253.382413840625
 20
903.0399830014085
 30
0.0
 11
356.6348494231919
 21
1006.292418583975
 31
0.0
1001
ACAD
1010
0.0
1020
0.0
1030
0.0
  0
LINE
  5
2DBF
  8
0
 10
253.382413840625
 20
858.8458091772493
 30
0.0
 11
400.8290232473511
 21
1006.292418583975
 31
0.0
1001
ACAD
1010
0.0
1020
0.0
1030
0.0
  0
LINE
  5
2DC0
  8
0
 10
294.0231970715104
 20
855.2924185839754
 30
0.0
 11
445.0231970715104
 21
1006.292418583975
 31
0.0
1001
ACAD
1010
0.0
1020
0.0
1030
0.0
  0
LINE
  5
2DC1
  8
0
 10
338.2173708956696
 20
855.2924185839754
 30
0.0
 11
455.3824138406251
 21
972.4574615289309
 31
0.0
1001
ACAD
1010
0.0
1020
0.0
1030
0.0
  0
LINE
  5
2DC2
  8
0
 10
382.4115447198288
 20
855.2924185839754
 30
0.0
 11
455.3824138406251
 21
928.2632877047716
 31
0.0
1001
ACAD
1010
0.0
1020
0.0
1030
0.0
  0
LINE
  5
2DC3
  8
0
 10
296.3824138406251
 20
725.0691138806125
 30
0.0
 11
308.6057185439881
 21
737.2924185839755
 31
0.0
1001
ACAD
1010
0.0
1020
0.0
1030
0.0
  0
LINE
  5
2DC4
  8
0
 10
426.605718543988
 20
855.2924185839754
 30
0.0
 11
455.3824138406251
 21
884.0691138806125
 31
0.0
1001
ACAD
1010
0.0
1020
0.0
1030
0.0
  0
LINE
  5
2DC5
  8
0
 10
296.3824138406251
 20
680.8749400564532
 30
0.0
 11
352.7998923681474
 21
737.2924185839755
 31
0.0
1001
ACAD
1010
0.0
1020
0.0
1030
0.0
  0
LINE
  5
2DC6
  8
0
 10
316.9940661923066
 20
657.2924185839755
 30
0.0
 11
396.9940661923066
 21
737.2924185839755
 31
0.0
1001
ACAD
1010
0.0
1020
0.0
1030
0.0
  0
LINE
  5
2DC7
  8
0
 10
361.1882400164658
 20
657.2924185839755
 30
0.0
 11
441.1882400164658
 21
737.2924185839755
 31
0.0
1001
ACAD
1010
0.0
1020
0.0
1030
0.0
  0
LINE
  5
2DC8
  8
0
 10
405.3824138406251
 20
657.2924185839755
 30
0.0
 11
476.3824138406251
 21
728.2924185839755
 31
0.0
1001
ACAD
1010
0.0
1020
0.0
1030
0.0
  0
LINE
  5
2DC9
  8
0
 10
449.5765876647843
 20
657.2924185839755
 30
0.0
 11
476.3824138406251
 21
684.0982447598163
 31
0.0
1001
ACAD
1010
0.0
1020
0.0
1030
0.0
  0
ENDBLK
  5
2DD3
  8
0
  0
ENDSEC
  0
SECTION
  2
ENTITIES
  0
TEXT
  5
25BF
  8
DIMENSIONS
  6
BYBLOCK
 10
177.0453220085568
 20
400.943812311563
 30
0.0
 40
5.0
  1
Note:
  0
TEXT
  5
25C0
  8
DIMENSIONS
  6
BYBLOCK
 10
177.1792480488423
 20
390.4148444635699
 30
0.0
 40
5.0
  1
Primary dimensions in millimeters.
  0
TEXT
  5
25C1
  8
DIMENSIONS
  6
BYBLOCK
 10
177.4006619852323
 20
379.8428188547859
 30
0.0
 40
5.0
  1
Secondary dimensions in inches.
  0
POLYLINE
  5
2C93
  8
0
 66
     1
 10
0.0
 20
0.0
 30
0.0
 70
     1
  0
VERTEX
  5
2DAF
  8
0
 10
169.3824138406251
 20
421.2924185839755
 30
0.0
  0
VERTEX
  5
2DB0
  8
0
 10
169.3824138406251
 20
1021.292418583975
 30
0.0
  0
VERTEX
  5
2DB1
  8
0
 10
489.3824138406251
 20
1021.292418583975
 30
0.0
  0
VERTEX
  5
2DB2
  8
0
 10
489.3824138406251
 20
421.2924185839755
 30
0.0
  0
SEQEND
  5
2DD4
  8
0
  0
POLYLINE
  5
2C94
  8
0
 66
     1
 10
0.0
 20
0.0
 30
0.0
 70
     1
  0
VERTEX
  5
2DB3
  8
0
 10
455.3824138406251
 20
1006.292418583975
 30
0.0
  0
VERTEX
  5
2DB4
  8
0
 10
455.3824138406251
 20
855.2924185839754
 30
0.0
  0
VERTEX
  5
2DB5
  8
0
 10
253.382413840625
 20
855.2924185839754
 30
0.0
  0
VERTEX
  5
2DB6
  8
0
 10
253.382413840625
 20
1006.292418583975
 30
0.0
  0
SEQEND
  5
2DD5
  8
0
  0
POLYLINE
  5
2C95
  8
0
 66
     1
 10
0.0
 20
0.0
 30
0.0
 70
     1
  0
VERTEX
  5
2DB7
  8
0
 10
476.3824138406251
 20
657.2924185839755
 30
0.0
  0
VERTEX
  5
2DB8
  8
0
 10
476.3824138406251
 20
737.2924185839755
 30
0.0
  0
VERTEX
  5
2DB9
  8
0
 10
296.3824138406251
 20
737.2924185839755
 30
0.0
  0
VERTEX
  5
2DBA
  8
0
 10
296.3824138406251
 20
657.2924185839755
 30
0.0
  0
SEQEND
  5
2DD6
  8
0
  0
CIRCLE
  5
2C96
  8
0
 10
182.3824138406251
 20
434.2924185839755
 30
0.0
 40
3.5
  0
CIRCLE
  5
2C97
  8
0
 10
182.3824138406251
 20
763.2924185839755
 30
0.0
 40
3.5
  0
CIRCLE
  5
2C98
  8
0
 10
182.3824138406251
 20
1008.292418583976
 30
0.0
 40
3.5
  0
CIRCLE
  5
2C99
  8
0
 10
476.382413840625
 20
1008.292418583976
 30
0.0
 40
3.5
  0
CIRCLE
  5
2C9A
  8
0
 10
476.382413840625
 20
763.2924185839755
 30
0.0
 40
3.5
  0
CIRCLE
  5
2C9B
  8
0
 10
476.382413840625
 20
434.2924185839755
 30
0.0
 40
3.5
  0
INSERT
  5
2C9C
  8
0
  2
*X501
 10
0.0
 20
0.0
 30
0.0
  0
POLYLINE
  5
2C9D
  8
0
 66
     1
 10
0.0
 20
0.0
 30
0.0
 70
     1
  0
VERTEX
  5
2DCA
  8
0
 10
178.8824138406251
 20
430.7924185839755
 30
0.0
  0
VERTEX
  5
2DCB
  8
0
 10
178.8824138406251
 20
1011.792418583976
 30
0.0
  0
VERTEX
  5
2DCC
  8
0
 10
479.8824138406251
 20
1011.792418583976
 30
0.0
  0
VERTEX
  5
2DCD
  8
0
 10
479.8824138406251
 20
430.7924185839755
 30
0.0
  0
SEQEND
  5
2DD7
  8
0
  0
DIMENSION
  5
2C9E
  8
DIMENSIONS
  6
BYBLOCK
  2
*D486
 10
476.382413840625
 20
1035.167525742962
 30
0.0
 11
329.3824138406251
 21
1039.370025742962
 31
0.0
 70
    32
  3
DUAL-DIM
 13
182.3824138406251
 23
1008.292418583976
 33
0.0
 14
476.382413840625
 24
1008.292418583976
 34
0.0
1001
ACAD
1000
DSTYLE
1002
{
1070
   287
1070
     5
1070
   279
1070
     2
1002
}
  0
DIMENSION
  5
2CAD
  8
DIMENSIONS
  6
BYBLOCK
  2
*D487
 10
479.8824138406251
 20
1048.48441489354
 30
0.0
 11
329.3824138406251
 21
1052.68691489354
 31
0.0
 70
    32
  3
DUAL-DIM
 13
178.8824138406251
 23
1011.792418583976
 33
0.0
 14
479.8824138406251
 24
1011.792418583976
 34
0.0
1001
ACAD
1000
DSTYLE
1002
{
1070
   287
1070
     5
1070
   279
1070
     2
1002
}
  0
DIMENSION
  5
2CBC
  8
DIMENSIONS
  6
BYBLOCK
  2
*D488
 10
153.6992986559233
 20
763.2924185839755
 30
0.0
 11
149.4967986559233
 21
885.7924185839755
 31
0.0
 70
    32
  3
DUAL-DIM
 13
182.3824138406251
 23
1008.292418583976
 33
0.0
 14
182.3824138406251
 24
763.2924185839755
 34
0.0
 50
90.0
1001
ACAD
1000
DSTYLE
1002
{
1070
   287
1070
     5
1070
   279
1070
     2
1002
}
  0
DIMENSION
  5
2CF8
  8
DIMENSIONS
  6
BYBLOCK
  2
*D489
 10
153.6992986559233
 20
434.2924185839755
 30
0.0
 11
149.4967986559233
 21
598.7924185839755
 31
0.0
 70
    32
  3
DUAL-DIM
 13
182.3824138406251
 23
763.2924185839755
 33
0.0
 14
182.3824138406251
 24
434.2924185839755
 34
0.0
 50
90.0
1001
ACAD
1000
DSTYLE
1002
{
1070
   287
1070
     5
1070
   279
1070
     2
1002
}
  0
DIMENSION
  5
2D07
  8
DIMENSIONS
  6
BYBLOCK
  2
*D490
 10
137.5448876341512
 20
1011.792418583976
 30
0.0
 11
133.3423876341512
 21
721.2924185839755
 31
0.0
 70
    32
  3
DUAL-DIM
 13
178.8824138406251
 23
430.7924185839755
 33
0.0
 14
178.8824138406251
 24
1011.792418583976
 34
0.0
 50
90.0
1001
ACAD
1000
DSTYLE
1002
{
1070
   287
1070
     5
1070
   279
1070
     2
1002
}
  0
DIMENSION
  5
2D16
  8
DIMENSIONS
  6
BYBLOCK
  2
*D491
 10
521.7374565320214
 20
1006.292418583975
 30
0.0
 11
521.7374565320214
 21
981.1149185839754
 31
0.0
 70
   160
  3
DUAL-DIM
 13
479.8824138406251
 23
1011.792418583976
 33
0.0
 14
455.3824138406251
 24
1006.292418583975
 34
0.0
 50
90.0
1001
ACAD
1000
DSTYLE
1002
{
1070
   287
1070
     3
1070
   279
1070
     0
1002
}
  0
DIMENSION
  5
2D26
  8
DIMENSIONS
  6
BYBLOCK
  2
*D492
 10
505.1040000439359
 20
855.2924185839754
 30
0.0
 11
500.9015000439359
 21
930.7924185839754
 31
0.0
 70
    32
  3
DUAL-DIM
 13
455.3824138406251
 23
1006.292418583975
 33
0.0
 14
455.3824138406251
 24
855.2924185839754
 34
0.0
 50
90.0
1001
ACAD
1000
DSTYLE
1002
{
1070
   287
1070
     5
1070
   279
1070
     2
1002
}
  0
DIMENSION
  5
2D35
  8
DIMENSIONS
  6
BYBLOCK
  2
*D493
 10
505.1040000439359
 20
737.2924185839755
 30
0.0
 11
500.9015000439359
 21
796.2924185839754
 31
0.0
 70
    32
  3
DUAL-DIM
 13
455.3824138406251
 23
855.2924185839754
 33
0.0
 14
476.3824138406251
 24
737.2924185839755
 34
0.0
 50
90.0
1001
ACAD
1000
DSTYLE
1002
{
1070
   287
1070
     5
1070
   279
1070
     2
1002
}
  0
DIMENSION
  5
2D44
  8
DIMENSIONS
  6
BYBLOCK
  2
*D494
 10
505.1040000439359
 20
657.2924185839755
 30
0.0
 11
500.9015000439359
 21
697.2924185839755
 31
0.0
 70
    32
  3
DUAL-DIM
 13
476.3824138406251
 23
737.2924185839755
 33
0.0
 14
476.3824138406251
 24
657.2924185839755
 34
0.0
 50
90.0
1001
ACAD
1000
DSTYLE
1002
{
1070
   287
1070
     5
1070
   279
1070
     2
1002
}
  0
DIMENSION
  5
2D53
  8
DIMENSIONS
  6
BYBLOCK
  2
*D495
 10
505.1040000439359
 20
430.7924185839755
 30
0.0
 11
500.9015000439359
 21
544.0424185839755
 31
0.0
 70
    32
  3
DUAL-DIM
 13
476.3824138406251
 23
657.2924185839755
 33
0.0
 14
479.8824138406251
 24
430.7924185839755
 34
0.0
 50
90.0
1001
ACAD
1000
DSTYLE
1002
{
1070
   287
1070
     5
1070
   279
1070
     2
1002
}
  0
DIMENSION
  5
2D63
  8
DIMENSIONS
  6
BYBLOCK
  2
*D496
 10
178.8824138406251
 20
837.2203767342351
 30
0.0
 11
216.1324138406251
 21
841.422876734235
 31
0.0
 70
    32
  3
DUAL-DIM
 13
253.382413840625
 23
855.2924185839754
 33
0.0
 14
178.8824138406251
 24
855.2924185839754
 34
0.0
1001
ACAD
1000
DSTYLE
1002
{
1070
   287
1070
     5
1070
   279
1070
     2
1002
}
  0
DIMENSION
  5
2D72
  8
DIMENSIONS
  6
BYBLOCK
  2
*D497
 10
455.3824138406251
 20
837.2203767342351
 30
0.0
 11
354.3824138406251
 21
841.422876734235
 31
0.0
 70
    32
  3
DUAL-DIM
 13
253.382413840625
 23
855.2924185839754
 33
0.0
 14
455.3824138406251
 24
855.2924185839754
 34
0.0
1001
ACAD
1000
DSTYLE
1002
{
1070
   287
1070
     5
1070
   279
1070
     2
1002
}
  0
DIMENSION
  5
2D81
  8
DIMENSIONS
  6
BYBLOCK
  2
*D498
 10
178.8824138406251
 20
639.8621628434926
 30
0.0
 11
237.6324138406251
 21
644.0646628434926
 31
0.0
 70
    32
  3
DUAL-DIM
 13
296.3824138406251
 23
657.2924185839755
 33
0.0
 14
178.8824138406251
 24
657.2924185839755
 34
0.0
1001
ACAD
1000
DSTYLE
1002
{
1070
   287
1070
     5
1070
   279
1070
     2
1002
}
  0
DIMENSION
  5
2D90
  8
DIMENSIONS
  6
BYBLOCK
  2
*D499
 10
476.3824138406251
 20
639.8621628434926
 30
0.0
 11
386.3824138406251
 21
644.0646628434926
 31
0.0
 70
    32
  3
DUAL-DIM
 13
296.3824138406251
 23
657.2924185839755
 33
0.0
 14
476.3824138406251
 24
657.2924185839755
 34
0.0
1001
ACAD
1000
DSTYLE
1002
{
1070
   287
1070
     5
1070
   279
1070
     2
1002
}
  0
DIMENSION
  5
2D9F
  8
DIMENSIONS
  6
BYBLOCK
  2
*D500
 10
479.8824137727635
 20
434.2917293595781
 30
0.0
 11
445.1799144456101
 21
434.2985630194786
 31
0.0
 70
   163
  1
<>
  3
DUAL-DIM
 15
472.8824139084865
 25
434.293107808373
 35
0.0
 40
0.0
1001
ACAD
1000
DSTYLE
1002
{
1070
   287
1070
     3
1070
   279
1070
     0
1002
}
1001
ACAD_DSTYLE_DIMRADIAL_EXT0
1070
   387
1070
     1
1070
   388
1040
0.0
1070
   390
1040
6.283185307179586
  0
POLYLINE
  5
2DAE
  8
0
  6
BYBLOCK
 66
     1
 10
0.0
 20
0.0
 30
0.0
 70
     1
  0
VERTEX
  5
2DCE
  8
0
  6
BYBLOCK
 10
99.97193384428704
 20
371.0613087799424
 30
0.0
  0
VERTEX
  5
2DCF
  8
0
  6
BYBLOCK
 10
99.97193384428704
 20
1085.328490183149
 30
0.0
  0
VERTEX
  5
2DD0
  8
0
  6
BYBLOCK
 10
556.499710057853
 20
1085.328490183149
 30
0.0
  0
VERTEX
  5
2DD1
  8
0
  6
BYBLOCK
 10
556.499710057853
 20
371.0613087799424
 30
0.0
  0
SEQEND
  5
2DD8
  8
0
  6
BYBLOCK
  0
VIEWPORT
  5
B1C
 67
     1
  8
0
 10
5.25
 20
3.5
 30
0.0
 40
12.6
 41
8.4
 68
     1
 69
     1
1001
ACAD
1000
MVIEW
1002
{
1070
    16
1010
0.0
1020
0.0
1030
0.0
1010
0.0
1020
0.0
1030
1.0
1040
0.0
1040
8.4
1040
5.25
1040
3.5
1040
50.0
1040
0.0
1040
0.0
1070
     0
1070
   100
1070
     0
1070
     3
1070
     0
1070
     0
1070
     0
1070
     0
1040
0.0
1040
0.0
1040
0.0
1040
0.5
1040
0.5
1040
0.0
1040
0.0
1070
     0
1002
{
1002
}
1002
}
  0
VIEWPORT
  5
B1D
 67
     1
  8
0
 10
5.25
 20
3.5
 30
0.0
 40
8.4
 41
5.600000000000001
 68
     2
 69
     2
1001
ACAD
1000
MVIEW
1002
{
1070
    16
1010
0.0
1020
0.0
1030
0.0
1010
0.0
1020
0.0
1030
1.0
1040
0.0
1040
278.6419840998563
1040
207.1268606538857
1040
36.27547653054833
1040
50.0
1040
0.0
1040
0.0
1070
     0
1070
   100
1070
     0
1070
     3
1070
     0
1070
     0
1070
     0
1070
     0
1040
0.0
1040
0.0
1040
0.0
1040
0.5
1040
0.5
1040
0.0
1040
0.0
1070
     0
1002
{
1002
}
1002
}
  0
ENDSEC
  0
EOF
