  0
SECTION
  2
HEADER
  9
$ACADVER
  1
AC1027
  9
$ACADMAINTVER
 70
     8
  9
$DWGCODEPAGE
  3
ANSI_1252
  9
$LASTSAVEDBY
  1
darrels
  9
$REQUIREDVERSIONS
160
                 0
  9
$INSBASE
 10
0.0
 20
0.0
 30
0.0
  9
$EXTMIN
 10
264.9190399473127
 20
205.4820274248298
 30
0.0
  9
$EXTMAX
 10
541.1452095874848
 20
720.5412945578697
 30
0.0
  9
$LIMMIN
 10
0.0
 20
0.0
  9
$LIMMAX
 10
594.0
 20
420.0
  9
$ORTHOMODE
 70
     1
  9
$REGENMODE
 70
     1
  9
$FILLMODE
 70
     1
  9
$QTEXTMODE
 70
     0
  9
$MIRRTEXT
 70
     1
  9
$LTSCALE
 40
32.67
  9
$ATTMODE
 70
     1
  9
$TEXTSIZE
 40
0.2
  9
$TRACEWID
 40
0.05
  9
$TEXTSTYLE
  7
STANDARD
  9
$CLAYER
  8
DIMENSIONS
  9
$CELTYPE
  6
ByBlock
  9
$CECOLOR
 62
   256
  9
$CELTSCALE
 40
1.0
  9
$DISPSILH
 70
     0
  9
$DIMSCALE
 40
1.0
  9
$DIMASZ
 40
5.0
  9
$DIMEXO
 40
1.5
  9
$DIMDLI
 40
1.0
  9
$DIMRND
 40
0.0
  9
$DIMDLE
 40
0.0
  9
$DIMEXE
 40
0.18
  9
$DIMTP
 40
0.0
  9
$DIMTM
 40
0.0
  9
$DIMTXT
 40
5.0
  9
$DIMCEN
 40
2.5
  9
$DIMTSZ
 40
0.0
  9
$DIMTOL
 70
     0
  9
$DIMLIM
 70
     0
  9
$DIMTIH
 70
     0
  9
$DIMTOH
 70
     0
  9
$DIMSE1
 70
     0
  9
$DIMSE2
 70
     0
  9
$DIMTAD
 70
     1
  9
$DIMZIN
 70
     8
  9
$DIMBLK
  1

  9
$DIMASO
 70
     1
  9
$DIMSHO
 70
     1
  9
$DIMPOST
  1

  9
$DIMAPOST
  1

  9
$DIMALT
 70
     1
  9
$DIMALTD
 70
     2
  9
$DIMALTF
 40
0.03937
  9
$DIMLFAC
 40
1.0
  9
$DIMTOFL
 70
     0
  9
$DIMTVP
 40
0.0
  9
$DIMTIX
 70
     0
  9
$DIMSOXD
 70
     0
  9
$DIMSAH
 70
     0
  9
$DIMBLK1
  1

  9
$DIMBLK2
  1

  9
$DIMSTYLE
  2
DUAL-DIM
  9
$DIMCLRD
 70
     0
  9
$DIMCLRE
 70
     0
  9
$DIMCLRT
 70
     5
  9
$DIMTFAC
 40
1.0
  9
$DIMGAP
 40
1.0
  9
$DIMJUST
 70
     0
  9
$DIMSD1
 70
     0
  9
$DIMSD2
 70
     0
  9
$DIMTOLJ
 70
     1
  9
$DIMTZIN
 70
     0
  9
$DIMALTZ
 70
     0
  9
$DIMALTTZ
 70
     0
  9
$DIMUPT
 70
     0
  9
$DIMDEC
 70
     4
  9
$DIMTDEC
 70
     4
  9
$DIMALTU
 70
     2
  9
$DIMALTTD
 70
     2
  9
$DIMTXSTY
  7
STANDARD
  9
$DIMAUNIT
 70
     0
  9
$DIMADEC
 70
     0
  9
$DIMALTRND
 40
0.0
  9
$DIMAZIN
 70
     0
  9
$DIMDSEP
 70
    46
  9
$DIMATFIT
 70
     3
  9
$DIMFRAC
 70
     0
  9
$DIMLDRBLK
  1

  9
$DIMLUNIT
 70
     2
  9
$DIMLWD
 70
    -2
  9
$DIMLWE
 70
    -2
  9
$DIMTMOVE
 70
     0
  9
$DIMFXL
 40
1.0
  9
$DIMFXLON
 70
     0
  9
$DIMJOGANG
 40
0.7853981633974483
  9
$DIMTFILL
 70
     0
  9
$DIMTFILLCLR
 70
     0
  9
$DIMARCSYM
 70
     0
  9
$DIMLTYPE
  6

  9
$DIMLTEX1
  6

  9
$DIMLTEX2
  6

  9
$DIMTXTDIRECTION
 70
     0
  9
$LUNITS
 70
     2
  9
$LUPREC
 70
     4
  9
$SKETCHINC
 40
0.1
  9
$FILLETRAD
 40
15.0
  9
$AUNITS
 70
     0
  9
$AUPREC
 70
     0
  9
$MENU
  1
.
  9
$ELEVATION
 40
0.0
  9
$PELEVATION
 40
0.0
  9
$THICKNESS
 40
0.0
  9
$LIMCHECK
 70
     0
  9
$CHAMFERA
 40
0.0
  9
$CHAMFERB
 40
0.0
  9
$CHAMFERC
 40
0.0
  9
$CHAMFERD
 40
0.0
  9
$SKPOLY
 70
     0
  9
$TDCREATE
 40
2457428.396344525
  9
$TDUCREATE
 40
2457428.313011192
  9
$TDUPDATE
 40
2457507.402365139
  9
$TDUUPDATE
 40
2457507.319031806
  9
$TDINDWG
 40
0.0859341551
  9
$TDUSRTIMER
 40
2457431.367531574
  9
$USRTIMER
 70
     1
  9
$ANGBASE
 50
0.0
  9
$ANGDIR
 70
     0
  9
$PDMODE
 70
     3
  9
$PDSIZE
 40
0.3125
  9
$PLINEWID
 40
0.0
  9
$SPLFRAME
 70
     0
  9
$SPLINETYPE
 70
     6
  9
$SPLINESEGS
 70
     8
  9
$HANDSEED
  5
1177
  9
$SURFTAB1
 70
     6
  9
$SURFTAB2
 70
     6
  9
$SURFTYPE
 70
     6
  9
$SURFU
 70
     6
  9
$SURFV
 70
     6
  9
$UCSBASE
  2

  9
$UCSNAME
  2

  9
$UCSORG
 10
0.0
 20
0.0
 30
0.0
  9
$UCSXDIR
 10
1.0
 20
0.0
 30
0.0
  9
$UCSYDIR
 10
0.0
 20
1.0
 30
0.0
  9
$UCSORTHOREF
  2

  9
$UCSORTHOVIEW
 70
     0
  9
$UCSORGTOP
 10
0.0
 20
0.0
 30
0.0
  9
$UCSORGBOTTOM
 10
0.0
 20
0.0
 30
0.0
  9
$UCSORGLEFT
 10
0.0
 20
0.0
 30
0.0
  9
$UCSORGRIGHT
 10
0.0
 20
0.0
 30
0.0
  9
$UCSORGFRONT
 10
0.0
 20
0.0
 30
0.0
  9
$UCSORGBACK
 10
0.0
 20
0.0
 30
0.0
  9
$PUCSBASE
  2

  9
$PUCSNAME
  2

  9
$PUCSORG
 10
0.0
 20
0.0
 30
0.0
  9
$PUCSXDIR
 10
1.0
 20
0.0
 30
0.0
  9
$PUCSYDIR
 10
0.0
 20
1.0
 30
0.0
  9
$PUCSORTHOREF
  2

  9
$PUCSORTHOVIEW
 70
     0
  9
$PUCSORGTOP
 10
0.0
 20
0.0
 30
0.0
  9
$PUCSORGBOTTOM
 10
0.0
 20
0.0
 30
0.0
  9
$PUCSORGLEFT
 10
0.0
 20
0.0
 30
0.0
  9
$PUCSORGRIGHT
 10
0.0
 20
0.0
 30
0.0
  9
$PUCSORGFRONT
 10
0.0
 20
0.0
 30
0.0
  9
$PUCSORGBACK
 10
0.0
 20
0.0
 30
0.0
  9
$USERI1
 70
     0
  9
$USERI2
 70
     0
  9
$USERI3
 70
     0
  9
$USERI4
 70
     0
  9
$USERI5
 70
     0
  9
$USERR1
 40
0.0
  9
$USERR2
 40
0.0
  9
$USERR3
 40
0.0
  9
$USERR4
 40
0.0
  9
$USERR5
 40
0.0
  9
$WORLDVIEW
 70
     1
  9
$SHADEDGE
 70
     3
  9
$SHADEDIF
 70
    70
  9
$TILEMODE
 70
     1
  9
$MAXACTVP
 70
    64
  9
$PINSBASE
 10
0.0
 20
0.0
 30
0.0
  9
$PLIMCHECK
 70
     0
  9
$PEXTMIN
 10
1.000000000000000E+20
 20
1.000000000000000E+20
 30
1.000000000000000E+20
  9
$PEXTMAX
 10
-1.000000000000000E+20
 20
-1.000000000000000E+20
 30
-1.000000000000000E+20
  9
$PLIMMIN
 10
0.0
 20
0.0
  9
$PLIMMAX
 10
0.0
 20
0.0
  9
$UNITMODE
 70
     0
  9
$VISRETAIN
 70
     1
  9
$PLINEGEN
 70
     0
  9
$PSLTSCALE
 70
     1
  9
$TREEDEPTH
 70
  3020
  9
$CMLSTYLE
  2
Standard
  9
$CMLJUST
 70
     0
  9
$CMLSCALE
 40
1.0
  9
$PROXYGRAPHICS
 70
     1
  9
$MEASUREMENT
 70
     0
  9
$CELWEIGHT
370
    -1
  9
$ENDCAPS
280
     0
  9
$JOINSTYLE
280
     0
  9
$LWDISPLAY
290
     0
  9
$INSUNITS
 70
     0
  9
$HYPERLINKBASE
  1

  9
$STYLESHEET
  1
MONOCHROME.CTB
  9
$XEDIT
290
     1
  9
$CEPSNTYPE
380
     0
  9
$PSTYLEMODE
290
     1
  9
$FINGERPRINTGUID
  2
{8421A39F-1DBE-4B1E-915C-54DBABAB017C}
  9
$VERSIONGUID
  2
{BDA8F595-72D0-4AF4-A8B1-ADC681B6141E}
  9
$EXTNAMES
290
     1
  9
$PSVPSCALE
 40
0.0
  9
$OLESTARTUP
290
     0
  9
$SORTENTS
280
   127
  9
$INDEXCTL
280
     0
  9
$HIDETEXT
280
     0
  9
$XCLIPFRAME
280
     2
  9
$HALOGAP
280
     0
  9
$OBSCOLOR
 70
   257
  9
$OBSLTYPE
280
     0
  9
$INTERSECTIONDISPLAY
280
     0
  9
$INTERSECTIONCOLOR
 70
   257
  9
$DIMASSOC
280
     1
  9
$PROJECTNAME
  1

  9
$CAMERADISPLAY
290
     0
  9
$LENSLENGTH
 40
50.0
  9
$CAMERAHEIGHT
 40
0.0
  9
$STEPSPERSEC
 40
2.0
  9
$STEPSIZE
 40
6.0
  9
$3DDWFPREC
 40
2.0
  9
$PSOLWIDTH
 40
0.25
  9
$PSOLHEIGHT
 40
4.0
  9
$LOFTANG1
 40
1.570796326794896
  9
$LOFTANG2
 40
1.570796326794896
  9
$LOFTMAG1
 40
0.0
  9
$LOFTMAG2
 40
0.0
  9
$LOFTPARAM
 70
     7
  9
$LOFTNORMALS
280
     1
  9
$LATITUDE
 40
37.795
  9
$LONGITUDE
 40
-122.394
  9
$NORTHDIRECTION
 40
0.0
  9
$TIMEZONE
 70
 -8000
  9
$LIGHTGLYPHDISPLAY
280
     1
  9
$TILEMODELIGHTSYNCH
280
     1
  9
$CMATERIAL
347
EB3
  9
$SOLIDHIST
280
     0
  9
$SHOWHIST
280
     1
  9
$DWFFRAME
280
     2
  9
$DGNFRAME
280
     0
  9
$REALWORLDSCALE
290
     1
  9
$INTERFERECOLOR
 62
     1
  9
$INTERFEREOBJVS
345
ED5
  9
$INTERFEREVPVS
346
ED2
  9
$CSHADOW
280
     0
  9
$SHADOWPLANELOCATION
 40
0.0
  0
ENDSEC
  0
SECTION
  2
CLASSES
  0
CLASS
  1
ACDBDICTIONARYWDFLT
  2
AcDbDictionaryWithDefault
  3
ObjectDBX Classes
 90
        0
 91
        1
280
     0
281
     0
  0
CLASS
  1
MATERIAL
  2
AcDbMaterial
  3
ObjectDBX Classes
 90
     1153
 91
        3
280
     0
281
     0
  0
CLASS
  1
VISUALSTYLE
  2
AcDbVisualStyle
  3
ObjectDBX Classes
 90
     4095
 91
       24
280
     0
281
     0
  0
CLASS
  1
SCALE
  2
AcDbScale
  3
ObjectDBX Classes
 90
     1153
 91
       17
280
     0
281
     0
  0
CLASS
  1
TABLESTYLE
  2
AcDbTableStyle
  3
ObjectDBX Classes
 90
     4095
 91
        1
280
     0
281
     0
  0
CLASS
  1
MLEADERSTYLE
  2
AcDbMLeaderStyle
  3
ACDB_MLEADERSTYLE_CLASS
 90
     4095
 91
        1
280
     0
281
     0
  0
CLASS
  1
ACDBSECTIONVIEWSTYLE
  2
AcDbSectionViewStyle
  3
ObjectDBX Classes
 90
     1025
 91
        1
280
     0
281
     0
  0
CLASS
  1
ACDBDETAILVIEWSTYLE
  2
AcDbDetailViewStyle
  3
ObjectDBX Classes
 90
     1025
 91
        1
280
     0
281
     0
  0
CLASS
  1
EXACXREFPANELOBJECT
  2
ExAcXREFPanelObject
  3
EXAC_ESW
 90
     1025
 91
        1
280
     0
281
     0
  0
CLASS
  1
NPOCOLLECTION
  2
AcDbImpNonPersistentObjectsCollection
  3
ObjectDBX Classes
 90
     1153
 91
        1
280
     0
281
     0
  0
CLASS
  1
DICTIONARYVAR
  2
AcDbDictionaryVar
  3
ObjectDBX Classes
 90
        0
 91
        9
280
     0
281
     0
  0
CLASS
  1
SORTENTSTABLE
  2
AcDbSortentsTable
  3
ObjectDBX Classes
 90
        0
 91
        1
280
     0
281
     0
  0
CLASS
  1
CELLSTYLEMAP
  2
AcDbCellStyleMap
  3
ObjectDBX Classes
 90
     1152
 91
        2
280
     0
281
     0
  0
CLASS
  1
AMGSETTINGSOBJ
  2
AmgSettingsObj
  3
"AcadM|Product Description: AutoCAD Mechanical|Company: Autodesk, Inc."
 90
     1024
 91
        2
280
     0
281
     0
  0
CLASS
  1
ACME_DOCUMENT
  2
AcMeDbDoc
  3
AcMeServices
 90
     1024
 91
        1
280
     0
281
     0
  0
CLASS
  1
ACMESCOPE
  2
AcMeScope
  3
AcMeServices
 90
     1024
 91
        1
280
     0
281
     0
  0
CLASS
  1
ACMECOMMANDHISTORY
  2
AcMeCommandHistory
  3
AcMeServices
 90
     1024
 91
        1
280
     0
281
     0
  0
CLASS
  1
ACIMSYSVARMAN
  2
AcImSysVarManager
  3
AcMeServices
 90
     1024
 91
        3
280
     0
281
     0
  0
CLASS
  1
ACIMINTSYSVAR
  2
AcImIntSysVar
  3
AcMeServices
 90
     1024
 91
        2
280
     0
281
     0
  0
CLASS
  1
ACMESTATEMGR
  2
AcMeStateMgr
  3
AcMeServices
 90
     1024
 91
        1
280
     0
281
     0
  0
CLASS
  1
ACDBENTITYCACHE
  2
AcMeEntityCache
  3
AcMeServices
 90
     1024
 91
        1
280
     0
281
     0
  0
CLASS
  1
ACGREFMASTER
  2
AcGrefMaster
  3
AcAttribServices
 90
     1024
 91
        1
280
     0
281
     0
  0
CLASS
  1
ACME_DATABASE
  2
AcMeDbDatabase
  3
AcMeServices
 90
     1024
 91
        1
280
     0
281
     0
  0
CLASS
  1
ACRFINSADJUSTERMGR
  2
AcRfInsAdjusterMgr
  3
AcMeServices
 90
     1024
 91
        1
280
     0
281
     0
  0
CLASS
  1
ACGREFACADMASTER
  2
AcGrefacadMaster
  3
AcGrefServices
 90
     1024
 91
        1
280
     0
281
     0
  0
CLASS
  1
AMDTMENUSTATEMGR
  2
AmdtMenuStateMgr
  3
McadcomServices
 90
     1024
 91
        1
280
     0
281
     0
  0
CLASS
  1
AMDTMCOMMENUSTATE
  2
AmdtMcomMenuState
  3
McadcomServices
 90
     1024
 91
        1
280
     0
281
     0
  0
CLASS
  1
AMIMASTER
  2
AmiMaster
  3
AmiServices
 90
     1024
 91
        1
280
     0
281
     0
  0
CLASS
  1
MAPIAMMOUDLE
  2
MApiAmModule
  3
MApiAmServices
 90
     1024
 91
        1
280
     0
281
     0
  0
CLASS
  1
ACIMSTRSYSVAR
  2
AcImStrSysVar
  3
AcMeServices
 90
     1024
 91
        5
280
     0
281
     0
  0
CLASS
  1
AMDTAMMENUSTATE
  2
AmdtAmMenuState
  3
DesignerAssemblies
 90
     1024
 91
        1
280
     0
281
     0
  0
CLASS
  1
ACAMPROJECT
  2
AcAmProject
  3
DesignerAssemblies
 90
     1024
 91
        1
280
     0
281
     0
  0
CLASS
  1
ACAMGRCOMPDEF
  2
AcAmGrCompDef
  3
DesignerAssemblies
 90
     1024
 91
        1
280
     0
281
     0
  0
CLASS
  1
ACAMCOMPDEF
  2
AcAmCompDef
  3
DesignerAssemblies
 90
     1024
 91
        1
280
     0
281
     0
  0
CLASS
  1
ACAMCOMPDEFMGR
  2
AcAmCompDefMgr
  3
DesignerAssemblies
 90
     1024
 91
        1
280
     0
281
     0
  0
CLASS
  1
AMCONTEXTMGR
  2
AcAmContextMgr
  3
DesignerAssemblies
 90
     1024
 91
        1
280
     0
281
     0
  0
CLASS
  1
ACAMCONTEXTMODELER
  2
AcAmContextModeler
  3
DesignerAssemblies
 90
     1024
 91
        1
280
     0
281
     0
  0
CLASS
  1
ACMDATADICTIONARY
  2
AcmDataDictionary
  3
"AcmSymBB|Product Description: AutoCAD Mechanical|Company: Autodesk, Inc."
 90
     1024
 91
        1
280
     0
281
     0
  0
CLASS
  1
ACAMGRCOMPDEFSET
  2
AcAmGrCompDefSet
  3
DesignerAssemblies
 90
     1024
 91
        1
280
     0
281
     0
  0
CLASS
  1
AMDTBROWSERDBTAB
  2
AmdtBrowserDbTab
  3
McadcomServices
 90
     1024
 91
        1
280
     0
281
     0
  0
CLASS
  1
CBROWSERAPPOBJECT
  2
CBrowserAppObject
  3
McadcomServices
 90
     1024
 91
        2
280
     0
281
     0
  0
CLASS
  1
DM_PLACEHOLDER
  2
AcDmSelsetPlaceholder
  3
McadcomServices
 90
     1024
 91
        1
280
     0
281
     0
  0
CLASS
  1
ACMSTANDARDANSI
  2
AcmStandardANSI
  3
"Amdt_StdImp|Product Description: AutoCAD Mechanical|Company: Autodesk, Inc."
 90
     1024
 91
        1
280
     0
281
     0
  0
CLASS
  1
ACMSURFSTANDARDANSI
  2
AcmSurfTextStdANSI
  3
"Amdt_StdImp|Product Description: AutoCAD Mechanical|Company: Autodesk, Inc."
 90
     1024
 91
        1
280
     0
281
     0
  0
CLASS
  1
ACMFCFSTANDARDANSI
  2
AcmFCFStdANSI
  3
"Amdt_StdImp|Product Description: AutoCAD Mechanical|Company: Autodesk, Inc."
 90
     1024
 91
        1
280
     0
281
     0
  0
CLASS
  1
ACMWELDSTANDARDANSI
  2
AcmWeldingStdANSI
  3
"Amdt_StdImp|Product Description: AutoCAD Mechanical|Company: Autodesk, Inc."
 90
     1024
 91
        1
280
     0
281
     0
  0
CLASS
  1
ACMIDSTANDARDANSI
  2
AcmIdStdANSI
  3
"Amdt_StdImp|Product Description: AutoCAD Mechanical|Company: Autodesk, Inc."
 90
     1024
 91
        1
280
     0
281
     0
  0
CLASS
  1
ACMDATUMSTANDARDANSI
  2
AcmDatumStdANSI
  3
"Amdt_StdImp|Product Description: AutoCAD Mechanical|Company: Autodesk, Inc."
 90
     1024
 91
        1
280
     0
281
     0
  0
CLASS
  1
ACMBOMSTANDARDANSI
  2
AcmBOMStdANSI
  3
"Amdt_StdImp|Product Description: AutoCAD Mechanical|Company: Autodesk, Inc."
 90
     1024
 91
        1
280
     0
281
     0
  0
CLASS
  1
ACMDETAILSTANDARDANSI
  2
AmdtDetailSymStdANSI
  3
"Amdt_StdImp|Product Description: AutoCAD Mechanical|Company: Autodesk, Inc."
 90
     1024
 91
        1
280
     0
281
     0
  0
CLASS
  1
ACMSECTIONSTANDARDANSI
  2
AmdtSectionSymStdANSI
  3
"Amdt_StdImp|Product Description: AutoCAD Mechanical|Company: Autodesk, Inc."
 90
     1024
 91
        1
280
     0
281
     0
  0
CLASS
  1
ACMCENTERLINESTANDARDANSI
  2
AmdtCenterLineStdANSI
  3
"Amdt_StdImp|Product Description: AutoCAD Mechanical|Company: Autodesk, Inc."
 90
     1024
 91
        1
280
     0
281
     0
  0
CLASS
  1
ACMTHREADLINESTANDARDANSI
  2
AmdtThreadLineStdANSI
  3
"Amdt_StdImp|Product Description: AutoCAD Mechanical|Company: Autodesk, Inc."
 90
     1024
 91
        1
280
     0
281
     0
  0
CLASS
  1
ACMNOTESTANDARDANSI
  2
AmdtNoteStdANSI
  3
"Amdt_StdImp|Product Description: AutoCAD Mechanical|Company: Autodesk, Inc."
 90
     1024
 91
        1
280
     0
281
     0
  0
CLASS
  1
ACMTAPERSTANDARDANSI
  2
AcmTaperStdANSI
  3
"Amdt_StdImp|Product Description: AutoCAD Mechanical|Company: Autodesk, Inc."
 90
     1024
 91
        1
280
     0
281
     0
  0
CLASS
  1
ACMANOOTATIONVIEWSTANDARDANSI
  2
AmdtAnViewStdANSI
  3
"Amdt_StdImp|Product Description: AutoCAD Mechanical|Company: Autodesk, Inc."
 90
     1024
 91
        1
280
     0
281
     0
  0
CLASS
  1
ACAMGLAYSTD
  2
AcAmgLayStd
  3
"AmgLay|Product Description: AutoCAD Mechanical|Company: Autodesk, Inc."
 90
     1024
 91
        1
280
     0
281
     0
  0
CLASS
  1
ACAMGDIMSTD
  2
AcAmgDimStd
  3
"AmgDim|Product Description: AutoCAD Mechanical|Company: Autodesk, Inc."
 90
     1024
 91
        1
280
     0
281
     0
  0
CLASS
  1
AMGOBJPROPCFG
  2
AmgObjPropCfg
  3
"AmgLay|Product Description: AutoCAD Mechanical|Company: Autodesk, Inc."
 90
     1024
 91
        1
280
     0
281
     0
  0
CLASS
  1
ACAMGHOLECHARTSTDANSI
  2
AcAmgHoleChartStdANSI
  3
AmgDim|Product Description: AutoCAD Mechanical|Company: Autodesk, Inc.
 90
     1024
 91
        1
280
     0
281
     0
  0
CLASS
  1
ACAMGTITLESTD
  2
AcAmgTitleStd
  3
"AmgTitle|Product Description: AutoCAD Mechanical|Company: Autodesk, Inc."
 90
     1024
 91
        1
280
     0
281
     0
  0
CLASS
  1
AMDTNOTETEMPLATEDB
  2
AmdtNoteTemplateDB
  3
AcmSymBB|Product Description: AutoCAD Mechanical|Company: Autodesk, Inc.
 90
     1024
 91
        7
280
     0
281
     0
  0
ENDSEC
  0
SECTION
  2
TABLES
  0
TABLE
  2
VPORT
  5
EAA
330
0
100
AcDbSymbolTable
 70
     1
  0
VPORT
  5
F17
330
EAA
100
AcDbSymbolTableRecord
100
AcDbViewportTableRecord
  2
*ACTIVE
 70
     0
 10
0.0
 20
0.0
 11
1.0
 21
1.0
 12
996.0999667654503
 22
376.9449215777424
 13
0.0
 23
0.0
 14
0.5
 24
0.5
 15
0.5
 25
0.5
 16
0.0
 26
0.0
 36
1.0
 17
0.0
 27
0.0
 37
0.0
 40
1126.015934175727
 41
1.899209486166007
 42
50.0
 43
0.0
 44
0.0
 50
0.0
 51
0.0
 71
    16
 72
   100
 73
     1
 74
     3
 75
     0
 76
     0
 77
     0
 78
     0
281
     0
 65
     0
110
0.0
120
0.0
130
0.0
111
1.0
121
0.0
131
0.0
112
0.0
122
1.0
132
0.0
 79
     0
146
0.0
348
ED1
 60
     3
 61
     5
292
     1
282
     0
141
0.0
142
0.0
 63
   250
421
  3355443
1001
ACAD_NAV_VCDISPLAY
1070
     3
  0
ENDTAB
  0
TABLE
  2
LTYPE
  5
EA7
330
0
100
AcDbSymbolTable
 70
    11
  0
LTYPE
  5
EFC
330
EA7
100
AcDbSymbolTableRecord
100
AcDbLinetypeTableRecord
  2
ByBlock
 70
     0
  3

 72
    65
 73
     0
 40
0.0
  0
LTYPE
  5
EFD
330
EA7
100
AcDbSymbolTableRecord
100
AcDbLinetypeTableRecord
  2
ByLayer
 70
     0
  3

 72
    65
 73
     0
 40
0.0
  0
LTYPE
  5
EFE
330
EA7
100
AcDbSymbolTableRecord
100
AcDbLinetypeTableRecord
  2
CONTINUOUS
 70
     0
  3
Solid line
 72
    65
 73
     0
 40
0.0
  0
LTYPE
  5
F0A
330
EA7
100
AcDbSymbolTableRecord
100
AcDbLinetypeTableRecord
  2
PHANTOM2
 70
     0
  3
Phantom (.5x) ___ _ _ ___ _ _ ___ _ _ ___ _ _
 72
    65
 73
     6
 40
1.25
 49
0.625
 74
     0
 49
-0.125
 74
     0
 49
0.125
 74
     0
 49
-0.125
 74
     0
 49
0.125
 74
     0
 49
-0.125
 74
     0
  0
LTYPE
  5
F18
330
EA7
100
AcDbSymbolTableRecord
100
AcDbLinetypeTableRecord
  2
CENTER
 70
     0
  3
____ _ ____ _ ____ _ ____ _ ____ _ ____ _ ____
 72
    65
 73
     4
 40
0.6
 49
0.375
 74
     0
 49
-0.075
 74
     0
 49
0.075
 74
     0
 49
-0.075
 74
     0
  0
LTYPE
  5
F19
330
EA7
100
AcDbSymbolTableRecord
100
AcDbLinetypeTableRecord
  2
HIDDEN
 70
     0
  3
- - - - - - - - - - - - - - - - - - - -
 72
    65
 73
     2
 40
0.2
 49
0.1
 74
     0
 49
-0.1
 74
     0
  0
LTYPE
  5
F1A
330
EA7
100
AcDbSymbolTableRecord
100
AcDbLinetypeTableRecord
  2
PHANTOM
 70
     0
  3
_____ _ _ _____ _ _ _____ _ _ _____
 72
    65
 73
     6
 40
0.8
 49
0.45
 74
     0
 49
-0.05
 74
     0
 49
0.1
 74
     0
 49
-0.05
 74
     0
 49
0.1
 74
     0
 49
-0.05
 74
     0
  0
LTYPE
  5
F1B
330
EA7
100
AcDbSymbolTableRecord
100
AcDbLinetypeTableRecord
  2
DOT
 70
     0
  3
. . . . . . . . . . . . . . . . . . . .
 72
    65
 73
     2
 40
0.2
 49
0.1
 74
     0
 49
-0.1
 74
     0
  0
LTYPE
  5
F1C
330
EA7
100
AcDbSymbolTableRecord
100
AcDbLinetypeTableRecord
  2
DASHED
 70
     0
  3
- - - - - - - - - - - - - - - - - - - -
 72
    65
 73
     2
 40
0.2
 49
0.1
 74
     0
 49
-0.1
 74
     0
  0
LTYPE
  5
115C
330
EA7
100
AcDbSymbolTableRecord
100
AcDbLinetypeTableRecord
  2
CENTER2
 70
     0
  3
Center (.5x) ___ _ ___ _ ___ _ ___ _ ___ _ ___
 72
    65
 73
     4
 40
1.125
 49
0.75
 74
     0
 49
-0.125
 74
     0
 49
0.125
 74
     0
 49
-0.125
 74
     0
  0
LTYPE
  5
115D
330
EA7
100
AcDbSymbolTableRecord
100
AcDbLinetypeTableRecord
  2
HIDDEN2
 70
     0
  3
Hidden (.5x) _ _ _ _ _ _ _ _ _ _ _ _ _ _ _ _ _
 72
    65
 73
     2
 40
0.1875
 49
0.125
 74
     0
 49
-0.0625
 74
     0
  0
LTYPE
  5
116B
330
EA7
100
AcDbSymbolTableRecord
100
AcDbLinetypeTableRecord
  2
ACANSTGB
 70
     0
  3
__ . . __ . .
 72
    65
 73
     6
 40
0.35433070866
 49
0.15748031496
 74
     0
 49
-0.03937007874
 74
     0
 49
0.03937007874
 74
     0
 49
-0.03937007874
 74
     0
 49
0.03937007874
 74
     0
 49
-0.03937007874
 74
     0
  0
LTYPE
  5
116C
330
EA7
100
AcDbSymbolTableRecord
100
AcDbLinetypeTableRecord
  2
ACANSTGL
 70
     0
  3
_ _ _ _ _
 72
    65
 73
     2
 40
0.11811023622
 49
0.07874015748
 74
     0
 49
-0.03937007874
 74
     0
  0
ENDTAB
  0
TABLE
  2
LAYER
  5
EA4
102
{ACAD_XDICTIONARY
360
10FC
102
}
330
0
100
AcDbSymbolTable
 70
    15
  0
LAYER
  5
EF6
102
{ACAD_XDICTIONARY
360
FDB
102
}
330
EA4
100
AcDbSymbolTableRecord
100
AcDbLayerTableRecord
  2
0
 70
     0
 62
     7
  6
CONTINUOUS
370
    -3
390
EB1
347
EC3
348
0
  0
LAYER
  5
F16
102
{ACAD_XDICTIONARY
360
FDD
102
}
330
EA4
100
AcDbSymbolTableRecord
100
AcDbLayerTableRecord
  2
DIMENSIONS
 70
     0
 62
     2
  6
CONTINUOUS
370
    -3
390
EB1
347
EC3
348
0
  0
LAYER
  5
F1D
102
{ACAD_XDICTIONARY
360
FDF
102
}
330
EA4
100
AcDbSymbolTableRecord
100
AcDbLayerTableRecord
  2
DEFAULT_1
 70
     0
 62
     7
  6
CENTER
370
    -3
390
EB1
347
EC3
348
0
  0
LAYER
  5
F1E
102
{ACAD_XDICTIONARY
360
FE1
102
}
330
EA4
100
AcDbSymbolTableRecord
100
AcDbLayerTableRecord
  2
DEFAULT_2
 70
     0
 62
     8
  6
HIDDEN
370
    -3
390
EB1
347
EC3
348
0
  0
LAYER
  5
F1F
102
{ACAD_XDICTIONARY
360
FE3
102
}
330
EA4
100
AcDbSymbolTableRecord
100
AcDbLayerTableRecord
  2
DEFAULT_3
 70
     0
 62
     7
  6
PHANTOM
370
    -3
390
EB1
347
EC3
348
0
  0
LAYER
  5
F20
102
{ACAD_XDICTIONARY
360
FE5
102
}
330
EA4
100
AcDbSymbolTableRecord
100
AcDbLayerTableRecord
  2
01___PRT_ALL_DTM_PLN
 70
     0
 62
     7
  6
CONTINUOUS
370
    -3
390
EB1
347
EC3
348
0
  0
LAYER
  5
F21
102
{ACAD_XDICTIONARY
360
FE7
102
}
330
EA4
100
AcDbSymbolTableRecord
100
AcDbLayerTableRecord
  2
01___PRT_DEF_DTM_PLN
 70
     0
 62
     7
  6
CONTINUOUS
370
    -3
390
EB1
347
EC3
348
0
  0
LAYER
  5
F22
102
{ACAD_XDICTIONARY
360
FE9
102
}
330
EA4
100
AcDbSymbolTableRecord
100
AcDbLayerTableRecord
  2
02___PRT_ALL_AXES
 70
     0
 62
     7
  6
CONTINUOUS
370
    -3
390
EB1
347
EC3
348
0
  0
LAYER
  5
F23
102
{ACAD_XDICTIONARY
360
FEB
102
}
330
EA4
100
AcDbSymbolTableRecord
100
AcDbLayerTableRecord
  2
03___PRT_ALL_CURVES
 70
     0
 62
     7
  6
CONTINUOUS
370
    -3
390
EB1
347
EC3
348
0
  0
LAYER
  5
F24
102
{ACAD_XDICTIONARY
360
FED
102
}
330
EA4
100
AcDbSymbolTableRecord
100
AcDbLayerTableRecord
  2
04___PRT_ALL_DTM_PNT
 70
     0
 62
     7
  6
CONTINUOUS
370
    -3
390
EB1
347
EC3
348
0
  0
LAYER
  5
F25
102
{ACAD_XDICTIONARY
360
FEF
102
}
330
EA4
100
AcDbSymbolTableRecord
100
AcDbLayerTableRecord
  2
05___PRT_ALL_DTM_CSYS
 70
     0
 62
     7
  6
CONTINUOUS
370
    -3
390
EB1
347
EC3
348
0
  0
LAYER
  5
F26
102
{ACAD_XDICTIONARY
360
FF1
102
}
330
EA4
100
AcDbSymbolTableRecord
100
AcDbLayerTableRecord
  2
05___PRT_DEF_DTM_CSYS
 70
     0
 62
     7
  6
CONTINUOUS
370
    -3
390
EB1
347
EC3
348
0
  0
LAYER
  5
F27
102
{ACAD_XDICTIONARY
360
FF3
102
}
330
EA4
100
AcDbSymbolTableRecord
100
AcDbLayerTableRecord
  2
06___PRT_ALL_SURFS
 70
     0
 62
     7
  6
CONTINUOUS
370
    -3
390
EB1
347
EC3
348
0
  0
LAYER
  5
F28
330
EA4
100
AcDbSymbolTableRecord
100
AcDbLayerTableRecord
  2
DEFPOINTS
 70
     0
 62
     7
  6
CONTINUOUS
290
     0
370
    -3
390
EB1
347
EC3
348
0
  0
LAYER
  5
F29
102
{ACAD_XDICTIONARY
360
FF5
102
}
330
EA4
100
AcDbSymbolTableRecord
100
AcDbLayerTableRecord
  2
AM_5
 70
     0
 62
     3
  6
CONTINUOUS
370
    -3
390
EB1
347
EC3
348
0
  0
ENDTAB
  0
TABLE
  2
STYLE
  5
EA5
330
0
100
AcDbSymbolTable
 70
     5
  0
STYLE
  5
EF7
330
EA5
100
AcDbSymbolTableRecord
100
AcDbTextStyleTableRecord
  2
STANDARD
 70
     0
 40
0.0
 41
1.0
 50
0.0
 71
     0
 42
0.2
  3
arial.ttf
  4

1001
ACAD
1000
Arial
1071
       34
  0
STYLE
  5
EFB
330
EA5
100
AcDbSymbolTableRecord
100
AcDbTextStyleTableRecord
  2
Annotative
 70
     0
 40
0.0
 41
1.0
 50
0.0
 71
     0
 42
0.2
  3
txt
  4

1001
AcadAnnotative
1000
AnnotativeData
1002
{
1070
     1
1070
     1
1002
}
  0
STYLE
  5
F2A
330
EA5
100
AcDbSymbolTableRecord
100
AcDbTextStyleTableRecord
  2
TEXTSTYLE_1
 70
     0
 40
0.0
 41
0.8
 50
0.0
 71
     0
 42
0.2
  3
gdt
  4

  0
STYLE
  5
1169
330
EA5
100
AcDbSymbolTableRecord
100
AcDbTextStyleTableRecord
  2
ACANSTS
 70
     0
 40
1.0
 41
1.0
 50
0.0
 71
     0
 42
0.2
  3
romans.shx
  4

  0
STYLE
  5
116A
330
EA5
100
AcDbSymbolTableRecord
100
AcDbTextStyleTableRecord
  2
ACANSGDT
 70
     0
 40
0.0
 41
1.0
 50
0.0
 71
     0
 42
0.2
  3
amgdt.shx
  4

  0
ENDTAB
  0
TABLE
  2
VIEW
  5
EA8
330
0
100
AcDbSymbolTable
 70
     0
  0
ENDTAB
  0
TABLE
  2
UCS
  5
EA9
330
0
100
AcDbSymbolTable
 70
     0
  0
ENDTAB
  0
TABLE
  2
APPID
  5
EAB
330
0
100
AcDbSymbolTable
 70
    21
  0
APPID
  5
EF8
330
EAB
100
AcDbSymbolTableRecord
100
AcDbRegAppTableRecord
  2
ACAD
 70
     0
  0
APPID
  5
EFF
330
EAB
100
AcDbSymbolTableRecord
100
AcDbRegAppTableRecord
  2
AcadAnnotative
 70
     0
  0
APPID
  5
F2B
330
EAB
100
AcDbSymbolTableRecord
100
AcDbRegAppTableRecord
  2
ACAECLAYERSTANDARD
 70
     0
  0
APPID
  5
F2C
330
EAB
100
AcDbSymbolTableRecord
100
AcDbRegAppTableRecord
  2
ACAD_DSTYLE_DIMRADIAL_EXTE
 70
     0
  0
APPID
  5
F2D
330
EAB
100
AcDbSymbolTableRecord
100
AcDbRegAppTableRecord
  2
ACAD_DSTYLE_DIMJOGGED_JOGA
 70
     0
  0
APPID
  5
F2E
330
EAB
100
AcDbSymbolTableRecord
100
AcDbRegAppTableRecord
  2
ACAD_DSTYLE_DIMJAG
 70
     0
  0
APPID
  5
F2F
330
EAB
100
AcDbSymbolTableRecord
100
AcDbRegAppTableRecord
  2
ACAD_DSTYLE_DIMBREAK
 70
     0
  0
APPID
  5
F30
330
EAB
100
AcDbSymbolTableRecord
100
AcDbRegAppTableRecord
  2
ACAD_PSEXT
 70
     0
  0
APPID
  5
F31
330
EAB
100
AcDbSymbolTableRecord
100
AcDbRegAppTableRecord
  2
ACAD_DSTYLE_DIMINSPECT
 70
     0
  0
APPID
  5
F32
330
EAB
100
AcDbSymbolTableRecord
100
AcDbRegAppTableRecord
  2
ACAD_DSTYLE_DIMRADIAL_EXT0
 70
     0
  0
APPID
  5
F33
330
EAB
100
AcDbSymbolTableRecord
100
AcDbRegAppTableRecord
  2
ACAD_DSTYLE_DIMJOGGED_JOG0
 70
     0
  0
APPID
  5
FC0
330
EAB
100
AcDbSymbolTableRecord
100
AcDbRegAppTableRecord
  2
ACAD_EXEMPT_FROM_CAD_STANDARDS
 70
     0
  0
APPID
  5
FCD
330
EAB
100
AcDbSymbolTableRecord
100
AcDbRegAppTableRecord
  2
GradientColor1ACI
 70
     0
  0
APPID
  5
FCE
330
EAB
100
AcDbSymbolTableRecord
100
AcDbRegAppTableRecord
  2
GradientColor2ACI
 70
     0
  0
APPID
  5
FD0
330
EAB
100
AcDbSymbolTableRecord
100
AcDbRegAppTableRecord
  2
ACAD_NAV_VCDISPLAY
 70
     0
  0
APPID
  5
1014
330
EAB
100
AcDbSymbolTableRecord
100
AcDbRegAppTableRecord
  2
AcadAnnoMonitorAlertIconDisabled
 70
     0
  0
APPID
  5
1056
330
EAB
100
AcDbSymbolTableRecord
100
AcDbRegAppTableRecord
  2
ACAD_DSTYLE_DIMTALN
 70
     0
  0
APPID
  5
111C
330
EAB
100
AcDbSymbolTableRecord
100
AcDbRegAppTableRecord
  2
MCAD_NO_VIS
 70
     0
  0
APPID
  5
111D
330
EAB
100
AcDbSymbolTableRecord
100
AcDbRegAppTableRecord
  2
ACAD_TEMP_GRAPHIC
 70
     0
  0
APPID
  5
1127
330
EAB
100
AcDbSymbolTableRecord
100
AcDbRegAppTableRecord
  2
ACATTRIBSERVICES
 70
     0
  0
APPID
  5
113F
330
EAB
100
AcDbSymbolTableRecord
100
AcDbRegAppTableRecord
  2
DESIGNERASSEMBLIES
 70
     0
  0
ENDTAB
  0
TABLE
  2
DIMSTYLE
  5
EAC
330
0
100
AcDbSymbolTable
 70
    12
100
AcDbDimStyleTable
 71
     1
340
F34
  0
DIMSTYLE
105
EF9
330
EAC
100
AcDbSymbolTableRecord
100
AcDbDimStyleTableRecord
  2
STANDARD
 70
     0
279
     2
284
     8
285
     8
286
     8
340
EF7
  0
DIMSTYLE
105
EFA
330
EAC
100
AcDbSymbolTableRecord
100
AcDbDimStyleTableRecord
  2
Annotative
 70
     0
340
EF7
1001
AcadAnnotative
1000
AnnotativeData
1002
{
1070
     1
1070
     1
1002
}
  0
DIMSTYLE
105
F34
102
{ACAD_REACTORS
330
E22
330
E31
330
E40
330
E4F
330
E5E
330
E6D
330
E7C
330
E8E
102
}
330
EAC
100
AcDbSymbolTableRecord
100
AcDbDimStyleTableRecord
  2
DUAL-DIM
 70
     0
 41
5.0
 42
1.5
 43
1.0
 73
     0
 74
     0
 77
     1
 78
     8
140
5.0
141
2.5
143
0.03937
147
1.0
170
     1
178
     5
279
     2
284
     8
285
     8
286
     8
340
EF7
1001
ACAD_DSTYLE_DIMJAG
1070
   388
1040
1.5
1001
ACAD_DSTYLE_DIMTALN
1070
   392
1070
     0
  0
DIMSTYLE
105
F35
330
EAC
100
AcDbSymbolTableRecord
100
AcDbDimStyleTableRecord
  2
AM_ISO
 70
     0
  4
"
 41
3.5
 42
1.0
 43
10.0
 44
1.0
 47
0.1
 48
0.1
 73
     0
 74
     0
 77
     1
 78
     8
140
3.5
141
0.0
143
0.0393701
146
0.71
147
1.5
172
     1
176
   256
177
   256
178
     2
279
     2
284
     8
285
     8
286
     8
340
EF7
  0
DIMSTYLE
105
F36
330
EAC
100
AcDbSymbolTableRecord
100
AcDbDimStyleTableRecord
  2
AM_ISO$3
 70
     0
  4
"
 41
3.5
 42
1.0
 43
10.0
 44
1.0
 47
0.1
 48
0.1
 73
     0
 77
     1
 78
     8
140
3.5
141
0.0
143
0.0393701
146
0.71
147
1.5
176
   256
177
   256
178
     2
279
     2
284
     8
285
     8
286
     8
340
EF7
  0
DIMSTYLE
105
F37
330
EAC
100
AcDbSymbolTableRecord
100
AcDbDimStyleTableRecord
  2
AM_ISO$0
 70
     0
  4
"
 41
3.5
 42
1.0
 43
10.0
 44
1.0
 47
0.1
 48
0.1
 73
     0
 74
     0
 77
     1
 78
     8
140
3.5
141
0.0
143
0.0393701
146
0.71
147
1.5
172
     1
176
   256
177
   256
178
     2
279
     2
284
     8
285
     8
286
     8
340
EF7
  0
DIMSTYLE
105
115A
102
{ACAD_REACTORS
330
114A
102
}
330
EAC
100
AcDbSymbolTableRecord
100
AcDbDimStyleTableRecord
  2
AM_ANSI
 70
     0
  4
mm
 41
0.12
 42
0.05
 43
0.5
 44
0.1
 47
0.1
 48
0.1
 78
     7
 79
     2
 90
     1
140
0.12
141
0.0
146
0.71
147
0.06
176
   256
177
   256
178
     2
274
     4
284
     7
340
EF7
345
EFC
346
EFC
347
EFC
371
    -1
372
    -1
1001
ACAD_DSTYLE_DIMJAG
1070
   388
1040
1.5
1001
ACAD_DSTYLE_DIMBREAK
1070
   391
1040
0.125
  0
DIMSTYLE
105
115E
330
EAC
100
AcDbSymbolTableRecord
100
AcDbDimStyleTableRecord
  2
AM_ANSI$3
 70
     0
  4
mm
 41
0.12
 42
0.05
 43
0.5
 44
0.1
 47
0.1
 48
0.1
 78
     7
 79
     2
 90
     1
140
0.12
141
0.0
146
0.71
147
0.06
176
   256
177
   256
178
     2
274
     4
284
     7
288
     1
289
     0
340
EF7
345
EFC
346
EFC
347
EFC
371
    -1
372
    -1
1001
ACAD_DSTYLE_DIMBREAK
1070
   391
1040
0.125
1001
ACAD_DSTYLE_DIMJAG
1070
   388
1040
1.5
  0
DIMSTYLE
105
115F
330
EAC
100
AcDbSymbolTableRecord
100
AcDbDimStyleTableRecord
  2
AM_ANSI$4
 70
     0
  4
mm
 41
0.12
 42
0.05
 43
0.5
 44
0.1
 47
0.1
 48
0.1
 78
     7
 79
     2
 90
     1
140
0.12
141
0.0
146
0.71
147
0.06
176
   256
177
   256
178
     2
274
     4
284
     7
288
     1
289
     0
340
EF7
345
EFC
346
EFC
347
EFC
371
    -1
372
    -1
1001
ACAD_DSTYLE_DIMBREAK
1070
   391
1040
0.125
1001
ACAD_DSTYLE_DIMJAG
1070
   388
1040
1.5
  0
DIMSTYLE
105
1160
330
EAC
100
AcDbSymbolTableRecord
100
AcDbDimStyleTableRecord
  2
AM_ANSI$7
 70
     0
  4
mm
 41
0.12
 42
0.05
 43
0.5
 44
0.1
 47
0.1
 48
0.1
 78
     7
 79
     2
 90
     1
140
0.12
141
0.0
146
0.71
147
0.06
176
   256
177
   256
178
     2
274
     4
284
     7
340
EF7
345
EFC
346
EFC
347
EFC
371
    -1
372
    -1
1001
ACAD_DSTYLE_DIMBREAK
1070
   391
1040
0.125
1001
ACAD_DSTYLE_DIMJAG
1070
   388
1040
1.5
  0
DIMSTYLE
105
1161
330
EAC
100
AcDbSymbolTableRecord
100
AcDbDimStyleTableRecord
  2
AM_ANSI$SF
 70
     0
  4
mm
 41
0.12
 42
0.05
 43
0.5
 44
0.1
 47
0.1
 48
0.1
 75
     1
 76
     1
 78
     7
 79
     2
 90
     1
140
0.12
141
0.0
146
0.71
147
0.06
176
   256
177
   256
178
     2
274
     4
284
     7
340
EF7
345
EFC
346
EFC
347
EFC
371
    -1
372
    -1
1001
ACAD_DSTYLE_DIMBREAK
1070
   391
1040
0.125
1001
ACAD_DSTYLE_DIMJAG
1070
   388
1040
1.5
  0
DIMSTYLE
105
1166
330
EAC
100
AcDbSymbolTableRecord
100
AcDbDimStyleTableRecord
  2
AM_ANSI$SH
 70
     0
  4
mm
 41
0.12
 42
0.05
 43
0.5
 44
0.1
 47
0.1
 48
0.1
 75
     1
 76
     1
 78
     7
 79
     2
 90
     1
140
0.12
141
0.0
146
0.71
147
0.06
173
     1
176
   256
177
   256
178
     2
274
     4
284
     7
340
EF7
343
1162
345
EFC
346
EFC
347
EFC
371
    -1
372
    -1
1001
ACAD_DSTYLE_DIMBREAK
1070
   391
1040
0.125
1001
ACAD_DSTYLE_DIMJAG
1070
   388
1040
1.5
  0
ENDTAB
  0
TABLE
  2
BLOCK_RECORD
  5
EA3
330
0
100
AcDbSymbolTable
 70
    24
  0
BLOCK_RECORD
  5
F12
102
{ACAD_XDICTIONARY
360
FD2
102
}
330
EA3
100
AcDbSymbolTableRecord
100
AcDbBlockTableRecord
  2
*Model_Space
340
F15
 70
     0
280
     1
281
     0
  0
BLOCK_RECORD
  5
F0E
330
EA3
100
AcDbSymbolTableRecord
100
AcDbBlockTableRecord
  2
*Paper_Space
340
F11
 70
     0
280
     1
281
     0
  0
BLOCK_RECORD
  5
F3B
330
EA3
100
AcDbSymbolTableRecord
100
AcDbBlockTableRecord
  2
$MODEL_SPACE
340
0
 70
     0
280
     1
281
     0
  0
BLOCK_RECORD
  5
F3D
330
EA3
100
AcDbSymbolTableRecord
100
AcDbBlockTableRecord
  2
$PAPER_SPACE
340
0
 70
     0
280
     1
281
     0
  0
BLOCK_RECORD
  5
F3F
330
EA3
100
AcDbSymbolTableRecord
100
AcDbBlockTableRecord
  2
_FILLED
340
0
 70
     0
280
     1
281
     0
  0
BLOCK_RECORD
  5
F41
330
EA3
100
AcDbSymbolTableRecord
100
AcDbBlockTableRecord
  2
*D3
340
0
 70
     0
280
     1
281
     0
  0
BLOCK_RECORD
  5
F43
330
EA3
100
AcDbSymbolTableRecord
100
AcDbBlockTableRecord
  2
*D4
340
0
 70
     0
280
     1
281
     0
  0
BLOCK_RECORD
  5
F45
330
EA3
100
AcDbSymbolTableRecord
100
AcDbBlockTableRecord
  2
*D5
340
0
 70
     0
280
     1
281
     0
  0
BLOCK_RECORD
  5
F47
330
EA3
100
AcDbSymbolTableRecord
100
AcDbBlockTableRecord
  2
*D6
340
0
 70
     0
280
     1
281
     0
  0
BLOCK_RECORD
  5
F49
330
EA3
100
AcDbSymbolTableRecord
100
AcDbBlockTableRecord
  2
*D7
340
0
 70
     0
280
     1
281
     0
  0
BLOCK_RECORD
  5
F4B
330
EA3
100
AcDbSymbolTableRecord
100
AcDbBlockTableRecord
  2
*D8
340
0
 70
     0
280
     1
281
     0
  0
BLOCK_RECORD
  5
F4D
330
EA3
100
AcDbSymbolTableRecord
100
AcDbBlockTableRecord
  2
*D9
340
0
 70
     0
280
     1
281
     0
  0
BLOCK_RECORD
  5
F4F
330
EA3
100
AcDbSymbolTableRecord
100
AcDbBlockTableRecord
  2
*D10
340
0
 70
     0
280
     1
281
     0
  0
BLOCK_RECORD
  5
F51
330
EA3
100
AcDbSymbolTableRecord
100
AcDbBlockTableRecord
  2
*D11
340
0
 70
     0
280
     1
281
     0
  0
BLOCK_RECORD
  5
F53
330
EA3
100
AcDbSymbolTableRecord
100
AcDbBlockTableRecord
  2
*D12
340
0
 70
     0
280
     1
281
     0
  0
BLOCK_RECORD
  5
F55
330
EA3
100
AcDbSymbolTableRecord
100
AcDbBlockTableRecord
  2
*D13
340
0
 70
     0
280
     1
281
     0
  0
BLOCK_RECORD
  5
F57
330
EA3
100
AcDbSymbolTableRecord
100
AcDbBlockTableRecord
  2
*D14
340
0
 70
     0
280
     1
281
     0
  0
BLOCK_RECORD
  5
F59
330
EA3
100
AcDbSymbolTableRecord
100
AcDbBlockTableRecord
  2
*D15
340
0
 70
     0
280
     1
281
     0
  0
BLOCK_RECORD
  5
F5B
330
EA3
100
AcDbSymbolTableRecord
100
AcDbBlockTableRecord
  2
*D16
340
0
 70
     0
280
     1
281
     0
  0
BLOCK_RECORD
  5
F5D
330
EA3
100
AcDbSymbolTableRecord
100
AcDbBlockTableRecord
  2
*D17
340
0
 70
     0
280
     1
281
     0
  0
BLOCK_RECORD
  5
F5F
330
EA3
100
AcDbSymbolTableRecord
100
AcDbBlockTableRecord
  2
*D18
340
0
 70
     0
280
     1
281
     0
  0
BLOCK_RECORD
  5
F61
330
EA3
100
AcDbSymbolTableRecord
100
AcDbBlockTableRecord
  2
*D19
340
0
 70
     0
280
     1
281
     0
  0
BLOCK_RECORD
  5
F63
330
EA3
100
AcDbSymbolTableRecord
100
AcDbBlockTableRecord
  2
*D20
340
0
 70
     0
280
     1
281
     0
  0
BLOCK_RECORD
  5
F65
330
EA3
100
AcDbSymbolTableRecord
100
AcDbBlockTableRecord
  2
*D21
340
0
 70
     0
280
     1
281
     0
  0
BLOCK_RECORD
  5
1162
330
EA3
100
AcDbSymbolTableRecord
100
AcDbBlockTableRecord
  2
GENAXEH
340
0
 70
     0
280
     1
281
     0
  0
ENDTAB
  0
ENDSEC
  0
SECTION
  2
BLOCKS
  0
BLOCK
  5
F13
330
F12
100
AcDbEntity
  8
0
100
AcDbBlockBegin
  2
*Model_Space
 70
     0
 10
0.0
 20
0.0
 30
0.0
  3
*Model_Space
  1

  0
ENDBLK
  5
F14
330
F12
100
AcDbEntity
  8
0
100
AcDbBlockEnd
  0
BLOCK
  5
F0F
330
F0E
100
AcDbEntity
 67
     1
  8
0
100
AcDbBlockBegin
  2
*Paper_Space
 70
     0
 10
0.0
 20
0.0
 30
0.0
  3
*Paper_Space
  1

  0
ENDBLK
  5
F10
330
F0E
100
AcDbEntity
 67
     1
  8
0
100
AcDbBlockEnd
  0
BLOCK
  5
F3C
330
F3B
100
AcDbEntity
  8
0
100
AcDbBlockBegin
  2
$MODEL_SPACE
 70
     0
 10
0.0
 20
0.0
 30
0.0
  3
$MODEL_SPACE
  1

  0
ENDBLK
  5
110
330
F3B
100
AcDbEntity
  8
0
100
AcDbBlockEnd
  0
BLOCK
  5
F3E
330
F3D
100
AcDbEntity
  8
0
100
AcDbBlockBegin
  2
$PAPER_SPACE
 70
     0
 10
0.0
 20
0.0
 30
0.0
  3
$PAPER_SPACE
  1

  0
ENDBLK
  5
112
330
F3D
100
AcDbEntity
  8
0
100
AcDbBlockEnd
  0
BLOCK
  5
F40
330
F3F
100
AcDbEntity
  8
0
100
AcDbBlockBegin
  2
_FILLED
 70
     0
 10
0.0
 20
0.0
 30
0.0
  3
_FILLED
  1

  0
SOLID
  5
3D
330
F3F
100
AcDbEntity
  8
0
  6
ByBlock
 62
     0
100
AcDbTrace
 10
0.0
 20
0.0
 30
0.0
 11
-1.0
 21
0.2
 31
0.0
 12
-1.0
 22
-0.2
 32
0.0
 13
-1.0
 23
-0.2
 33
0.0
  0
ENDBLK
  5
3E
330
F3F
100
AcDbEntity
  8
0
  6
ByBlock
 62
     0
100
AcDbBlockEnd
  0
BLOCK
  5
F42
330
F41
100
AcDbEntity
  8
0
100
AcDbBlockBegin
  2
*D3
 70
     1
 10
0.0
 20
0.0
 30
0.0
  3
*D3
  1

  0
LINE
  5
D33
330
F41
100
AcDbEntity
  8
DIMENSIONS
  6
ByBlock
 62
     0
100
AcDbLine
 10
144.2831013431949
 20
230.9690674582473
 30
0.0
 11
144.2831013431949
 21
265.8112060225714
 31
0.0
  0
LINE
  5
D34
330
F41
100
AcDbEntity
  8
DIMENSIONS
  6
ByBlock
 62
     0
100
AcDbLine
 10
414.2831013431948
 20
230.9690674582473
 30
0.0
 11
414.2831013431948
 21
265.8112060225714
 31
0.0
  0
LINE
  5
D35
330
F41
100
AcDbEntity
  8
DIMENSIONS
  6
ByBlock
 62
     0
100
AcDbLine
 10
149.2831013431949
 20
265.6312060225714
 30
0.0
 11
409.2831013431948
 21
265.6312060225714
 31
0.0
  0
SOLID
  5
D36
330
F41
100
AcDbEntity
  8
DIMENSIONS
 62
     0
100
AcDbTrace
 10
149.2831013431949
 20
266.4645393559047
 30
0.0
 11
149.2831013431949
 21
264.7978726892381
 31
0.0
 12
144.2831013431949
 22
265.6312060225714
 32
0.0
 13
144.2831013431949
 23
265.6312060225714
 33
0.0
  0
SOLID
  5
D37
330
F41
100
AcDbEntity
  8
DIMENSIONS
 62
     0
100
AcDbTrace
 10
409.2831013431948
 20
264.7978726892381
 30
0.0
 11
409.2831013431948
 21
266.4645393559047
 31
0.0
 12
414.2831013431948
 22
265.6312060225714
 32
0.0
 13
414.2831013431948
 23
265.6312060225714
 33
0.0
  0
TEXT
  5
D38
330
F41
100
AcDbEntity
  8
DIMENSIONS
  6
Continuous
 62
     5
100
AcDbText
 10
261.9481013431949
 20
268.0262060225714
 30
0.0
 40
5.0
  1
270 [10.63]
100
AcDbText
  0
POINT
  5
D39
330
F41
100
AcDbEntity
  8
DEFPOINTS
 62
     0
100
AcDbPoint
 10
144.2831013431949
 20
229.4690674582473
 30
0.0
  0
POINT
  5
D3A
330
F41
100
AcDbEntity
  8
DEFPOINTS
 62
     0
100
AcDbPoint
 10
414.2831013431948
 20
229.4690674582473
 30
0.0
  0
POINT
  5
D3B
330
F41
100
AcDbEntity
  8
DEFPOINTS
 62
     0
100
AcDbPoint
 10
414.2831013431948
 20
265.6312060225714
 30
0.0
  0
ENDBLK
  5
D32
330
F41
100
AcDbEntity
  8
0
100
AcDbBlockEnd
  0
BLOCK
  5
F44
330
F43
100
AcDbEntity
  8
0
100
AcDbBlockBegin
  2
*D4
 70
     1
 10
0.0
 20
0.0
 30
0.0
  3
*D4
  1

  0
LINE
  5
D42
330
F43
100
AcDbEntity
  8
DIMENSIONS
  6
ByBlock
 62
     0
100
AcDbLine
 10
128.2831013431949
 20
248.9690674582487
 30
0.0
 11
128.2831013431949
 21
298.2705859303356
 31
0.0
  0
LINE
  5
D43
330
F43
100
AcDbEntity
  8
DIMENSIONS
  6
ByBlock
 62
     0
100
AcDbLine
 10
430.2831013431948
 20
248.9690674582487
 30
0.0
 11
430.2831013431948
 21
298.2705859303356
 31
0.0
  0
LINE
  5
D44
330
F43
100
AcDbEntity
  8
DIMENSIONS
  6
ByBlock
 62
     0
100
AcDbLine
 10
133.2831013431949
 20
298.0905859303356
 30
0.0
 11
425.2831013431948
 21
298.0905859303356
 31
0.0
  0
SOLID
  5
D45
330
F43
100
AcDbEntity
  8
DIMENSIONS
 62
     0
100
AcDbTrace
 10
133.2831013431949
 20
298.9239192636688
 30
0.0
 11
133.2831013431949
 21
297.2572525970023
 31
0.0
 12
128.2831013431949
 22
298.0905859303356
 32
0.0
 13
128.2831013431949
 23
298.0905859303356
 33
0.0
  0
SOLID
  5
D46
330
F43
100
AcDbEntity
  8
DIMENSIONS
 62
     0
100
AcDbTrace
 10
425.2831013431948
 20
297.2572525970023
 30
0.0
 11
425.2831013431948
 21
298.9239192636688
 31
0.0
 12
430.2831013431948
 22
298.0905859303356
 32
0.0
 13
430.2831013431948
 23
298.0905859303356
 33
0.0
  0
TEXT
  5
D47
330
F43
100
AcDbEntity
  8
DIMENSIONS
  6
Continuous
 62
     5
100
AcDbText
 10
261.9031013431949
 20
300.4855859303356
 30
0.0
 40
5.0
  1
302 [11.89]
100
AcDbText
  0
POINT
  5
D48
330
F43
100
AcDbEntity
  8
DEFPOINTS
 62
     0
100
AcDbPoint
 10
128.2831013431949
 20
247.4690674582487
 30
0.0
  0
POINT
  5
D49
330
F43
100
AcDbEntity
  8
DEFPOINTS
 62
     0
100
AcDbPoint
 10
430.2831013431948
 20
247.4690674582487
 30
0.0
  0
POINT
  5
D4A
330
F43
100
AcDbEntity
  8
DEFPOINTS
 62
     0
100
AcDbPoint
 10
430.2831013431948
 20
298.0905859303356
 30
0.0
  0
ENDBLK
  5
D41
330
F43
100
AcDbEntity
  8
0
100
AcDbBlockEnd
  0
BLOCK
  5
F46
330
F45
100
AcDbEntity
  8
0
100
AcDbBlockBegin
  2
*D5
 70
     1
 10
0.0
 20
0.0
 30
0.0
  3
*D5
  1

  0
LINE
  5
D51
330
F45
100
AcDbEntity
  8
DIMENSIONS
  6
ByBlock
 62
     0
100
AcDbLine
 10
135.2831013431949
 20
174.4690674582473
 30
0.0
 11
112.2169976162451
 21
174.4690674582473
 31
0.0
  0
LINE
  5
D52
330
F45
100
AcDbEntity
  8
DIMENSIONS
  6
ByBlock
 62
     0
100
AcDbLine
 10
135.2831013431949
 20
14.46906745824731
 30
0.0
 11
112.216997616245
 21
14.46906745824731
 31
0.0
  0
LINE
  5
D53
330
F45
100
AcDbEntity
  8
DIMENSIONS
  6
ByBlock
 62
     0
100
AcDbLine
 10
112.3969976162451
 20
169.4690674582473
 30
0.0
 11
112.396997616245
 21
19.46906745824731
 31
0.0
  0
SOLID
  5
D54
330
F45
100
AcDbEntity
  8
DIMENSIONS
 62
     0
100
AcDbTrace
 10
113.2303309495784
 20
169.4690674582473
 30
0.0
 11
111.5636642829117
 21
169.4690674582473
 31
0.0
 12
112.3969976162451
 22
174.4690674582473
 32
0.0
 13
112.3969976162451
 23
174.4690674582473
 33
0.0
  0
SOLID
  5
D55
330
F45
100
AcDbEntity
  8
DIMENSIONS
 62
     0
100
AcDbTrace
 10
111.5636642829117
 20
19.46906745824731
 30
0.0
 11
113.2303309495784
 21
19.46906745824731
 31
0.0
 12
112.396997616245
 22
14.46906745824731
 32
0.0
 13
112.396997616245
 23
14.46906745824731
 33
0.0
  0
TEXT
  5
D56
330
F45
100
AcDbEntity
  8
DIMENSIONS
  6
Continuous
 62
     5
100
AcDbText
 10
110.001997616245
 20
78.79656745824731
 30
0.0
 40
5.0
  1
160 [6.30]
 50
90.0
100
AcDbText
  0
POINT
  5
D57
330
F45
100
AcDbEntity
  8
DEFPOINTS
 62
     0
100
AcDbPoint
 10
136.7831013431949
 20
174.4690674582473
 30
0.0
  0
POINT
  5
D58
330
F45
100
AcDbEntity
  8
DEFPOINTS
 62
     0
100
AcDbPoint
 10
136.7831013431949
 20
14.46906745824731
 30
0.0
  0
POINT
  5
D59
330
F45
100
AcDbEntity
  8
DEFPOINTS
 62
     0
100
AcDbPoint
 10
112.396997616245
 20
14.46906745824731
 30
0.0
  0
ENDBLK
  5
D50
330
F45
100
AcDbEntity
  8
0
100
AcDbBlockEnd
  0
BLOCK
  5
F48
330
F47
100
AcDbEntity
  8
0
100
AcDbBlockBegin
  2
*D6
 70
     1
 10
0.0
 20
0.0
 30
0.0
  3
*D6
  1

  0
LINE
  5
D60
330
F47
100
AcDbEntity
  8
DIMENSIONS
  6
ByBlock
 62
     0
100
AcDbLine
 10
142.7831013431949
 20
229.4690674582473
 30
0.0
 11
93.84306316453331
 21
229.4690674582473
 31
0.0
  0
LINE
  5
D61
330
F47
100
AcDbEntity
  8
DIMENSIONS
  6
ByBlock
 62
     0
100
AcDbLine
 10
142.7831013431949
 20
-40.53093254175268
 30
0.0
 11
93.84306316453328
 21
-40.53093254175268
 31
0.0
  0
LINE
  5
D62
330
F47
100
AcDbEntity
  8
DIMENSIONS
  6
ByBlock
 62
     0
100
AcDbLine
 10
94.02306316453332
 20
224.4690674582473
 30
0.0
 11
94.02306316453332
 21
-35.53093254175268
 31
0.0
  0
SOLID
  5
D63
330
F47
100
AcDbEntity
  8
DIMENSIONS
 62
     0
100
AcDbTrace
 10
94.85639649786666
 20
224.4690674582473
 30
0.0
 11
93.18972983120001
 21
224.4690674582473
 31
0.0
 12
94.02306316453332
 22
229.4690674582473
 32
0.0
 13
94.02306316453332
 23
229.4690674582473
 33
0.0
  0
SOLID
  5
D64
330
F47
100
AcDbEntity
  8
DIMENSIONS
 62
     0
100
AcDbTrace
 10
93.18972983119998
 20
-35.53093254175268
 30
0.0
 11
94.85639649786666
 21
-35.53093254175268
 31
0.0
 12
94.02306316453332
 22
-40.53093254175268
 32
0.0
 13
94.02306316453332
 23
-40.53093254175268
 33
0.0
  0
TEXT
  5
D65
330
F47
100
AcDbEntity
  8
DIMENSIONS
  6
Continuous
 62
     5
100
AcDbText
 10
91.62806316453332
 20
77.13406745824731
 30
0.0
 40
5.0
  1
270 [10.63]
 50
90.0
100
AcDbText
  0
POINT
  5
D66
330
F47
100
AcDbEntity
  8
DEFPOINTS
 62
     0
100
AcDbPoint
 10
144.2831013431949
 20
229.4690674582473
 30
0.0
  0
POINT
  5
D67
330
F47
100
AcDbEntity
  8
DEFPOINTS
 62
     0
100
AcDbPoint
 10
144.2831013431949
 20
-40.53093254175268
 30
0.0
  0
POINT
  5
D68
330
F47
100
AcDbEntity
  8
DEFPOINTS
 62
     0
100
AcDbPoint
 10
94.02306316453332
 20
-40.53093254175268
 30
0.0
  0
ENDBLK
  5
D5F
330
F47
100
AcDbEntity
  8
0
100
AcDbBlockEnd
  0
BLOCK
  5
F4A
330
F49
100
AcDbEntity
  8
0
100
AcDbBlockBegin
  2
*D7
 70
     1
 10
0.0
 20
0.0
 30
0.0
  3
*D7
  1

  0
LINE
  5
D6F
330
F49
100
AcDbEntity
  8
DIMENSIONS
  6
ByBlock
 62
     0
100
AcDbLine
 10
277.7831013431949
 20
-48.03093254175269
 30
0.0
 11
75.61612018843527
 21
-48.03093254175269
 31
0.0
  0
LINE
  5
D70
330
F49
100
AcDbEntity
  8
DIMENSIONS
  6
ByBlock
 62
     0
100
AcDbLine
 10
277.7831013431949
 20
236.9690674582473
 30
0.0
 11
75.61612018843527
 21
236.9690674582473
 31
0.0
  0
LINE
  5
D71
330
F49
100
AcDbEntity
  8
DIMENSIONS
  6
ByBlock
 62
     0
100
AcDbLine
 10
75.79612018843526
 20
-43.03093254175268
 30
0.0
 11
75.79612018843528
 21
231.9690674582473
 31
0.0
  0
SOLID
  5
D72
330
F49
100
AcDbEntity
  8
DIMENSIONS
 62
     0
100
AcDbTrace
 10
74.96278685510194
 20
-43.03093254175268
 30
0.0
 11
76.62945352176858
 21
-43.03093254175268
 31
0.0
 12
75.79612018843526
 22
-48.03093254175269
 32
0.0
 13
75.79612018843526
 23
-48.03093254175269
 33
0.0
  0
SOLID
  5
D73
330
F49
100
AcDbEntity
  8
DIMENSIONS
 62
     0
100
AcDbTrace
 10
76.62945352176861
 20
231.9690674582473
 30
0.0
 11
74.96278685510195
 21
231.9690674582473
 31
0.0
 12
75.79612018843528
 22
236.9690674582473
 32
0.0
 13
75.79612018843528
 23
236.9690674582473
 33
0.0
  0
TEXT
  5
D74
330
F49
100
AcDbEntity
  8
DIMENSIONS
  6
Continuous
 62
     5
100
AcDbText
 10
73.4011201884353
 20
77.13406745824733
 30
0.0
 40
5.0
  1
285 [11.22]
 50
90.0
100
AcDbText
  0
POINT
  5
D75
330
F49
100
AcDbEntity
  8
DEFPOINTS
 62
     0
100
AcDbPoint
 10
279.2831013431949
 20
-48.03093254175269
 30
0.0
  0
POINT
  5
D76
330
F49
100
AcDbEntity
  8
DEFPOINTS
 62
     0
100
AcDbPoint
 10
279.2831013431949
 20
236.9690674582473
 30
0.0
  0
POINT
  5
D77
330
F49
100
AcDbEntity
  8
DEFPOINTS
 62
     0
100
AcDbPoint
 10
75.79612018843528
 20
236.9690674582473
 30
0.0
  0
ENDBLK
  5
D6E
330
F49
100
AcDbEntity
  8
0
100
AcDbBlockEnd
  0
BLOCK
  5
F4C
330
F4B
100
AcDbEntity
  8
0
100
AcDbBlockBegin
  2
*D8
 70
     1
 10
0.0
 20
0.0
 30
0.0
  3
*D8
  1

  0
LINE
  5
D7E
330
F4B
100
AcDbEntity
  8
DIMENSIONS
  6
ByBlock
 62
     0
100
AcDbLine
 10
126.7831013431949
 20
247.4690674582487
 30
0.0
 11
57.26764443062563
 21
247.4690674582487
 31
0.0
  0
LINE
  5
D7F
330
F4B
100
AcDbEntity
  8
DIMENSIONS
  6
ByBlock
 62
     0
100
AcDbLine
 10
126.7831013431949
 20
-58.53093254175269
 30
0.0
 11
57.26764443062562
 21
-58.53093254175268
 31
0.0
  0
LINE
  5
D80
330
F4B
100
AcDbEntity
  8
DIMENSIONS
  6
ByBlock
 62
     0
100
AcDbLine
 10
57.44764443062564
 20
242.4690674582487
 30
0.0
 11
57.44764443062562
 21
-53.53093254175268
 31
0.0
  0
SOLID
  5
D81
330
F4B
100
AcDbEntity
  8
DIMENSIONS
 62
     0
100
AcDbTrace
 10
58.28097776395897
 20
242.4690674582487
 30
0.0
 11
56.6143110972923
 21
242.4690674582487
 31
0.0
 12
57.44764443062564
 22
247.4690674582487
 32
0.0
 13
57.44764443062564
 23
247.4690674582487
 33
0.0
  0
SOLID
  5
D82
330
F4B
100
AcDbEntity
  8
DIMENSIONS
 62
     0
100
AcDbTrace
 10
56.61431109729228
 20
-53.53093254175268
 30
0.0
 11
58.28097776395895
 21
-53.53093254175268
 31
0.0
 12
57.44764443062562
 22
-58.53093254175268
 32
0.0
 13
57.44764443062562
 23
-58.53093254175268
 33
0.0
  0
TEXT
  5
D83
330
F4B
100
AcDbEntity
  8
DIMENSIONS
  6
Continuous
 62
     5
100
AcDbText
 10
55.05264443062562
 20
77.08906745824798
 30
0.0
 40
5.0
  1
306 [12.05]
 50
90.0
100
AcDbText
  0
POINT
  5
D84
330
F4B
100
AcDbEntity
  8
DEFPOINTS
 62
     0
100
AcDbPoint
 10
128.2831013431949
 20
247.4690674582487
 30
0.0
  0
POINT
  5
D85
330
F4B
100
AcDbEntity
  8
DEFPOINTS
 62
     0
100
AcDbPoint
 10
128.2831013431949
 20
-58.53093254175269
 30
0.0
  0
POINT
  5
D86
330
F4B
100
AcDbEntity
  8
DEFPOINTS
 62
     0
100
AcDbPoint
 10
57.44764443062562
 20
-58.53093254175268
 30
0.0
  0
ENDBLK
  5
D7D
330
F4B
100
AcDbEntity
  8
0
100
AcDbBlockEnd
  0
BLOCK
  5
F4E
330
F4D
100
AcDbEntity
  8
0
100
AcDbBlockBegin
  2
*D9
 70
     1
 10
0.0
 20
0.0
 30
0.0
  3
*D9
  1

  0
LINE
  5
D8D
330
F4D
100
AcDbEntity
  8
DIMENSIONS
  6
ByBlock
 62
     0
100
AcDbLine
 10
431.7831013431946
 20
247.4690674582487
 30
0.0
 11
469.1981186577326
 21
247.4690674582487
 31
0.0
  0
LINE
  5
D8E
330
F4D
100
AcDbEntity
  8
DIMENSIONS
  6
ByBlock
 62
     0
100
AcDbLine
 10
415.7831013431946
 20
229.4690674582473
 30
0.0
 11
469.1981186577326
 21
229.4690674582473
 31
0.0
  0
LINE
  5
D8F
330
F4D
100
AcDbEntity
  8
DIMENSIONS
  6
ByBlock
 62
     0
100
AcDbLine
 10
469.0181186577325
 20
229.4690674582473
 30
0.0
 11
469.0181186577325
 21
196.5240674582473
 31
0.0
  0
LINE
  5
D90
330
F4D
100
AcDbEntity
  8
DIMENSIONS
  6
ByBlock
 62
     0
100
AcDbLine
 10
469.0181186577325
 20
242.4690674582487
 30
0.0
 11
469.0181186577325
 21
234.4690674582473
 31
0.0
  0
SOLID
  5
D91
330
F4D
100
AcDbEntity
  8
DIMENSIONS
 62
     0
100
AcDbTrace
 10
469.8514519910657
 20
242.4690674582487
 30
0.0
 11
468.1847853243992
 21
242.4690674582487
 31
0.0
 12
469.0181186577325
 22
247.4690674582487
 32
0.0
 13
469.0181186577325
 23
247.4690674582487
 33
0.0
  0
SOLID
  5
D92
330
F4D
100
AcDbEntity
  8
DIMENSIONS
 62
     0
100
AcDbTrace
 10
468.1847853243992
 20
234.4690674582473
 30
0.0
 11
469.8514519910657
 21
234.4690674582473
 31
0.0
 12
469.0181186577325
 22
229.4690674582473
 32
0.0
 13
469.0181186577325
 23
229.4690674582473
 33
0.0
  0
TEXT
  5
D93
330
F4D
100
AcDbEntity
  8
DIMENSIONS
  6
Continuous
 62
     5
100
AcDbText
 10
466.6231186577326
 20
196.7640674582473
 30
0.0
 40
5.0
  1
18 [0.71]
 50
90.0
100
AcDbText
  0
POINT
  5
D94
330
F4D
100
AcDbEntity
  8
DEFPOINTS
 62
     0
100
AcDbPoint
 10
430.2831013431948
 20
247.4690674582487
 30
0.0
  0
POINT
  5
D95
330
F4D
100
AcDbEntity
  8
DEFPOINTS
 62
     0
100
AcDbPoint
 10
414.2831013431948
 20
229.4690674582473
 30
0.0
  0
POINT
  5
DC3
330
F4D
100
AcDbEntity
  8
DEFPOINTS
 62
     0
100
AcDbPoint
 10
469.0181186577325
 20
229.4690674582473
 30
0.0
  0
ENDBLK
  5
D8C
330
F4D
100
AcDbEntity
  8
0
100
AcDbBlockEnd
  0
BLOCK
  5
F50
330
F4F
100
AcDbEntity
  8
0
100
AcDbBlockBegin
  2
*D10
 70
     1
 10
0.0
 20
0.0
 30
0.0
  3
*D10
  1

  0
LINE
  5
D9C
330
F4F
100
AcDbEntity
  8
DIMENSIONS
  6
ByBlock
 62
     0
100
AcDbLine
 10
415.7831013431946
 20
229.4690674582473
 30
0.0
 11
449.8736793739531
 21
229.4690674582473
 31
0.0
  0
LINE
  5
D9D
330
F4F
100
AcDbEntity
  8
DIMENSIONS
  6
ByBlock
 62
     0
100
AcDbLine
 10
415.7831013431946
 20
-40.53093254175268
 30
0.0
 11
449.8736793739531
 21
-40.53093254175268
 31
0.0
  0
LINE
  5
D9E
330
F4F
100
AcDbEntity
  8
DIMENSIONS
  6
ByBlock
 62
     0
100
AcDbLine
 10
449.693679373953
 20
224.4690674582473
 30
0.0
 11
449.693679373953
 21
-35.53093254175268
 31
0.0
  0
SOLID
  5
D9F
330
F4F
100
AcDbEntity
  8
DIMENSIONS
 62
     0
100
AcDbTrace
 10
450.5270127072862
 20
224.4690674582473
 30
0.0
 11
448.8603460406197
 21
224.4690674582473
 31
0.0
 12
449.693679373953
 22
229.4690674582473
 32
0.0
 13
449.693679373953
 23
229.4690674582473
 33
0.0
  0
SOLID
  5
DA0
330
F4F
100
AcDbEntity
  8
DIMENSIONS
 62
     0
100
AcDbTrace
 10
448.8603460406197
 20
-35.53093254175268
 30
0.0
 11
450.5270127072862
 21
-35.53093254175268
 31
0.0
 12
449.693679373953
 22
-40.53093254175268
 32
0.0
 13
449.693679373953
 23
-40.53093254175268
 33
0.0
  0
TEXT
  5
DA1
330
F4F
100
AcDbEntity
  8
DIMENSIONS
  6
Continuous
 62
     5
100
AcDbText
 10
447.2986793739531
 20
77.13406745824733
 30
0.0
 40
5.0
  1
270 [10.63]
 50
90.0
100
AcDbText
  0
POINT
  5
DA2
330
F4F
100
AcDbEntity
  8
DEFPOINTS
 62
     0
100
AcDbPoint
 10
414.2831013431948
 20
229.4690674582473
 30
0.0
  0
POINT
  5
DA3
330
F4F
100
AcDbEntity
  8
DEFPOINTS
 62
     0
100
AcDbPoint
 10
414.2831013431948
 20
-40.53093254175268
 30
0.0
  0
POINT
  5
DA4
330
F4F
100
AcDbEntity
  8
DEFPOINTS
 62
     0
100
AcDbPoint
 10
449.693679373953
 20
-40.53093254175268
 30
0.0
  0
ENDBLK
  5
D9B
330
F4F
100
AcDbEntity
  8
0
100
AcDbBlockEnd
  0
BLOCK
  5
F52
330
F51
100
AcDbEntity
  8
0
100
AcDbBlockBegin
  2
*D11
 70
     1
 10
0.0
 20
0.0
 30
0.0
  3
*D11
  1

  0
LINE
  5
DAB
330
F51
100
AcDbEntity
  8
DIMENSIONS
  6
ByBlock
 62
     0
100
AcDbLine
 10
415.7831013431946
 20
-40.53093254175268
 30
0.0
 11
469.3821025141819
 21
-40.53093254175268
 31
0.0
  0
LINE
  5
DAC
330
F51
100
AcDbEntity
  8
DIMENSIONS
  6
ByBlock
 62
     0
100
AcDbLine
 10
431.7831013431946
 20
-58.53093254175269
 30
0.0
 11
469.3821025141819
 21
-58.53093254175269
 31
0.0
  0
LINE
  5
DAD
330
F51
100
AcDbEntity
  8
DIMENSIONS
  6
ByBlock
 62
     0
100
AcDbLine
 10
469.2021025141818
 20
-40.53093254175268
 30
0.0
 11
469.2021025141818
 21
-7.585932541752641
 31
0.0
  0
LINE
  5
DAE
330
F51
100
AcDbEntity
  8
DIMENSIONS
  6
ByBlock
 62
     0
100
AcDbLine
 10
469.2021025141818
 20
-45.53093254175268
 30
0.0
 11
469.2021025141818
 21
-53.53093254175269
 31
0.0
  0
SOLID
  5
DAF
330
F51
100
AcDbEntity
  8
DIMENSIONS
 62
     0
100
AcDbTrace
 10
470.0354358475153
 20
-45.53093254175268
 30
0.0
 11
468.3687691808485
 21
-45.53093254175268
 31
0.0
 12
469.2021025141818
 22
-40.53093254175268
 32
0.0
 13
469.2021025141818
 23
-40.53093254175268
 33
0.0
  0
SOLID
  5
DB0
330
F51
100
AcDbEntity
  8
DIMENSIONS
 62
     0
100
AcDbTrace
 10
468.3687691808485
 20
-53.53093254175269
 30
0.0
 11
470.0354358475153
 21
-53.53093254175269
 31
0.0
 12
469.2021025141818
 22
-58.53093254175269
 32
0.0
 13
469.2021025141818
 23
-58.53093254175269
 33
0.0
  0
TEXT
  5
DB1
330
F51
100
AcDbEntity
  8
DIMENSIONS
  6
Continuous
 62
     5
100
AcDbText
 10
466.8071025141819
 20
-35.29093254175268
 30
0.0
 40
5.0
  1
18 [0.71]
 50
90.0
100
AcDbText
  0
POINT
  5
DB2
330
F51
100
AcDbEntity
  8
DEFPOINTS
 62
     0
100
AcDbPoint
 10
414.2831013431948
 20
-40.53093254175268
 30
0.0
  0
POINT
  5
DB3
330
F51
100
AcDbEntity
  8
DEFPOINTS
 62
     0
100
AcDbPoint
 10
430.2831013431948
 20
-58.53093254175269
 30
0.0
  0
POINT
  5
DC4
330
F51
100
AcDbEntity
  8
DEFPOINTS
 62
     0
100
AcDbPoint
 10
469.2021025141818
 20
-58.53093254175269
 30
0.0
  0
ENDBLK
  5
DAA
330
F51
100
AcDbEntity
  8
0
100
AcDbBlockEnd
  0
BLOCK
  5
F54
330
F53
100
AcDbEntity
  8
0
100
AcDbBlockBegin
  2
*D12
 70
     1
 10
0.0
 20
0.0
 30
0.0
  3
*D12
  1

  0
LINE
  5
DBA
330
F53
100
AcDbEntity
  8
DIMENSIONS
  6
ByBlock
 62
     0
100
AcDbLine
 10
412.7831043426933
 20
14.4617196036945
 30
0.0
 11
372.378117808776
 21
14.4287318188938
 31
0.0
  0
TEXT
  5
DBB
330
F53
100
AcDbEntity
  8
DIMENSIONS
  6
Continuous
 62
     5
100
AcDbText
 10
373.0960969088141
 20
16.9043188223959
 30
0.0
 40
5.0
  1
Ø8 [Ø0.31]
 50
0.0467779001246777
100
AcDbText
  0
SOLID
  5
DBC
330
F53
100
AcDbEntity
  8
DIMENSIONS
 62
     0
100
AcDbTrace
 10
412.7837846995964
 20
13.62838654809252
 30
0.0
 11
412.7824239857903
 21
15.29505265929647
 31
0.0
 12
417.7831026763053
 22
14.46580174511272
 32
0.0
 13
417.7831026763053
 23
14.46580174511272
 33
0.0
  0
LINE
  5
DBD
330
F53
100
AcDbEntity
  8
DIMENSIONS
  6
ByBlock
 62
     0
100
AcDbLine
 10
419.2831013431946
 20
14.46906745824731
 30
0.0
 11
424.2831013431946
 21
14.46906745824731
 31
0.0
  0
LINE
  5
DBE
330
F53
100
AcDbEntity
  8
DIMENSIONS
  6
ByBlock
 62
     0
100
AcDbLine
 10
421.7831013431948
 20
11.96906745824731
 30
0.0
 11
421.7831013431948
 21
16.96906745824731
 31
0.0
  0
POINT
  5
DBF
330
F53
100
AcDbEntity
  8
DEFPOINTS
 62
     0
100
AcDbPoint
 10
417.7831026763053
 20
14.46580174511272
 30
0.0
  0
POINT
  5
DC0
330
F53
100
AcDbEntity
  8
DEFPOINTS
 62
     0
100
AcDbPoint
 10
425.7831000100843
 20
14.47233317138189
 30
0.0
  0
ENDBLK
  5
DB9
330
F53
100
AcDbEntity
  8
0
100
AcDbBlockEnd
  0
BLOCK
  5
F56
330
F55
100
AcDbEntity
  8
0
100
AcDbBlockBegin
  2
*D13
 70
     1
 10
0.0
 20
0.0
 30
0.0
  3
*D13
  1

  0
LINE
  5
DCB
330
F55
100
AcDbEntity
  8
DIMENSIONS
  6
ByBlock
 62
     0
100
AcDbLine
 10
136.7831013431949
 20
175.9690674582473
 30
0.0
 11
136.7831013431949
 21
283.4501830962147
 31
0.0
  0
LINE
  5
DCC
330
F55
100
AcDbEntity
  8
DIMENSIONS
  6
ByBlock
 62
     0
100
AcDbLine
 10
421.7831013431948
 20
175.9690674582473
 30
0.0
 11
421.7831013431948
 21
283.4501830962147
 31
0.0
  0
LINE
  5
DCD
330
F55
100
AcDbEntity
  8
DIMENSIONS
  6
ByBlock
 62
     0
100
AcDbLine
 10
141.7831013431949
 20
283.2701830962147
 30
0.0
 11
416.7831013431948
 21
283.2701830962147
 31
0.0
  0
SOLID
  5
DCE
330
F55
100
AcDbEntity
  8
DIMENSIONS
 62
     0
100
AcDbTrace
 10
141.7831013431949
 20
284.103516429548
 30
0.0
 11
141.7831013431949
 21
282.4368497628814
 31
0.0
 12
136.7831013431949
 22
283.2701830962147
 32
0.0
 13
136.7831013431949
 23
283.2701830962147
 33
0.0
  0
SOLID
  5
DCF
330
F55
100
AcDbEntity
  8
DIMENSIONS
 62
     0
100
AcDbTrace
 10
416.7831013431948
 20
282.4368497628814
 30
0.0
 11
416.7831013431948
 21
284.103516429548
 31
0.0
 12
421.7831013431948
 22
283.2701830962147
 32
0.0
 13
421.7831013431948
 23
283.2701830962147
 33
0.0
  0
TEXT
  5
DD0
330
F55
100
AcDbEntity
  8
DIMENSIONS
  6
Continuous
 62
     5
100
AcDbText
 10
261.9481013431949
 20
285.6651830962146
 30
0.0
 40
5.0
  1
285 [11.22]
100
AcDbText
  0
POINT
  5
DD1
330
F55
100
AcDbEntity
  8
DEFPOINTS
 62
     0
100
AcDbPoint
 10
136.7831013431949
 20
174.4690674582473
 30
0.0
  0
POINT
  5
DD2
330
F55
100
AcDbEntity
  8
DEFPOINTS
 62
     0
100
AcDbPoint
 10
421.7831013431948
 20
174.4690674582473
 30
0.0
  0
POINT
  5
DD3
330
F55
100
AcDbEntity
  8
DEFPOINTS
 62
     0
100
AcDbPoint
 10
421.7831013431948
 20
283.2701830962147
 30
0.0
  0
ENDBLK
  5
DCA
330
F55
100
AcDbEntity
  8
0
100
AcDbBlockEnd
  0
BLOCK
  5
F58
330
F57
100
AcDbEntity
  8
0
100
AcDbBlockBegin
  2
*D14
 70
     1
 10
0.0
 20
0.0
 30
0.0
  3
*D14
  1

  0
LINE
  5
1057
330
F57
100
AcDbEntity
  8
DIMENSIONS
  6
ByBlock
 62
     0
440
 16777216
370
    -2
100
AcDbLine
 10
459.3083513569196
 20
299.873584700233
 30
0.0
 11
479.2863344507622
 21
299.873584700233
 31
0.0
  0
LINE
  5
1058
330
F57
100
AcDbEntity
  8
DIMENSIONS
  6
ByBlock
 62
     0
440
 16777216
370
    -2
100
AcDbLine
 10
459.3083513569196
 20
599.8735847002324
 30
0.0
 11
479.2863344507623
 21
599.8735847002324
 31
0.0
  0
LINE
  5
1059
330
F57
100
AcDbEntity
  8
DIMENSIONS
  6
ByBlock
 62
     0
440
 16777216
370
    -2
100
AcDbLine
 10
479.106334450762
 20
304.873584700233
 30
0.0
 11
479.1063344507623
 21
594.8735847002324
 31
0.0
  0
SOLID
  5
105A
330
F57
100
AcDbEntity
  8
DIMENSIONS
  6
ByBlock
 62
     0
440
 16777216
100
AcDbTrace
 10
478.2730011174288
 20
304.873584700233
 30
0.0
 11
479.9396677840956
 21
304.873584700233
 31
0.0
 12
479.106334450762
 22
299.873584700233
 32
0.0
 13
479.106334450762
 23
299.873584700233
 33
0.0
  0
SOLID
  5
105B
330
F57
100
AcDbEntity
  8
DIMENSIONS
  6
ByBlock
 62
     0
440
 16777216
100
AcDbTrace
 10
478.2730011174288
 20
594.8735847002324
 30
0.0
 11
479.9396677840956
 21
594.8735847002324
 31
0.0
 12
479.1063344507623
 22
599.8735847002324
 32
0.0
 13
479.1063344507623
 23
599.8735847002324
 33
0.0
  0
MTEXT
  5
105C
330
F57
100
AcDbEntity
  8
DIMENSIONS
  6
ByBlock
 62
     5
440
 16777216
100
AcDbMText
 10
474.9020370428493
 20
449.8735847002326
 30
0.0
 40
5.0
 41
0.0
 46
0.0
 71
     5
 72
     1
  1
\A1;300 [11.81]
 11
0.0000000000000001
 21
1.0
 31
0.0
 73
     1
 44
1.0
  0
POINT
  5
105D
330
F57
100
AcDbEntity
  8
DEFPOINTS
  6
ByBlock
 62
     0
440
 16777216
100
AcDbPoint
 10
457.8083513569197
 20
299.873584700233
 30
0.0
  0
POINT
  5
105E
330
F57
100
AcDbEntity
  8
DEFPOINTS
  6
ByBlock
 62
     0
440
 16777216
100
AcDbPoint
 10
457.8083513569198
 20
599.8735847002324
 30
0.0
  0
POINT
  5
105F
330
F57
100
AcDbEntity
  8
DEFPOINTS
  6
ByBlock
 62
     0
440
 16777216
100
AcDbPoint
 10
479.1063344507623
 20
599.8735847002324
 30
0.0
  0
ENDBLK
  5
E27
330
F57
100
AcDbEntity
  8
0
100
AcDbBlockEnd
  0
BLOCK
  5
F5A
330
F59
100
AcDbEntity
  8
0
100
AcDbBlockBegin
  2
*D15
 70
     1
 10
0.0
 20
0.0
 30
0.0
  3
*D15
  1

  0
LINE
  5
1060
330
F59
100
AcDbEntity
  8
DIMENSIONS
  6
ByBlock
 62
     0
440
 16777216
370
    -2
100
AcDbLine
 10
452.8083513569197
 20
264.873584700233
 30
0.0
 11
495.7475600958132
 21
264.873584700233
 31
0.0
  0
LINE
  5
1061
330
F59
100
AcDbEntity
  8
DIMENSIONS
  6
ByBlock
 62
     0
440
 16777216
370
    -2
100
AcDbLine
 10
452.8083513569198
 20
634.8735847002335
 30
0.0
 11
495.7475600958132
 21
634.8735847002335
 31
0.0
  0
LINE
  5
1062
330
F59
100
AcDbEntity
  8
DIMENSIONS
  6
ByBlock
 62
     0
440
 16777216
370
    -2
100
AcDbLine
 10
495.5675600958133
 20
269.873584700233
 30
0.0
 11
495.5675600958133
 21
629.8735847002335
 31
0.0
  0
SOLID
  5
1063
330
F59
100
AcDbEntity
  8
DIMENSIONS
  6
ByBlock
 62
     0
440
 16777216
100
AcDbTrace
 10
494.73422676248
 20
269.873584700233
 30
0.0
 11
496.4008934291467
 21
269.873584700233
 31
0.0
 12
495.5675600958133
 22
264.873584700233
 32
0.0
 13
495.5675600958133
 23
264.873584700233
 33
0.0
  0
SOLID
  5
1064
330
F59
100
AcDbEntity
  8
DIMENSIONS
  6
ByBlock
 62
     0
440
 16777216
100
AcDbTrace
 10
494.7342267624801
 20
629.8735847002335
 30
0.0
 11
496.4008934291467
 21
629.8735847002335
 31
0.0
 12
495.5675600958133
 22
634.8735847002335
 32
0.0
 13
495.5675600958133
 23
634.8735847002335
 33
0.0
  0
MTEXT
  5
1065
330
F59
100
AcDbEntity
  8
DIMENSIONS
  6
ByBlock
 62
     5
440
 16777216
100
AcDbMText
 10
491.3632626879006
 20
449.8735847002333
 30
0.0
 40
5.0
 41
0.0
 46
0.0
 71
     5
 72
     1
  1
\A1;370 [14.57]
 11
0.0000000000000001
 21
1.0
 31
0.0
 73
     1
 44
1.0
  0
POINT
  5
1066
330
F59
100
AcDbEntity
  8
DEFPOINTS
  6
ByBlock
 62
     0
440
 16777216
100
AcDbPoint
 10
451.3083513569197
 20
264.873584700233
 30
0.0
  0
POINT
  5
1067
330
F59
100
AcDbEntity
  8
DEFPOINTS
  6
ByBlock
 62
     0
440
 16777216
100
AcDbPoint
 10
451.3083513569197
 20
634.8735847002335
 30
0.0
  0
POINT
  5
1068
330
F59
100
AcDbEntity
  8
DEFPOINTS
  6
ByBlock
 62
     0
440
 16777216
100
AcDbPoint
 10
495.5675600958133
 20
634.8735847002335
 30
0.0
  0
ENDBLK
  5
E36
330
F59
100
AcDbEntity
  8
0
100
AcDbBlockEnd
  0
BLOCK
  5
F5C
330
F5B
100
AcDbEntity
  8
0
100
AcDbBlockBegin
  2
*D16
 70
     1
 10
0.0
 20
0.0
 30
0.0
  3
*D16
  1

  0
LINE
  5
1069
330
F5B
100
AcDbEntity
  8
DIMENSIONS
  6
ByBlock
 62
     0
440
 16777216
370
    -2
100
AcDbLine
 10
375.3083513569198
 20
642.8735847002335
 30
0.0
 11
511.8825272145659
 21
642.8735847002335
 31
0.0
  0
LINE
  5
106A
330
F5B
100
AcDbEntity
  8
DIMENSIONS
  6
ByBlock
 62
     0
440
 16777216
370
    -2
100
AcDbLine
 10
375.3083513569198
 20
256.873584700233
 30
0.0
 11
511.8825272145659
 21
256.8735847002329
 31
0.0
  0
LINE
  5
106B
330
F5B
100
AcDbEntity
  8
DIMENSIONS
  6
ByBlock
 62
     0
440
 16777216
370
    -2
100
AcDbLine
 10
511.7025272145658
 20
637.8735847002335
 30
0.0
 11
511.7025272145658
 21
261.8735847002329
 31
0.0
  0
SOLID
  5
106C
330
F5B
100
AcDbEntity
  8
DIMENSIONS
  6
ByBlock
 62
     0
440
 16777216
100
AcDbTrace
 10
510.8691938812325
 20
637.8735847002335
 30
0.0
 11
512.5358605478993
 21
637.8735847002335
 31
0.0
 12
511.7025272145659
 22
642.8735847002335
 32
0.0
 13
511.7025272145659
 23
642.8735847002335
 33
0.0
  0
SOLID
  5
106D
330
F5B
100
AcDbEntity
  8
DIMENSIONS
  6
ByBlock
 62
     0
440
 16777216
100
AcDbTrace
 10
510.8691938812325
 20
261.8735847002329
 30
0.0
 11
512.5358605478993
 21
261.8735847002329
 31
0.0
 12
511.7025272145658
 22
256.8735847002329
 32
0.0
 13
511.7025272145658
 23
256.8735847002329
 33
0.0
  0
MTEXT
  5
106E
330
F5B
100
AcDbEntity
  8
DIMENSIONS
  6
ByBlock
 62
     5
440
 16777216
100
AcDbMText
 10
507.4982298066532
 20
449.8735847002333
 30
0.0
 40
5.0
 41
0.0
 46
0.0
 71
     5
 72
     1
  1
\A1;386 [15.2]
 11
0.0000000000000001
 21
1.0
 31
0.0
 73
     1
 44
1.0
  0
POINT
  5
106F
330
F5B
100
AcDbEntity
  8
DEFPOINTS
  6
ByBlock
 62
     0
440
 16777216
100
AcDbPoint
 10
373.8083513569198
 20
642.8735847002335
 30
0.0
  0
POINT
  5
1070
330
F5B
100
AcDbEntity
  8
DEFPOINTS
  6
ByBlock
 62
     0
440
 16777216
100
AcDbPoint
 10
373.8083513569198
 20
256.873584700233
 30
0.0
  0
POINT
  5
1071
330
F5B
100
AcDbEntity
  8
DEFPOINTS
  6
ByBlock
 62
     0
440
 16777216
100
AcDbPoint
 10
511.7025272145658
 20
256.8735847002329
 30
0.0
  0
ENDBLK
  5
E45
330
F5B
100
AcDbEntity
  8
0
100
AcDbBlockEnd
  0
BLOCK
  5
F5E
330
F5D
100
AcDbEntity
  8
0
100
AcDbBlockBegin
  2
*D17
 70
     1
 10
0.0
 20
0.0
 30
0.0
  3
*D17
  1

  0
LINE
  5
1072
330
F5D
100
AcDbEntity
  8
DIMENSIONS
  6
ByBlock
 62
     0
440
 16777216
370
    -2
100
AcDbLine
 10
465.3083513569206
 20
249.873584700233
 30
0.0
 11
527.5429364768848
 21
249.873584700233
 31
0.0
  0
LINE
  5
1073
330
F5D
100
AcDbEntity
  8
DIMENSIONS
  6
ByBlock
 62
     0
440
 16777216
370
    -2
100
AcDbLine
 10
465.3083513569207
 20
649.8735847002335
 30
0.0
 11
527.5429364768848
 21
649.8735847002335
 31
0.0
  0
LINE
  5
1074
330
F5D
100
AcDbEntity
  8
DIMENSIONS
  6
ByBlock
 62
     0
440
 16777216
370
    -2
100
AcDbLine
 10
527.3629364768849
 20
254.873584700233
 30
0.0
 11
527.362936476885
 21
644.8735847002335
 31
0.0
  0
SOLID
  5
1075
330
F5D
100
AcDbEntity
  8
DIMENSIONS
  6
ByBlock
 62
     0
440
 16777216
100
AcDbTrace
 10
526.5296031435515
 20
254.873584700233
 30
0.0
 11
528.1962698102183
 21
254.873584700233
 31
0.0
 12
527.3629364768849
 22
249.873584700233
 32
0.0
 13
527.3629364768849
 23
249.873584700233
 33
0.0
  0
SOLID
  5
1076
330
F5D
100
AcDbEntity
  8
DIMENSIONS
  6
ByBlock
 62
     0
440
 16777216
100
AcDbTrace
 10
526.5296031435516
 20
644.8735847002335
 30
0.0
 11
528.1962698102184
 21
644.8735847002335
 31
0.0
 12
527.362936476885
 22
649.8735847002335
 32
0.0
 13
527.362936476885
 23
649.8735847002335
 33
0.0
  0
MTEXT
  5
1077
330
F5D
100
AcDbEntity
  8
DIMENSIONS
  6
ByBlock
 62
     5
440
 16777216
100
AcDbMText
 10
523.1586390689722
 20
449.8735847002333
 30
0.0
 40
5.0
 41
0.0
 46
0.0
 71
     5
 72
     1
  1
\A1;400 [15.75]
 11
0.0000000000000001
 21
1.0
 31
0.0
 73
     1
 44
1.0
  0
POINT
  5
1078
330
F5D
100
AcDbEntity
  8
DEFPOINTS
  6
ByBlock
 62
     0
440
 16777216
100
AcDbPoint
 10
463.8083513569206
 20
249.873584700233
 30
0.0
  0
POINT
  5
1079
330
F5D
100
AcDbEntity
  8
DEFPOINTS
  6
ByBlock
 62
     0
440
 16777216
100
AcDbPoint
 10
463.8083513569206
 20
649.8735847002335
 30
0.0
  0
POINT
  5
107A
330
F5D
100
AcDbEntity
  8
DEFPOINTS
  6
ByBlock
 62
     0
440
 16777216
100
AcDbPoint
 10
527.362936476885
 20
649.8735847002335
 30
0.0
  0
ENDBLK
  5
E54
330
F5D
100
AcDbEntity
  8
0
100
AcDbBlockEnd
  0
BLOCK
  5
F60
330
F5F
100
AcDbEntity
  8
0
100
AcDbBlockBegin
  2
*D18
 70
     1
 10
0.0
 20
0.0
 30
0.0
  3
*D18
  1

  0
LINE
  5
107B
330
F5F
100
AcDbEntity
  8
DIMENSIONS
  6
ByBlock
 62
     0
440
 16777216
370
    -2
100
AcDbLine
 10
451.3083513569197
 20
636.3735847002335
 30
0.0
 11
451.3083513569197
 21
665.8995905742171
 31
0.0
  0
LINE
  5
107C
330
F5F
100
AcDbEntity
  8
DIMENSIONS
  6
ByBlock
 62
     0
440
 16777216
370
    -2
100
AcDbLine
 10
296.3083513569198
 20
636.3735847002335
 30
0.0
 11
296.3083513569198
 21
665.8995905742171
 31
0.0
  0
LINE
  5
107D
330
F5F
100
AcDbEntity
  8
DIMENSIONS
  6
ByBlock
 62
     0
440
 16777216
370
    -2
100
AcDbLine
 10
446.3083513569197
 20
665.7195905742171
 30
0.0
 11
301.3083513569199
 21
665.7195905742171
 31
0.0
  0
SOLID
  5
107E
330
F5F
100
AcDbEntity
  8
DIMENSIONS
  6
ByBlock
 62
     0
440
 16777216
100
AcDbTrace
 10
446.3083513569197
 20
666.5529239075505
 30
0.0
 11
446.3083513569197
 21
664.8862572408837
 31
0.0
 12
451.3083513569197
 22
665.7195905742171
 32
0.0
 13
451.3083513569197
 23
665.7195905742171
 33
0.0
  0
SOLID
  5
107F
330
F5F
100
AcDbEntity
  8
DIMENSIONS
  6
ByBlock
 62
     0
440
 16777216
100
AcDbTrace
 10
301.3083513569199
 20
666.5529239075505
 30
0.0
 11
301.3083513569199
 21
664.8862572408837
 31
0.0
 12
296.3083513569198
 22
665.7195905742171
 32
0.0
 13
296.3083513569198
 23
665.7195905742171
 33
0.0
  0
MTEXT
  5
1080
330
F5F
100
AcDbEntity
  8
DIMENSIONS
  6
ByBlock
 62
     5
440
 16777216
100
AcDbMText
 10
373.8083513569198
 20
669.9238879821296
 30
0.0
 40
5.0
 41
0.0
 46
0.0
 71
     5
 72
     1
  1
\A1;155 [6.1]
 73
     1
 44
1.0
  0
POINT
  5
1081
330
F5F
100
AcDbEntity
  8
DEFPOINTS
  6
ByBlock
 62
     0
440
 16777216
100
AcDbPoint
 10
451.3083513569197
 20
634.8735847002335
 30
0.0
  0
POINT
  5
1082
330
F5F
100
AcDbEntity
  8
DEFPOINTS
  6
ByBlock
 62
     0
440
 16777216
100
AcDbPoint
 10
296.3083513569198
 20
634.8735847002335
 30
0.0
  0
POINT
  5
1083
330
F5F
100
AcDbEntity
  8
DEFPOINTS
  6
ByBlock
 62
     0
440
 16777216
100
AcDbPoint
 10
296.3083513569198
 20
665.7195905742171
 30
0.0
  0
ENDBLK
  5
E63
330
F5F
100
AcDbEntity
  8
0
100
AcDbBlockEnd
  0
BLOCK
  5
F62
330
F61
100
AcDbEntity
  8
0
100
AcDbBlockBegin
  2
*D19
 70
     1
 10
0.0
 20
0.0
 30
0.0
  3
*D19
  1

  0
LINE
  5
1084
330
F61
100
AcDbEntity
  8
DIMENSIONS
  6
ByBlock
 62
     0
440
 16777216
370
    -2
100
AcDbLine
 10
289.8083513569198
 20
601.3735847002322
 30
0.0
 11
289.8083513569198
 21
682.9710976226422
 31
0.0
  0
LINE
  5
1085
330
F61
100
AcDbEntity
  8
DIMENSIONS
  6
ByBlock
 62
     0
440
 16777216
370
    -2
100
AcDbLine
 10
457.8083513569198
 20
601.3735847002322
 30
0.0
 11
457.8083513569198
 21
682.9710976226422
 31
0.0
  0
LINE
  5
1086
330
F61
100
AcDbEntity
  8
DIMENSIONS
  6
ByBlock
 62
     0
440
 16777216
370
    -2
100
AcDbLine
 10
294.8083513569198
 20
682.7910976226421
 30
0.0
 11
452.8083513569198
 21
682.7910976226421
 31
0.0
  0
SOLID
  5
1087
330
F61
100
AcDbEntity
  8
DIMENSIONS
  6
ByBlock
 62
     0
440
 16777216
100
AcDbTrace
 10
294.8083513569198
 20
683.6244309559756
 30
0.0
 11
294.8083513569198
 21
681.9577642893087
 31
0.0
 12
289.8083513569198
 22
682.7910976226421
 32
0.0
 13
289.8083513569198
 23
682.7910976226421
 33
0.0
  0
SOLID
  5
1088
330
F61
100
AcDbEntity
  8
DIMENSIONS
  6
ByBlock
 62
     0
440
 16777216
100
AcDbTrace
 10
452.8083513569198
 20
683.6244309559756
 30
0.0
 11
452.8083513569198
 21
681.9577642893087
 31
0.0
 12
457.8083513569198
 22
682.7910976226421
 32
0.0
 13
457.8083513569198
 23
682.7910976226421
 33
0.0
  0
MTEXT
  5
1089
330
F61
100
AcDbEntity
  8
DIMENSIONS
  6
ByBlock
 62
     5
440
 16777216
100
AcDbMText
 10
373.8083513569198
 20
686.9953950305547
 30
0.0
 40
5.0
 41
0.0
 46
0.0
 71
     5
 72
     1
  1
\A1;168 [6.61]
 73
     1
 44
1.0
  0
POINT
  5
108A
330
F61
100
AcDbEntity
  8
DEFPOINTS
  6
ByBlock
 62
     0
440
 16777216
100
AcDbPoint
 10
289.8083513569198
 20
599.8735847002324
 30
0.0
  0
POINT
  5
108B
330
F61
100
AcDbEntity
  8
DEFPOINTS
  6
ByBlock
 62
     0
440
 16777216
100
AcDbPoint
 10
457.8083513569198
 20
599.8735847002324
 30
0.0
  0
POINT
  5
108C
330
F61
100
AcDbEntity
  8
DEFPOINTS
  6
ByBlock
 62
     0
440
 16777216
100
AcDbPoint
 10
457.8083513569198
 20
682.7910976226421
 30
0.0
  0
ENDBLK
  5
E72
330
F61
100
AcDbEntity
  8
0
100
AcDbBlockEnd
  0
BLOCK
  5
F64
330
F63
100
AcDbEntity
  8
0
100
AcDbBlockBegin
  2
*D20
 70
     1
 10
0.0
 20
0.0
 30
0.0
  3
*D20
  1

  0
LINE
  5
108D
330
F63
100
AcDbEntity
  8
DIMENSIONS
  6
ByBlock
 62
     0
440
 16777216
370
    -2
100
AcDbLine
 10
463.8083513569206
 20
651.3735847002335
 30
0.0
 11
463.8083513569206
 21
700.7670172389135
 31
0.0
  0
LINE
  5
108E
330
F63
100
AcDbEntity
  8
DIMENSIONS
  6
ByBlock
 62
     0
440
 16777216
370
    -2
100
AcDbLine
 10
283.8083513569198
 20
651.3735847002322
 30
0.0
 11
283.8083513569198
 21
700.7670172389135
 31
0.0
  0
LINE
  5
108F
330
F63
100
AcDbEntity
  8
DIMENSIONS
  6
ByBlock
 62
     0
440
 16777216
370
    -2
100
AcDbLine
 10
458.8083513569206
 20
700.5870172389135
 30
0.0
 11
288.8083513569199
 21
700.5870172389135
 31
0.0
  0
SOLID
  5
1090
330
F63
100
AcDbEntity
  8
DIMENSIONS
  6
ByBlock
 62
     0
440
 16777216
100
AcDbTrace
 10
458.8083513569206
 20
701.420350572247
 30
0.0
 11
458.8083513569206
 21
699.7536839055802
 31
0.0
 12
463.8083513569206
 22
700.5870172389135
 32
0.0
 13
463.8083513569206
 23
700.5870172389135
 33
0.0
  0
SOLID
  5
1091
330
F63
100
AcDbEntity
  8
DIMENSIONS
  6
ByBlock
 62
     0
440
 16777216
100
AcDbTrace
 10
288.8083513569199
 20
701.420350572247
 30
0.0
 11
288.8083513569199
 21
699.7536839055802
 31
0.0
 12
283.8083513569198
 22
700.5870172389135
 32
0.0
 13
283.8083513569198
 23
700.5870172389135
 33
0.0
  0
MTEXT
  5
1092
330
F63
100
AcDbEntity
  8
DIMENSIONS
  6
ByBlock
 62
     5
440
 16777216
100
AcDbMText
 10
373.8083513569203
 20
704.7913146468263
 30
0.0
 40
5.0
 41
0.0
 46
0.0
 71
     5
 72
     1
  1
\A1;180 [7.09]
 73
     1
 44
1.0
  0
POINT
  5
1093
330
F63
100
AcDbEntity
  8
DEFPOINTS
  6
ByBlock
 62
     0
440
 16777216
100
AcDbPoint
 10
463.8083513569206
 20
649.8735847002335
 30
0.0
  0
POINT
  5
1094
330
F63
100
AcDbEntity
  8
DEFPOINTS
  6
ByBlock
 62
     0
440
 16777216
100
AcDbPoint
 10
283.8083513569198
 20
649.8735847002324
 30
0.0
  0
POINT
  5
1095
330
F63
100
AcDbEntity
  8
DEFPOINTS
  6
ByBlock
 62
     0
440
 16777216
100
AcDbPoint
 10
283.8083513569198
 20
700.5870172389135
 30
0.0
  0
ENDBLK
  5
E81
330
F63
100
AcDbEntity
  8
0
100
AcDbBlockEnd
  0
BLOCK
  5
F66
330
F65
100
AcDbEntity
  8
0
100
AcDbBlockBegin
  2
*D21
 70
     1
 10
0.0
 20
0.0
 30
0.0
  3
*D21
  1

  0
LINE
  5
10F1
330
F65
100
AcDbEntity
  8
DIMENSIONS
  6
ByBlock
 62
     0
440
 16777216
370
    -2
100
AcDbLine
 10
354.6414315577719
 20
303.467749963349
 30
0.0
 11
370.3844920274228
 21
265.1968765545309
 31
0.0
  0
MTEXT
  5
10F2
330
F65
100
AcDbEntity
  8
DIMENSIONS
  6
ByBlock
 62
     5
440
 16777216
100
AcDbMText
 10
365.3448160516959
 20
288.714802210501
 30
0.0
 40
5.0
 41
0.0
 46
0.0
 71
     5
 72
     1
  1
\A1;∅8 [∅0.31]
 11
0.380428814388504
 21
-0.924810206033085
 31
0.0
 73
     1
 44
1.0
  0
SOLID
  5
10F3
330
F65
100
AcDbEntity
  8
DIMENSIONS
  6
ByBlock
 62
     0
440
 16777216
100
AcDbTrace
 10
371.155167199117
 20
265.5139005665211
 30
0.0
 11
369.6138168557285
 21
264.8798525425405
 31
0.0
 12
372.2866360993653
 22
260.5728255243654
 32
0.0
 13
372.2866360993653
 23
260.5728255243654
 33
0.0
  0
LINE
  5
10F4
330
F65
100
AcDbEntity
  8
DIMENSIONS
  6
ByBlock
 62
     0
440
 16777216
370
    -2
100
AcDbLine
 10
371.3083513569193
 20
256.8735847002331
 30
0.0
 11
376.3083513569193
 21
256.8735847002331
 31
0.0
  0
LINE
  5
10F5
330
F65
100
AcDbEntity
  8
DIMENSIONS
  6
ByBlock
 62
     0
440
 16777216
370
    -2
100
AcDbLine
 10
373.8083513569193
 20
254.3735847002331
 30
0.0
 11
373.8083513569193
 21
259.3735847002331
 31
0.0
  0
POINT
  5
10F6
330
F65
100
AcDbEntity
  8
DEFPOINTS
  6
ByBlock
 62
     0
440
 16777216
100
AcDbPoint
 10
372.2866360993653
 20
260.5728255243654
 30
0.0
  0
POINT
  5
10F7
330
F65
100
AcDbEntity
  8
DEFPOINTS
  6
ByBlock
 62
     0
440
 16777216
100
AcDbPoint
 10
375.3300666144734
 20
253.1743438761008
 30
0.0
  0
ENDBLK
  5
E93
330
F65
100
AcDbEntity
  8
0
100
AcDbBlockEnd
  0
BLOCK
  5
1164
330
1162
100
AcDbEntity
  8
0
100
AcDbBlockBegin
  2
GENAXEH
 70
     0
 10
0.0
 20
0.0
 30
0.0
  3
GENAXEH
  1

  0
LINE
  5
1163
330
1162
100
AcDbEntity
  8
0
100
AcDbLine
 10
-1.0
 20
0.0
 30
0.0
 11
1.0
 21
0.0
 31
0.0
  0
ENDBLK
  5
1165
330
1162
100
AcDbEntity
  8
0
100
AcDbBlockEnd
  0
ENDSEC
  0
SECTION
  2
ENTITIES
  0
TEXT
  5
698
330
F12
100
AcDbEntity
  8
DIMENSIONS
  6
ByBlock
100
AcDbText
 10
277.7657011749604
 20
237.2978609643082
 30
0.0
 40
5.0
  1
Note:
100
AcDbText
  0
TEXT
  5
699
330
F12
100
AcDbEntity
  8
DIMENSIONS
  6
ByBlock
100
AcDbText
 10
277.899627215246
 20
226.7688931163152
 30
0.0
 40
5.0
  1
Primary dimensions in millimeters.
100
AcDbText
  0
TEXT
  5
69A
330
F12
100
AcDbEntity
  8
DIMENSIONS
  6
ByBlock
100
AcDbText
 10
278.1210411516361
 20
216.1968675075311
 30
0.0
 40
5.0
  1
Secondary dimensions in inches.
100
AcDbText
  0
LINE
  5
E12
330
F12
100
AcDbEntity
  8
0
100
AcDbLine
 10
451.3083513569197
 20
634.8735847002335
 30
0.0
 11
296.3083513569198
 21
634.8735847002335
 31
0.0
  0
LINE
  5
E13
330
F12
100
AcDbEntity
  8
0
100
AcDbLine
 10
296.3083513569198
 20
634.8735847002335
 30
0.0
 11
296.3083513569198
 21
264.873584700233
 31
0.0
  0
LINE
  5
E14
330
F12
100
AcDbEntity
  8
0
100
AcDbLine
 10
296.3083513569198
 20
264.873584700233
 30
0.0
 11
451.3083513569197
 21
264.873584700233
 31
0.0
  0
LINE
  5
E15
330
F12
100
AcDbEntity
  8
0
100
AcDbLine
 10
451.3083513569197
 20
264.873584700233
 30
0.0
 11
451.3083513569197
 21
634.8735847002335
 31
0.0
  0
CIRCLE
  5
E16
330
F12
100
AcDbEntity
  8
0
100
AcDbCircle
 10
457.8083513569198
 20
599.8735847002324
 30
0.0
 40
4.0
  0
CIRCLE
  5
E17
330
F12
100
AcDbEntity
  8
0
100
AcDbCircle
 10
457.8083513569198
 20
449.8735847002325
 30
0.0
 40
4.0
  0
CIRCLE
  5
E18
330
F12
100
AcDbEntity
  8
0
100
AcDbCircle
 10
457.8083513569197
 20
299.873584700233
 30
0.0
 40
4.0
  0
CIRCLE
  5
E19
330
F12
100
AcDbEntity
  8
0
100
AcDbCircle
 10
373.8083513569198
 20
642.8735847002335
 30
0.0
 40
4.0
  0
CIRCLE
  5
E1A
330
F12
100
AcDbEntity
  8
0
100
AcDbCircle
 10
373.8083513569198
 20
256.873584700233
 30
0.0
 40
4.0
  0
CIRCLE
  5
E1B
330
F12
100
AcDbEntity
  8
0
100
AcDbCircle
 10
289.8083513569198
 20
599.8735847002324
 30
0.0
 40
4.0
  0
CIRCLE
  5
E1C
330
F12
100
AcDbEntity
  8
0
100
AcDbCircle
 10
289.8083513569198
 20
449.8735847002325
 30
0.0
 40
4.0
  0
CIRCLE
  5
E1D
330
F12
100
AcDbEntity
  8
0
100
AcDbCircle
 10
289.8083513569198
 20
299.873584700233
 30
0.0
 40
4.0
  0
LINE
  5
E1E
330
F12
100
AcDbEntity
  8
0
100
AcDbLine
 10
463.8083513569206
 20
249.873584700233
 30
0.0
 11
283.8083513569198
 21
249.873584700233
 31
0.0
  0
LINE
  5
E1F
330
F12
100
AcDbEntity
  8
0
100
AcDbLine
 10
283.8083513569198
 20
249.873584700233
 30
0.0
 11
283.8083513569198
 21
649.8735847002324
 31
0.0
  0
LINE
  5
E20
330
F12
100
AcDbEntity
  8
0
100
AcDbLine
 10
283.8083513569198
 20
649.8735847002324
 30
0.0
 11
463.8083513569206
 21
649.8735847002335
 31
0.0
  0
LINE
  5
E21
330
F12
100
AcDbEntity
  8
0
100
AcDbLine
 10
463.8083513569206
 20
249.873584700233
 30
0.0
 11
463.8083513569206
 21
649.8735847002335
 31
0.0
  0
DIMENSION
  5
E22
330
F12
100
AcDbEntity
  8
DIMENSIONS
  6
ByBlock
100
AcDbDimension
280
     0
  2
*D14
 10
479.1063344507623
 20
599.8735847002324
 30
0.0
 11
474.9020370428493
 21
449.8735847002326
 31
0.0
 70
    32
 71
     5
 42
299.9999999999994
 73
     0
 74
     0
 75
     0
  3
DUAL-DIM
100
AcDbAlignedDimension
 13
457.8083513569197
 23
299.873584700233
 33
0.0
 14
457.8083513569198
 24
599.8735847002324
 34
0.0
 50
270.0
100
AcDbRotatedDimension
1001
ACAD
1000
DSTYLE
1002
{
1070
   287
1070
     5
1070
   279
1070
     2
1002
}
  0
DIMENSION
  5
E31
330
F12
100
AcDbEntity
  8
DIMENSIONS
  6
ByBlock
100
AcDbDimension
280
     0
  2
*D15
 10
495.5675600958133
 20
634.8735847002335
 30
0.0
 11
491.3632626879006
 21
449.8735847002333
 31
0.0
 70
    32
 71
     5
 42
370.0000000000006
 73
     0
 74
     0
 75
     0
  3
DUAL-DIM
100
AcDbAlignedDimension
 13
451.3083513569197
 23
264.873584700233
 33
0.0
 14
451.3083513569197
 24
634.8735847002335
 34
0.0
 50
270.0
100
AcDbRotatedDimension
1001
ACAD
1000
DSTYLE
1002
{
1070
   287
1070
     5
1070
   279
1070
     2
1002
}
  0
DIMENSION
  5
E40
330
F12
100
AcDbEntity
  8
DIMENSIONS
  6
ByBlock
100
AcDbDimension
280
     0
  2
*D16
 10
511.7025272145658
 20
256.8735847002329
 30
0.0
 11
507.4982298066532
 21
449.8735847002333
 31
0.0
 70
    32
 71
     5
 42
386.0000000000006
 73
     0
 74
     0
 75
     0
  3
DUAL-DIM
100
AcDbAlignedDimension
 13
373.8083513569198
 23
642.8735847002335
 33
0.0
 14
373.8083513569198
 24
256.873584700233
 34
0.0
 50
270.0
100
AcDbRotatedDimension
1001
ACAD
1000
DSTYLE
1002
{
1070
   287
1070
     5
1070
   279
1070
     2
1002
}
  0
DIMENSION
  5
E4F
330
F12
100
AcDbEntity
  8
DIMENSIONS
  6
ByBlock
100
AcDbDimension
280
     0
  2
*D17
 10
527.362936476885
 20
649.8735847002335
 30
0.0
 11
523.1586390689722
 21
449.8735847002333
 31
0.0
 70
    32
 71
     5
 42
400.0000000000005
 73
     0
 74
     0
 75
     0
  3
DUAL-DIM
100
AcDbAlignedDimension
 13
463.8083513569206
 23
249.873584700233
 33
0.0
 14
463.8083513569206
 24
649.8735847002335
 34
0.0
 50
270.0
100
AcDbRotatedDimension
1001
ACAD
1000
DSTYLE
1002
{
1070
   287
1070
     5
1070
   279
1070
     2
1002
}
  0
DIMENSION
  5
E5E
330
F12
100
AcDbEntity
  8
DIMENSIONS
  6
ByBlock
100
AcDbDimension
280
     0
  2
*D18
 10
296.3083513569198
 20
665.7195905742171
 30
0.0
 11
373.8083513569198
 21
669.9238879821296
 31
0.0
 70
    32
 71
     5
 42
155.0
 73
     0
 74
     0
 75
     0
  3
DUAL-DIM
100
AcDbAlignedDimension
 13
451.3083513569197
 23
634.8735847002335
 33
0.0
 14
296.3083513569198
 24
634.8735847002335
 34
0.0
100
AcDbRotatedDimension
1001
ACAD
1000
DSTYLE
1002
{
1070
   287
1070
     5
1070
   279
1070
     2
1002
}
  0
DIMENSION
  5
E6D
330
F12
100
AcDbEntity
  8
DIMENSIONS
  6
ByBlock
100
AcDbDimension
280
     0
  2
*D19
 10
457.8083513569198
 20
682.7910976226421
 30
0.0
 11
373.8083513569198
 21
686.9953950305547
 31
0.0
 70
    32
 71
     5
 42
168.0
 73
     0
 74
     0
 75
     0
  3
DUAL-DIM
100
AcDbAlignedDimension
 13
289.8083513569198
 23
599.8735847002324
 33
0.0
 14
457.8083513569198
 24
599.8735847002324
 34
0.0
100
AcDbRotatedDimension
1001
ACAD
1000
DSTYLE
1002
{
1070
   287
1070
     5
1070
   279
1070
     2
1002
}
  0
DIMENSION
  5
E7C
330
F12
100
AcDbEntity
  8
DIMENSIONS
  6
ByBlock
100
AcDbDimension
280
     0
  2
*D20
 10
283.8083513569198
 20
700.5870172389135
 30
0.0
 11
373.8083513569203
 21
704.7913146468263
 31
0.0
 70
    32
 71
     5
 42
180.0000000000009
 73
     0
 74
     0
 75
     0
  3
DUAL-DIM
100
AcDbAlignedDimension
 13
463.8083513569206
 23
649.8735847002335
 33
0.0
 14
283.8083513569198
 24
649.8735847002324
 34
0.0
100
AcDbRotatedDimension
1001
ACAD
1000
DSTYLE
1002
{
1070
   287
1070
     5
1070
   279
1070
     2
1002
}
  0
DIMENSION
  5
E8E
330
F12
100
AcDbEntity
  8
DIMENSIONS
  6
ByBlock
100
AcDbDimension
280
     0
  2
*D21
 10
375.3300666144734
 20
253.1743438761008
 30
0.0
 11
361.3809382006667
 21
287.0842261837546
 31
0.0
 70
   163
 71
     5
 42
7.999999999999971
 73
     0
 74
     0
 75
     0
  3
DUAL-DIM
100
AcDbDiametricDimension
 15
372.2866360993653
 25
260.5728255243654
 35
0.0
 40
0.0
1001
ACAD_DSTYLE_DIMRADIAL_EXT0
1070
   387
1070
     1
1070
   388
1040
0.0
1070
   390
1040
6.283185307179584
1001
ACAD
1000
DSTYLE
1002
{
1070
   279
1070
     0
1002
}
  0
LWPOLYLINE
  5
E9D
330
F12
100
AcDbEntity
  8
0
  6
ByBlock
100
AcDbPolyline
 90
        4
 70
     1
 43
0.0
 10
264.9190399473128
 20
720.5412945578697
 10
541.1452095874848
 20
720.5412945578696
 10
541.1452095874847
 20
205.4820274248298
 10
264.9190399473127
 20
205.4820274248298
  0
LINE
  5
FC7
330
F12
100
AcDbEntity
  8
DIMENSIONS
  6
ByBlock
100
AcDbLine
 10
373.8083513569198
 20
612.9525771621987
 30
0.0
 11
373.8083513569198
 21
589.8807803924742
 31
0.0
  0
LINE
  5
FC8
102
{ACAD_REACTORS
330
FD8
102
}
330
F12
100
AcDbEntity
  8
DIMENSIONS
  6
ByBlock
100
AcDbLine
 10
373.8083513569198
 20
619.8807803924742
 30
0.0
 11
377.8083513569198
 21
612.9525771621987
 31
0.0
  0
LINE
  5
FC9
102
{ACAD_REACTORS
330
FD8
102
}
330
F12
100
AcDbEntity
  8
DIMENSIONS
  6
ByBlock
100
AcDbLine
 10
377.8083513569198
 20
612.9525771621987
 30
0.0
 11
369.8083513569198
 21
612.9525771621987
 31
0.0
  0
LINE
  5
FCA
102
{ACAD_REACTORS
330
FD8
102
}
330
F12
100
AcDbEntity
  8
DIMENSIONS
  6
ByBlock
100
AcDbLine
 10
373.8083513569198
 20
619.8807803924742
 30
0.0
 11
369.8083513569198
 21
612.9525771621987
 31
0.0
  0
HATCH
  5
FD8
330
F12
100
AcDbEntity
  8
DIMENSIONS
  6
ByBlock
100
AcDbHatch
 10
0.0
 20
0.0
 30
0.0
210
0.0
220
0.0
230
1.0
  2
SOLID
 70
     1
 71
     1
 91
        1
 92
        7
 72
     0
 73
     1
 93
        3
 10
373.8083513569198
 20
619.8807803924742
 10
369.8083513569198
 20
612.9525771621987
 10
377.8083513569198
 20
612.9525771621987
 97
        3
330
FCA
330
FC9
330
FC8
 75
     1
 76
     1
 47
0.0672928481676353
 98
        1
 10
374.2263108107982
 20
615.0713554235576
450
        0
451
        0
460
0.0
461
0.0
452
        0
462
1.0
453
        2
463
0.0
 63
     5
421
      255
463
1.0
 63
     2
421
 16776960
470
LINEAR
1001
GradientColor1ACI
1070
     5
1001
GradientColor2ACI
1070
     2
1001
ACAD
1010
0.0
1020
0.0
1030
0.0
  0
TEXT
  5
FD9
330
F12
100
AcDbEntity
  8
DIMENSIONS
  6
ByBlock
100
AcDbText
 10
378.7450626981997
 20
590.3803897217019
 30
0.0
 40
5.0
  1
TOP
100
AcDbText
  0
ENDSEC
  0
SECTION
  2
OBJECTS
  0
DICTIONARY
  5
EAE
330
0
100
AcDbDictionary
281
     1
  3
ACAD_CIP_PREVIOUS_PRODUCT_INFO
350
F68
  3
ACAD_COLOR
350
F04
  3
ACAD_DETAILVIEWSTYLE
350
F0C
  3
ACAD_GROUP
350
EAF
  3
ACAD_LAYOUT
350
F03
  3
ACAD_MATERIAL
350
EB2
  3
ACAD_MLEADERSTYLE
350
F07
  3
ACAD_MLINESTYLE
350
F00
  3
ACAD_PLOTSETTINGS
350
F02
  3
ACAD_PLOTSTYLENAME
350
EB0
  3
ACAD_SCALELIST
350
EE4
  3
ACAD_SECTIONVIEWSTYLE
350
F09
  3
ACAD_TABLESTYLE
350
F05
  3
ACAD_VISUALSTYLE
350
ECB
  3
ACDB_RECOMPOSE_DATA
350
1176
  3
AcDbVariableDictionary
350
FCB
  3
AcmDictionary
350
1140
  3
AMG
350
1117
  3
AMGSNAPSETTINGS
350
1174
  0
DICTIONARY
  5
10FC
330
EA4
100
AcDbDictionary
280
     1
281
     1
  3
ACAD_LAYERSTATES
360
10FD
  0
DICTIONARY
  5
FDB
330
EF6
100
AcDbDictionary
280
     1
281
     1
  3
ADSK_XREC_LAYER_RECONCILED
360
FDC
  0
DICTIONARY
  5
FDD
330
F16
100
AcDbDictionary
280
     1
281
     1
  3
ADSK_XREC_LAYER_RECONCILED
360
FDE
  0
DICTIONARY
  5
FDF
330
F1D
100
AcDbDictionary
280
     1
281
     1
  3
ADSK_XREC_LAYER_RECONCILED
360
FE0
  0
DICTIONARY
  5
FE1
330
F1E
100
AcDbDictionary
280
     1
281
     1
  3
ADSK_XREC_LAYER_RECONCILED
360
FE2
  0
DICTIONARY
  5
FE3
330
F1F
100
AcDbDictionary
280
     1
281
     1
  3
ADSK_XREC_LAYER_RECONCILED
360
FE4
  0
DICTIONARY
  5
FE5
330
F20
100
AcDbDictionary
280
     1
281
     1
  3
ADSK_XREC_LAYER_RECONCILED
360
FE6
  0
DICTIONARY
  5
FE7
330
F21
100
AcDbDictionary
280
     1
281
     1
  3
ADSK_XREC_LAYER_RECONCILED
360
FE8
  0
DICTIONARY
  5
FE9
330
F22
100
AcDbDictionary
280
     1
281
     1
  3
ADSK_XREC_LAYER_RECONCILED
360
FEA
  0
DICTIONARY
  5
FEB
330
F23
100
AcDbDictionary
280
     1
281
     1
  3
ADSK_XREC_LAYER_RECONCILED
360
FEC
  0
DICTIONARY
  5
FED
330
F24
100
AcDbDictionary
280
     1
281
     1
  3
ADSK_XREC_LAYER_RECONCILED
360
FEE
  0
DICTIONARY
  5
FEF
330
F25
100
AcDbDictionary
280
     1
281
     1
  3
ADSK_XREC_LAYER_RECONCILED
360
FF0
  0
DICTIONARY
  5
FF1
330
F26
100
AcDbDictionary
280
     1
281
     1
  3
ADSK_XREC_LAYER_RECONCILED
360
FF2
  0
DICTIONARY
  5
FF3
330
F27
100
AcDbDictionary
280
     1
281
     1
  3
ADSK_XREC_LAYER_RECONCILED
360
FF4
  0
DICTIONARY
  5
FF5
330
F29
100
AcDbDictionary
280
     1
281
     1
  3
ADSK_XREC_LAYER_RECONCILED
360
FF6
  0
DICTIONARY
  5
FD2
330
F12
100
AcDbDictionary
280
     1
281
     1
  3
ACAD_SORTENTS
360
FD3
  0
XRECORD
  5
F68
102
{ACAD_REACTORS
330
EAE
102
}
330
EAE
100
AcDbXrecord
280
     1
300
AMECH_PP
300
2013
300
85962PDSP_2013_0F
  0
DICTIONARY
  5
F04
102
{ACAD_REACTORS
330
EAE
102
}
330
EAE
100
AcDbDictionary
281
     1
  0
DICTIONARY
  5
F0C
102
{ACAD_REACTORS
330
EAE
102
}
330
EAE
100
AcDbDictionary
281
     1
  3
Imperial24
350
F0D
  0
DICTIONARY
  5
EAF
102
{ACAD_REACTORS
330
EAE
102
}
330
EAE
100
AcDbDictionary
281
     1
  0
DICTIONARY
  5
F03
102
{ACAD_REACTORS
330
EAE
102
}
330
EAE
100
AcDbDictionary
281
     1
  3
Layout1
350
F11
  3
Model
350
F15
  0
DICTIONARY
  5
EB2
102
{ACAD_REACTORS
330
EAE
102
}
330
EAE
100
AcDbDictionary
281
     1
  3
ByBlock
350
EBB
  3
ByLayer
350
EB3
  3
Global
350
EC3
  0
DICTIONARY
  5
F07
102
{ACAD_REACTORS
330
EAE
102
}
330
EAE
100
AcDbDictionary
281
     1
  3
Standard
350
F08
  0
DICTIONARY
  5
F00
102
{ACAD_REACTORS
330
EAE
102
}
330
EAE
100
AcDbDictionary
281
     1
  3
Standard
350
F01
  0
DICTIONARY
  5
F02
102
{ACAD_REACTORS
330
EAE
102
}
330
EAE
100
AcDbDictionary
281
     1
  0
ACDBDICTIONARYWDFLT
  5
EB0
102
{ACAD_REACTORS
330
EAE
102
}
330
EAE
100
AcDbDictionary
281
     1
  3
Normal
350
EB1
100
AcDbDictionaryWithDefault
340
EB1
  0
DICTIONARY
  5
EE4
102
{ACAD_REACTORS
330
EAE
102
}
330
EAE
100
AcDbDictionary
281
     1
  3
A0
350
EE5
  3
A1
350
EE6
  3
A2
350
EE7
  3
A3
350
EE8
  3
A4
350
EE9
  3
A5
350
EEA
  3
A6
350
EEB
  3
A7
350
EEC
  3
A8
350
EED
  3
A9
350
EEE
  3
B0
350
EEF
  3
B1
350
EF0
  3
B2
350
EF1
  3
B3
350
EF2
  3
B4
350
EF3
  3
B5
350
EF4
  3
B6
350
EF5
  0
DICTIONARY
  5
F09
102
{ACAD_REACTORS
330
EAE
102
}
330
EAE
100
AcDbDictionary
281
     1
  3
Imperial24
350
F0B
  0
DICTIONARY
  5
F05
102
{ACAD_REACTORS
330
EAE
102
}
330
EAE
100
AcDbDictionary
281
     1
  3
Standard
350
F06
  0
DICTIONARY
  5
ECB
102
{ACAD_REACTORS
330
EAE
102
}
330
EAE
100
AcDbDictionary
281
     1
  3
2dWireframe
350
ED1
  3
Basic
350
ED0
  3
Brighten
350
ED7
  3
ColorChange
350
EDB
  3
Conceptual
350
ED4
  3
Dim
350
ED6
  3
EdgeColorOff
350
EE3
  3
Facepattern
350
EDA
  3
Flat
350
ECC
  3
FlatWithEdges
350
ECD
  3
Gouraud
350
ECE
  3
GouraudWithEdges
350
ECF
  3
Hidden
350
ED3
  3
JitterOff
350
EE1
  3
Linepattern
350
ED9
  3
OverhangOff
350
EE2
  3
Realistic
350
ED5
  3
Shaded
350
EE0
  3
Shaded with edges
350
EDF
  3
Shades of Gray
350
EDC
  3
Sketchy
350
EDD
  3
Thicken
350
ED8
  3
Wireframe
350
ED2
  3
X-Ray
350
EDE
  0
XRECORD
  5
1176
102
{ACAD_REACTORS
330
EAE
102
}
330
EAE
100
AcDbXrecord
280
     1
 90
        1
330
F06
  0
DICTIONARY
  5
FCB
102
{ACAD_REACTORS
330
EAE
102
}
330
EAE
100
AcDbDictionary
281
     1
  3
CANNOSCALE
350
1005
  3
CMLEADERSTYLE
350
1001
  3
CTABLESTYLE
350
1000
  3
CVIEWDETAILSTYLE
350
1002
  3
CVIEWSECTIONSTYLE
350
1003
  3
LAYEREVAL
350
1007
  3
LAYERNOTIFY
350
1008
  3
LIGHTINGUNITS
350
1006
  3
MSLTSCALE
350
1004
  0
DICTIONARY
  5
1140
102
{ACAD_REACTORS
330
EAE
102
}
330
EAE
100
AcDbDictionary
281
     1
  3
AcmStdDictionary
350
1149
  0
DICTIONARY
  5
1117
102
{ACAD_REACTORS
330
EAE
102
}
330
EAE
100
AcDbDictionary
281
     1
  0
DICTIONARY
  5
1174
102
{ACAD_REACTORS
330
EAE
102
}
330
EAE
100
AcDbDictionary
281
     1
  0
DICTIONARY
  5
10FD
102
{ACAD_REACTORS
330
10FC
102
}
330
10FC
100
AcDbDictionary
281
     1
  0
XRECORD
  5
FDC
102
{ACAD_REACTORS
330
FDB
102
}
330
FDB
100
AcDbXrecord
280
     1
290
     1
  0
XRECORD
  5
FDE
102
{ACAD_REACTORS
330
FDD
102
}
330
FDD
100
AcDbXrecord
280
     1
290
     1
  0
XRECORD
  5
FE0
102
{ACAD_REACTORS
330
FDF
102
}
330
FDF
100
AcDbXrecord
280
     1
290
     1
  0
XRECORD
  5
FE2
102
{ACAD_REACTORS
330
FE1
102
}
330
FE1
100
AcDbXrecord
280
     1
290
     1
  0
XRECORD
  5
FE4
102
{ACAD_REACTORS
330
FE3
102
}
330
FE3
100
AcDbXrecord
280
     1
290
     1
  0
XRECORD
  5
FE6
102
{ACAD_REACTORS
330
FE5
102
}
330
FE5
100
AcDbXrecord
280
     1
290
     1
  0
XRECORD
  5
FE8
102
{ACAD_REACTORS
330
FE7
102
}
330
FE7
100
AcDbXrecord
280
     1
290
     1
  0
XRECORD
  5
FEA
102
{ACAD_REACTORS
330
FE9
102
}
330
FE9
100
AcDbXrecord
280
     1
290
     1
  0
XRECORD
  5
FEC
102
{ACAD_REACTORS
330
FEB
102
}
330
FEB
100
AcDbXrecord
280
     1
290
     1
  0
XRECORD
  5
FEE
102
{ACAD_REACTORS
330
FED
102
}
330
FED
100
AcDbXrecord
280
     1
290
     1
  0
XRECORD
  5
FF0
102
{ACAD_REACTORS
330
FEF
102
}
330
FEF
100
AcDbXrecord
280
     1
290
     1
  0
XRECORD
  5
FF2
102
{ACAD_REACTORS
330
FF1
102
}
330
FF1
100
AcDbXrecord
280
     1
290
     1
  0
XRECORD
  5
FF4
102
{ACAD_REACTORS
330
FF3
102
}
330
FF3
100
AcDbXrecord
280
     1
290
     1
  0
XRECORD
  5
FF6
102
{ACAD_REACTORS
330
FF5
102
}
330
FF5
100
AcDbXrecord
280
     1
290
     1
  0
SORTENTSTABLE
  5
FD3
102
{ACAD_REACTORS
330
FD2
102
}
330
FD2
100
AcDbSortentsTable
330
F12
331
E18
  5
E18
331
E22
  5
E22
331
E15
  5
E15
331
FC7
  5
FC8
331
E9D
  5
E9D
331
FD8
  5
FCA
331
E5E
  5
E5E
331
E8E
  5
E8E
331
699
  5
699
331
E1D
  5
E1D
331
E19
  5
E19
331
E4F
  5
E4F
331
E16
  5
E16
331
FC8
  5
FCF
331
E12
  5
E12
331
69A
  5
69A
331
E1E
  5
E1E
331
E1A
  5
E1A
331
E17
  5
E17
331
FC9
  5
FD1
331
E20
  5
E20
331
E13
  5
E13
331
E40
  5
E40
331
E1F
  5
E1F
331
E1B
  5
E1B
331
E7C
  5
E7C
331
E31
  5
E31
331
FCA
  5
FD4
331
E14
  5
E14
331
E21
  5
E21
331
E6D
  5
E6D
331
698
  5
698
331
E1C
  5
E1C
  0
ACDBDETAILVIEWSTYLE
  5
F0D
102
{ACAD_REACTORS
330
F0C
102
}
330
F0C
100
AcDbModelDocViewStyle
 70
     0
  3
Imperial24
290
     0
100
AcDbDetailViewStyle
 70
     0
 71
     0
 90
        3
 71
     1
340
EF7
 62
   256
 40
0.24
340
0
 62
   256
 40
0.24
300

 40
0.36
280
     3
 71
     2
340
EFE
 90
       25
 62
   256
 71
     3
340
EF7
 62
   256
 40
0.24
 90
        1
 40
0.75
 90
        1
300
%<\AcVar ViewType \f "%tc1">% %<\AcVar ViewDetailId>%\PSCALE %<\AcVar ViewScale \f "%sn">%
 71
     4
340
EFE
 90
       25
 62
   256
340
EFE
 90
       25
 62
   256
280
     0
  0
LAYOUT
  5
F11
102
{ACAD_REACTORS
330
F03
102
}
330
F03
100
AcDbPlotSettings
  1

  2
Send To OneNote 2013
  4

  6

 40
0.0
 41
0.0
 42
0.0
 43
0.0
 44
0.0
 45
0.0
 46
0.0
 47
0.0
 48
0.0
 49
0.0
140
0.0
141
0.0
142
1.0
143
1.0
 70
   688
 72
     0
 73
     0
 74
     5
  7
monochrome.ctb
 75
    16
147
1.0
 76
     0
 77
     2
 78
   300
148
0.0
149
0.0
100
AcDbLayout
  1
Layout1
 70
     1
 71
     1
 10
0.0
 20
0.0
 11
0.0
 21
0.0
 12
0.0
 22
0.0
 32
0.0
 14
1.000000000000000E+20
 24
1.000000000000000E+20
 34
1.000000000000000E+20
 15
-1.000000000000000E+20
 25
-1.000000000000000E+20
 35
-1.000000000000000E+20
146
0.0
 13
0.0
 23
0.0
 33
0.0
 16
1.0
 26
0.0
 36
0.0
 17
0.0
 27
1.0
 37
0.0
 76
     0
330
F0E
  0
LAYOUT
  5
F15
102
{ACAD_REACTORS
330
F03
102
}
330
F03
100
AcDbPlotSettings
  1

  2
Send To OneNote 2013
  4
Letter
  6

 40
9.260416030883787
 41
7.14373779296875
 42
7.14373779296875
 43
9.260406494140623
 44
215.8999938964844
 45
279.3999938964844
 46
0.0
 47
0.0
 48
0.0
 49
0.0
140
0.0
141
0.0
142
1.0
143
118.1534234377811
 70
 11952
 72
     0
 73
     1
 74
     0
  7
monochrome.ctb
 75
     0
147
0.0084635719465767
 76
     0
 77
     2
 78
   300
148
4080.977480529013
149
-3791.188905996249
100
AcDbLayout
  1
Model
 70
     1
 71
     0
 10
0.0
 20
0.0
 11
12.0
 21
9.0
 12
0.0
 22
0.0
 32
0.0
 14
0.0
 24
0.0
 34
0.0
 15
0.0
 25
0.0
 35
0.0
146
0.0
 13
0.0
 23
0.0
 33
0.0
 16
1.0
 26
0.0
 36
0.0
 17
0.0
 27
1.0
 37
0.0
 76
     0
330
F12
331
F17
1001
ACAD_PSEXT
1000
Send To OneNote 2013
1000
Send to Microsoft OneNote 15 Driver
1000
nul:
1000

1070
     0
  0
MATERIAL
  5
EBB
102
{ACAD_XDICTIONARY
360
EBC
102
}
102
{ACAD_REACTORS
330
EB2
102
}
330
EB2
100
AcDbMaterial
  1
ByBlock
 72
     0
 43
0.0208333333333333
 43
0.0
 43
0.0
 43
0.0
 43
0.0
 43
0.0208333333333333
 43
0.0
 43
0.0
 43
0.0
 43
0.0
 43
1.0
 43
0.0
 43
0.0
 43
0.0
 43
0.0
 43
1.0
 77
     0
 47
0.0208333333333333
 47
0.0
 47
0.0
 47
0.0
 47
0.0
 47
0.0208333333333333
 47
0.0
 47
0.0
 47
0.0
 47
0.0
 47
1.0
 47
0.0
 47
0.0
 47
0.0
 47
0.0
 47
1.0
171
     0
 49
0.0208333333333333
 49
0.0
 49
0.0
 49
0.0
 49
0.0
 49
0.0208333333333333
 49
0.0
 49
0.0
 49
0.0
 49
0.0
 49
1.0
 49
0.0
 49
0.0
 49
0.0
 49
0.0
 49
1.0
175
     0
142
0.0208333333333333
142
0.0
142
0.0
142
0.0
142
0.0
142
0.0208333333333333
142
0.0
142
0.0
142
0.0
142
0.0
142
1.0
142
0.0
142
0.0
142
0.0
142
0.0
142
1.0
179
     0
144
0.0208333333333333
144
0.0
144
0.0
144
0.0
144
0.0
144
0.0208333333333333
144
0.0
144
0.0
144
0.0
144
0.0
144
1.0
144
0.0
144
0.0
144
0.0
144
0.0
144
1.0
147
0.0208333333333333
147
0.0
147
0.0
147
0.0
147
0.0
147
0.0208333333333333
147
0.0
147
0.0
147
0.0
147
0.0
147
1.0
147
0.0
147
0.0
147
0.0
147
0.0
147
1.0
  0
MATERIAL
  5
EB3
102
{ACAD_XDICTIONARY
360
EB4
102
}
102
{ACAD_REACTORS
330
EB2
102
}
330
EB2
100
AcDbMaterial
  1
ByLayer
 72
     0
 43
0.0208333333333333
 43
0.0
 43
0.0
 43
0.0
 43
0.0
 43
0.0208333333333333
 43
0.0
 43
0.0
 43
0.0
 43
0.0
 43
1.0
 43
0.0
 43
0.0
 43
0.0
 43
0.0
 43
1.0
 77
     0
 47
0.0208333333333333
 47
0.0
 47
0.0
 47
0.0
 47
0.0
 47
0.0208333333333333
 47
0.0
 47
0.0
 47
0.0
 47
0.0
 47
1.0
 47
0.0
 47
0.0
 47
0.0
 47
0.0
 47
1.0
171
     0
 49
0.0208333333333333
 49
0.0
 49
0.0
 49
0.0
 49
0.0
 49
0.0208333333333333
 49
0.0
 49
0.0
 49
0.0
 49
0.0
 49
1.0
 49
0.0
 49
0.0
 49
0.0
 49
0.0
 49
1.0
175
     0
142
0.0208333333333333
142
0.0
142
0.0
142
0.0
142
0.0
142
0.0208333333333333
142
0.0
142
0.0
142
0.0
142
0.0
142
1.0
142
0.0
142
0.0
142
0.0
142
0.0
142
1.0
179
     0
144
0.0208333333333333
144
0.0
144
0.0
144
0.0
144
0.0
144
0.0208333333333333
144
0.0
144
0.0
144
0.0
144
0.0
144
1.0
144
0.0
144
0.0
144
0.0
144
0.0
144
1.0
147
0.0208333333333333
147
0.0
147
0.0
147
0.0
147
0.0
147
0.0208333333333333
147
0.0
147
0.0
147
0.0
147
0.0
147
1.0
147
0.0
147
0.0
147
0.0
147
0.0
147
1.0
  0
MATERIAL
  5
EC3
102
{ACAD_XDICTIONARY
360
EC4
102
}
102
{ACAD_REACTORS
330
EB2
102
}
330
EB2
100
AcDbMaterial
  1
Global
 72
     0
 43
0.0208333333333333
 43
0.0
 43
0.0
 43
0.0
 43
0.0
 43
0.0208333333333333
 43
0.0
 43
0.0
 43
0.0
 43
0.0
 43
1.0
 43
0.0
 43
0.0
 43
0.0
 43
0.0
 43
1.0
 77
     0
 47
0.0208333333333333
 47
0.0
 47
0.0
 47
0.0
 47
0.0
 47
0.0208333333333333
 47
0.0
 47
0.0
 47
0.0
 47
0.0
 47
1.0
 47
0.0
 47
0.0
 47
0.0
 47
0.0
 47
1.0
171
     0
 49
0.0208333333333333
 49
0.0
 49
0.0
 49
0.0
 49
0.0
 49
0.0208333333333333
 49
0.0
 49
0.0
 49
0.0
 49
0.0
 49
1.0
 49
0.0
 49
0.0
 49
0.0
 49
0.0
 49
1.0
175
     0
142
0.0208333333333333
142
0.0
142
0.0
142
0.0
142
0.0
142
0.0208333333333333
142
0.0
142
0.0
142
0.0
142
0.0
142
1.0
142
0.0
142
0.0
142
0.0
142
0.0
142
1.0
179
     0
144
0.0208333333333333
144
0.0
144
0.0
144
0.0
144
0.0
144
0.0208333333333333
144
0.0
144
0.0
144
0.0
144
0.0
144
1.0
144
0.0
144
0.0
144
0.0
144
0.0
144
1.0
147
0.0208333333333333
147
0.0
147
0.0
147
0.0
147
0.0
147
0.0208333333333333
147
0.0
147
0.0
147
0.0
147
0.0
147
1.0
147
0.0
147
0.0
147
0.0
147
0.0
147
1.0
  0
MLEADERSTYLE
  5
F08
102
{ACAD_REACTORS
330
F07
102
}
330
F07
100
AcDbMLeaderStyle
179
     2
170
     2
171
     1
172
     0
 90
        2
 40
0.0
 41
0.0
173
     1
 91
-1056964608
340
EFC
 92
       -2
290
     1
 42
0.09
291
     1
 43
0.36
  3
Standard
 44
0.18
300

342
EF7
174
     1
178
     6
175
     1
176
     0
 93
-1056964608
 45
0.18
292
     0
297
     0
 46
0.18
 94
-1056964608
 47
1.0
 49
1.0
140
1.0
293
     1
141
0.0
294
     1
177
     0
142
1.0
295
     0
296
     0
143
0.125
271
     0
272
     9
273
     9
298
     0
  0
MLINESTYLE
  5
F01
102
{ACAD_REACTORS
330
F00
102
}
330
F00
100
AcDbMlineStyle
  2
STANDARD
 70
     0
  3

 62
   256
 51
90.0
 52
90.0
 71
     2
 49
0.5
 62
   256
  6
BYLAYER
 49
-0.5
 62
   256
  6
BYLAYER
  0
ACDBPLACEHOLDER
  5
EB1
102
{ACAD_REACTORS
330
EB0
102
}
330
EB0
  0
SCALE
  5
EE5
102
{ACAD_REACTORS
330
EE4
102
}
330
EE4
100
AcDbScale
 70
     0
300
1:1
140
1.0
141
1.0
290
     1
  0
SCALE
  5
EE6
102
{ACAD_REACTORS
330
EE4
102
}
330
EE4
100
AcDbScale
 70
     0
300
1/128" = 1'-0"
140
0.0078125
141
12.0
290
     0
  0
SCALE
  5
EE7
102
{ACAD_REACTORS
330
EE4
102
}
330
EE4
100
AcDbScale
 70
     0
300
1/64" = 1'-0"
140
0.015625
141
12.0
290
     0
  0
SCALE
  5
EE8
102
{ACAD_REACTORS
330
EE4
102
}
330
EE4
100
AcDbScale
 70
     0
300
1/32" = 1'-0"
140
0.03125
141
12.0
290
     0
  0
SCALE
  5
EE9
102
{ACAD_REACTORS
330
EE4
102
}
330
EE4
100
AcDbScale
 70
     0
300
1/16" = 1'-0"
140
0.0625
141
12.0
290
     0
  0
SCALE
  5
EEA
102
{ACAD_REACTORS
330
EE4
102
}
330
EE4
100
AcDbScale
 70
     0
300
3/32" = 1'-0"
140
0.09375
141
12.0
290
     0
  0
SCALE
  5
EEB
102
{ACAD_REACTORS
330
EE4
102
}
330
EE4
100
AcDbScale
 70
     0
300
1/8" = 1'-0"
140
0.125
141
12.0
290
     0
  0
SCALE
  5
EEC
102
{ACAD_REACTORS
330
EE4
102
}
330
EE4
100
AcDbScale
 70
     0
300
3/16" = 1'-0"
140
0.1875
141
12.0
290
     0
  0
SCALE
  5
EED
102
{ACAD_REACTORS
330
EE4
102
}
330
EE4
100
AcDbScale
 70
     0
300
1/4" = 1'-0"
140
0.25
141
12.0
290
     0
  0
SCALE
  5
EEE
102
{ACAD_REACTORS
330
EE4
102
}
330
EE4
100
AcDbScale
 70
     0
300
3/8" = 1'-0"
140
0.375
141
12.0
290
     0
  0
SCALE
  5
EEF
102
{ACAD_REACTORS
330
EE4
102
}
330
EE4
100
AcDbScale
 70
     0
300
1/2" = 1'-0"
140
0.5
141
12.0
290
     0
  0
SCALE
  5
EF0
102
{ACAD_REACTORS
330
EE4
102
}
330
EE4
100
AcDbScale
 70
     0
300
3/4" = 1'-0"
140
0.75
141
12.0
290
     0
  0
SCALE
  5
EF1
102
{ACAD_REACTORS
330
EE4
102
}
330
EE4
100
AcDbScale
 70
     0
300
1" = 1'-0"
140
1.0
141
12.0
290
     0
  0
SCALE
  5
EF2
102
{ACAD_REACTORS
330
EE4
102
}
330
EE4
100
AcDbScale
 70
     0
300
1-1/2" = 1'-0"
140
1.5
141
12.0
290
     0
  0
SCALE
  5
EF3
102
{ACAD_REACTORS
330
EE4
102
}
330
EE4
100
AcDbScale
 70
     0
300
3" = 1'-0"
140
3.0
141
12.0
290
     0
  0
SCALE
  5
EF4
102
{ACAD_REACTORS
330
EE4
102
}
330
EE4
100
AcDbScale
 70
     0
300
6" = 1'-0"
140
6.0
141
12.0
290
     0
  0
SCALE
  5
EF5
102
{ACAD_REACTORS
330
EE4
102
}
330
EE4
100
AcDbScale
 70
     0
300
1'-0" = 1'-0"
140
12.0
141
12.0
290
     0
  0
ACDBSECTIONVIEWSTYLE
  5
F0B
102
{ACAD_REACTORS
330
F09
102
}
330
F09
100
AcDbModelDocViewStyle
 70
     0
  3
Imperial24
290
     0
100
AcDbSectionViewStyle
 70
     0
 71
     0
 90
       78
 71
     1
340
EF7
 62
   256
 40
0.24
340
0
340
0
 62
   256
 40
0.24
300
I, O, Q, S, X, Z
 40
0.48
 90
        3
 40
0.18
 90
        1
 71
     2
340
F0A
 90
       25
 62
   256
340
EFE
 90
       50
 62
   256
 40
0.24
 40
0.0
 40
0.24
 71
     3
340
EF7
 62
   256
 40
0.24
 90
        1
 40
0.75
 90
        1
300
%<\AcVar ViewType \f "%tc1">% %<\AcVar ViewSectionStartId>%-%<\AcVar ViewSectionEndId>%\PSCALE %<\AcVar ViewScale \f "%sn">%
 71
     4
 62
   256
 62
   257
300
ANSI31
 40
1.0
 90
        0
290
     0
290
     0
 90
        6
 40
0.0
 40
1.570796326794896
 40
0.2617993877991494
 40
1.308996938995747
 40
-0.2617993877991494
 40
1.832595714594044
  0
TABLESTYLE
  5
F06
102
{ACAD_XDICTIONARY
360
1102
102
}
102
{ACAD_REACTORS
330
F05
102
}
330
F05
100
AcDbTableStyle
280
     0
  3
Standard
 70
     0
 71
     0
 40
0.06
 41
0.06
280
     0
281
     0
  7
STANDARD
140
0.18
170
     2
 62
     0
 63
     7
283
     0
 90
      512
 91
        0
  1

274
    -2
284
     1
 64
     0
275
    -2
285
     1
 65
     0
276
    -2
286
     1
 66
     0
277
    -2
287
     1
 67
     0
278
    -2
288
     1
 68
     0
279
    -2
289
     1
 69
     0
  7
STANDARD
140
0.25
170
     5
 62
     0
 63
     7
283
     0
 90
      512
 91
        0
  1

274
    -2
284
     1
 64
     0
275
    -2
285
     1
 65
     0
276
    -2
286
     1
 66
     0
277
    -2
287
     1
 67
     0
278
    -2
288
     1
 68
     0
279
    -2
289
     1
 69
     0
  7
STANDARD
140
0.18
170
     5
 62
     0
 63
     7
283
     0
 90
      512
 91
        0
  1

274
    -2
284
     1
 64
     0
275
    -2
285
     1
 65
     0
276
    -2
286
     1
 66
     0
277
    -2
287
     1
 67
     0
278
    -2
288
     1
 68
     0
279
    -2
289
     1
 69
     0
  0
VISUALSTYLE
  5
ED1
102
{ACAD_REACTORS
330
ECB
102
}
330
ECB
100
AcDbVisualStyle
  2
2dWireframe
 70
     4
177
     3
291
     0
 70
    58
 90
        0
176
     1
 90
        2
176
     1
 90
        0
176
     1
 90
        0
176
     1
 40
0.6
176
     1
 40
30.0
176
     1
 62
     7
420
 16777215
176
     1
 90
        1
176
     1
 90
        4
176
     1
 62
     7
176
     1
 62
   257
176
     1
 90
        1
176
     1
 90
        1
176
     1
 40
1.0
176
     1
 90
        0
176
     1
 62
   257
176
     1
 40
1.0
176
     1
 90
        1
176
     1
 90
        6
176
     1
 90
        2
176
     1
 62
     7
176
     1
 90
        5
176
     1
 90
        0
176
     1
 90
        0
176
     1
290
     0
176
     1
 90
        1
176
     1
 40
0.0
176
     1
 90
        0
176
     1
290
     1
176
     1
290
     1
176
     1
290
     0
176
     1
290
     0
176
     1
290
     0
176
     1
290
     0
176
     1
290
     0
176
     1
290
     0
176
     1
290
     0
176
     1
 90
       50
176
     1
 40
0.0
176
     1
 40
1.0
176
     1
 90
        0
176
     1
 62
    18
176
     1
 90
       50
176
     1
 90
        3
176
     1
 62
     5
420
      255
176
     1
290
     0
176
     1
 90
       50
176
     1
 90
       50
176
     1
 90
       50
176
     1
290
     0
176
     1
 90
       50
176
     1
 62
   256
176
     0
 40
1.0
176
     0
 90
        2
176
     1
  1
strokes_ogs.tif
176
     1
290
     0
176
     1
 40
1.0
176
     1
 40
1.0
176
     1
  0
VISUALSTYLE
  5
ED0
102
{ACAD_REACTORS
330
ECB
102
}
330
ECB
100
AcDbVisualStyle
  2
Basic
 70
     7
177
     3
291
     1
 70
    58
 90
        1
176
     1
 90
        0
176
     1
 90
        1
176
     1
 90
        0
176
     1
 40
0.6
176
     1
 40
30.0
176
     1
 62
     7
420
 16777215
176
     1
 90
        0
176
     1
 90
        4
176
     1
 62
     7
176
     1
 62
   257
176
     1
 90
        1
176
     1
 90
        1
176
     1
 40
1.0
176
     1
 90
        8
176
     1
 62
     7
176
     1
 40
1.0
176
     1
 90
        1
176
     1
 90
        6
176
     1
 90
        2
176
     1
 62
     7
176
     1
 90
        5
176
     1
 90
        0
176
     1
 90
        0
176
     1
290
     0
176
     1
 90
        1
176
     1
 40
0.0
176
     1
 90
        0
176
     1
290
     0
176
     1
290
     1
176
     1
290
     1
176
     1
290
     0
176
     1
290
     0
176
     1
290
     0
176
     1
290
     0
176
     1
290
     0
176
     1
290
     0
176
     1
 90
       50
176
     1
 40
0.0
176
     1
 40
1.0
176
     1
 90
        0
176
     1
 62
    18
176
     1
 90
       50
176
     1
 90
        3
176
     1
 62
     5
420
      255
176
     1
290
     0
176
     1
 90
       50
176
     1
 90
       50
176
     1
 90
       50
176
     1
290
     0
176
     1
 90
       50
176
     1
 62
   256
176
     0
 40
1.0
176
     0
 90
        2
176
     1
  1
strokes_ogs.tif
176
     1
290
     0
176
     1
 40
1.0
176
     1
 40
1.0
176
     1
  0
VISUALSTYLE
  5
ED7
102
{ACAD_REACTORS
330
ECB
102
}
330
ECB
100
AcDbVisualStyle
  2
Brighten
 70
    12
177
     3
291
     1
 70
    58
 90
        2
176
     1
 90
        2
176
     1
 90
        0
176
     1
 90
        0
176
     1
 40
0.6
176
     1
 40
30.0
176
     1
 62
     7
420
 16777215
176
     1
 90
        1
176
     1
 90
        4
176
     1
 62
     7
176
     1
 62
   257
176
     1
 90
        1
176
     1
 90
        1
176
     1
 40
1.0
176
     1
 90
        8
176
     1
 62
     7
176
     1
 40
1.0
176
     1
 90
        1
176
     1
 90
        6
176
     1
 90
        2
176
     1
 62
     7
176
     1
 90
        5
176
     1
 90
        0
176
     1
 90
        0
176
     1
290
     0
176
     1
 90
        1
176
     1
 40
50.0
176
     1
 90
        0
176
     1
290
     0
176
     1
290
     1
176
     1
290
     1
176
     1
290
     0
176
     1
290
     0
176
     1
290
     0
176
     1
290
     0
176
     1
290
     0
176
     1
290
     0
176
     1
 90
       50
176
     1
 40
0.0
176
     1
 40
1.0
176
     1
 90
        0
176
     1
 62
    18
176
     1
 90
       50
176
     1
 90
        3
176
     1
 62
     5
420
      255
176
     1
290
     0
176
     1
 90
       50
176
     1
 90
       50
176
     1
 90
       50
176
     1
290
     0
176
     1
 90
       50
176
     1
 62
   256
176
     0
 40
1.0
176
     0
 90
        2
176
     1
  1
strokes_ogs.tif
176
     1
290
     0
176
     1
 40
1.0
176
     1
 40
1.0
176
     1
  0
VISUALSTYLE
  5
EDB
102
{ACAD_REACTORS
330
ECB
102
}
330
ECB
100
AcDbVisualStyle
  2
ColorChange
 70
    16
177
     3
291
     1
 70
    58
 90
        2
176
     1
 90
        2
176
     1
 90
        3
176
     1
 90
        0
176
     1
 40
0.6
176
     1
 40
30.0
176
     1
 62
     8
420
  8421504
176
     1
 90
        1
176
     1
 90
        4
176
     1
 62
     7
176
     1
 62
   257
176
     1
 90
        1
176
     1
 90
        1
176
     1
 40
1.0
176
     1
 90
        8
176
     1
 62
     8
420
  8421504
176
     1
 40
1.0
176
     1
 90
        1
176
     1
 90
        6
176
     1
 90
        2
176
     1
 62
     7
176
     1
 90
        5
176
     1
 90
        0
176
     1
 90
        0
176
     1
290
     0
176
     1
 90
        1
176
     1
 40
0.0
176
     1
 90
        0
176
     1
290
     0
176
     1
290
     1
176
     1
290
     1
176
     1
290
     0
176
     1
290
     0
176
     1
290
     0
176
     1
290
     0
176
     1
290
     0
176
     1
290
     0
176
     1
 90
       50
176
     1
 40
0.0
176
     1
 40
1.0
176
     1
 90
        0
176
     1
 62
    18
176
     1
 90
       50
176
     1
 90
        3
176
     1
 62
     5
420
      255
176
     1
290
     0
176
     1
 90
       50
176
     1
 90
       50
176
     1
 90
       50
176
     1
290
     0
176
     1
 90
       50
176
     1
 62
   256
176
     0
 40
1.0
176
     0
 90
        2
176
     1
  1
strokes_ogs.tif
176
     1
290
     0
176
     1
 40
1.0
176
     1
 40
1.0
176
     1
  0
VISUALSTYLE
  5
ED4
102
{ACAD_REACTORS
330
ECB
102
}
330
ECB
100
AcDbVisualStyle
  2
Conceptual
 70
     9
177
     3
291
     0
 70
    58
 90
        3
176
     1
 90
        2
176
     1
 90
        0
176
     1
 90
        0
176
     1
 40
0.6
176
     1
 40
30.0
176
     1
 62
     7
420
 16777215
176
     1
 90
        2
176
     1
 90
        2
176
     1
 62
     7
176
     1
 62
   257
176
     1
 90
        1
176
     1
 90
        1
176
     1
 40
179.0
176
     1
 90
        8
176
     1
 62
     7
176
     1
 40
1.0
176
     1
 90
        1
176
     1
 90
        6
176
     1
 90
        2
176
     1
 62
     7
176
     1
 90
        3
176
     1
 90
        0
176
     1
 90
        0
176
     1
290
     0
176
     1
 90
        1
176
     1
 40
0.0
176
     1
 90
        0
176
     1
290
     0
176
     1
290
     1
176
     1
290
     1
176
     1
290
     0
176
     1
290
     0
176
     1
290
     0
176
     1
290
     0
176
     1
290
     0
176
     1
290
     0
176
     1
 90
       50
176
     1
 40
0.0
176
     1
 40
1.0
176
     1
 90
        0
176
     1
 62
    18
176
     1
 90
       50
176
     1
 90
        3
176
     1
 62
     5
420
      255
176
     1
290
     0
176
     1
 90
       50
176
     1
 90
       50
176
     1
 90
       50
176
     1
290
     0
176
     1
 90
       50
176
     1
 62
   256
176
     0
 40
1.0
176
     0
 90
        2
176
     1
  1
strokes_ogs.tif
176
     1
290
     0
176
     1
 40
1.0
176
     1
 40
1.0
176
     1
  0
VISUALSTYLE
  5
ED6
102
{ACAD_REACTORS
330
ECB
102
}
330
ECB
100
AcDbVisualStyle
  2
Dim
 70
    11
177
     3
291
     1
 70
    58
 90
        2
176
     1
 90
        2
176
     1
 90
        0
176
     1
 90
        0
176
     1
 40
0.6
176
     1
 40
30.0
176
     1
 62
     7
420
 16777215
176
     1
 90
        1
176
     1
 90
        4
176
     1
 62
     7
176
     1
 62
   257
176
     1
 90
        1
176
     1
 90
        1
176
     1
 40
1.0
176
     1
 90
        8
176
     1
 62
     7
176
     1
 40
1.0
176
     1
 90
        1
176
     1
 90
        6
176
     1
 90
        2
176
     1
 62
     7
176
     1
 90
        5
176
     1
 90
        0
176
     1
 90
        0
176
     1
290
     0
176
     1
 90
        1
176
     1
 40
-50.0
176
     1
 90
        0
176
     1
290
     0
176
     1
290
     1
176
     1
290
     1
176
     1
290
     0
176
     1
290
     0
176
     1
290
     0
176
     1
290
     0
176
     1
290
     0
176
     1
290
     0
176
     1
 90
       50
176
     1
 40
0.0
176
     1
 40
1.0
176
     1
 90
        0
176
     1
 62
    18
176
     1
 90
       50
176
     1
 90
        3
176
     1
 62
     5
420
      255
176
     1
290
     0
176
     1
 90
       50
176
     1
 90
       50
176
     1
 90
       50
176
     1
290
     0
176
     1
 90
       50
176
     1
 62
   256
176
     0
 40
1.0
176
     0
 90
        2
176
     1
  1
strokes_ogs.tif
176
     1
290
     0
176
     1
 40
1.0
176
     1
 40
1.0
176
     1
  0
VISUALSTYLE
  5
EE3
102
{ACAD_REACTORS
330
ECB
102
}
330
ECB
100
AcDbVisualStyle
  2
EdgeColorOff
 70
    22
177
     3
291
     1
 70
    58
 90
        2
176
     0
 90
        2
176
     0
 90
        0
176
     0
 90
        0
176
     0
 40
0.6
176
     0
 40
30.0
176
     0
 62
     7
420
 16777215
176
     0
 90
        1
176
     0
 90
        4
176
     0
 62
     7
176
     0
 62
   257
176
     0
 90
        1
176
     0
 90
        1
176
     0
 40
1.0
176
     0
 90
        8
176
     2
 62
     7
176
     0
 40
1.0
176
     0
 90
        1
176
     0
 90
        6
176
     0
 90
        2
176
     0
 62
     7
176
     0
 90
        5
176
     0
 90
        0
176
     0
 90
        0
176
     0
290
     0
176
     0
 90
        1
176
     0
 40
0.0
176
     0
 90
        0
176
     0
290
     0
176
     1
290
     1
176
     1
290
     1
176
     1
290
     0
176
     1
290
     0
176
     1
290
     0
176
     1
290
     0
176
     1
290
     0
176
     1
290
     0
176
     1
 90
       50
176
     0
 40
0.0
176
     0
 40
1.0
176
     0
 90
        0
176
     0
 62
    18
176
     0
 90
       50
176
     0
 90
        3
176
     0
 62
     5
420
      255
176
     0
290
     0
176
     1
 90
       50
176
     0
 90
       50
176
     0
 90
       50
176
     0
290
     0
176
     1
 90
       50
176
     0
 62
   256
176
     0
 40
1.0
176
     0
 90
        2
176
     0
  1
strokes_ogs.tif
176
     0
290
     0
176
     1
 40
1.0
176
     0
 40
1.0
176
     0
  0
VISUALSTYLE
  5
EDA
102
{ACAD_REACTORS
330
ECB
102
}
330
ECB
100
AcDbVisualStyle
  2
Facepattern
 70
    15
177
     3
291
     1
 70
    58
 90
        2
176
     1
 90
        2
176
     1
 90
        0
176
     1
 90
        0
176
     1
 40
0.6
176
     1
 40
30.0
176
     1
 62
     7
420
 16777215
176
     1
 90
        1
176
     1
 90
        4
176
     1
 62
     7
176
     1
 62
   257
176
     1
 90
        1
176
     1
 90
        1
176
     1
 40
1.0
176
     1
 90
        8
176
     1
 62
     7
176
     1
 40
1.0
176
     1
 90
        1
176
     1
 90
        6
176
     1
 90
        2
176
     1
 62
     7
176
     1
 90
        5
176
     1
 90
        0
176
     1
 90
        0
176
     1
290
     0
176
     1
 90
        1
176
     1
 40
0.0
176
     1
 90
        0
176
     1
290
     0
176
     1
290
     1
176
     1
290
     1
176
     1
290
     0
176
     1
290
     0
176
     1
290
     0
176
     1
290
     0
176
     1
290
     0
176
     1
290
     0
176
     1
 90
       50
176
     1
 40
0.0
176
     1
 40
1.0
176
     1
 90
        0
176
     1
 62
    18
176
     1
 90
       50
176
     1
 90
        3
176
     1
 62
     5
420
      255
176
     1
290
     0
176
     1
 90
       50
176
     1
 90
       50
176
     1
 90
       50
176
     1
290
     0
176
     1
 90
       50
176
     1
 62
   256
176
     0
 40
1.0
176
     0
 90
        2
176
     1
  1
strokes_ogs.tif
176
     1
290
     0
176
     1
 40
1.0
176
     1
 40
1.0
176
     1
  0
VISUALSTYLE
  5
ECC
102
{ACAD_REACTORS
330
ECB
102
}
330
ECB
100
AcDbVisualStyle
  2
Flat
 70
     0
177
     3
291
     1
 70
    58
 90
        2
176
     1
 90
        1
176
     1
 90
        1
176
     1
 90
        2
176
     1
 40
0.6
176
     1
 40
30.0
176
     1
 62
     7
420
 16777215
176
     1
 90
        0
176
     1
 90
        0
176
     1
 62
     7
176
     1
 62
   257
176
     1
 90
        1
176
     1
 90
        1
176
     1
 40
1.0
176
     1
 90
        8
176
     1
 62
     7
176
     1
 40
1.0
176
     1
 90
        1
176
     1
 90
        6
176
     1
 90
        2
176
     1
 62
     7
176
     1
 90
        5
176
     1
 90
        0
176
     1
 90
        0
176
     1
290
     0
176
     1
 90
       13
176
     1
 40
0.0
176
     1
 90
        0
176
     1
290
     0
176
     1
290
     1
176
     1
290
     1
176
     1
290
     0
176
     1
290
     0
176
     1
290
     0
176
     1
290
     0
176
     1
290
     0
176
     1
290
     0
176
     1
 90
       50
176
     1
 40
0.0
176
     1
 40
1.0
176
     1
 90
        0
176
     1
 62
    18
176
     1
 90
       50
176
     1
 90
        3
176
     1
 62
     5
420
      255
176
     1
290
     0
176
     1
 90
       50
176
     1
 90
       50
176
     1
 90
       50
176
     1
290
     0
176
     1
 90
       50
176
     1
 62
   256
176
     0
 40
1.0
176
     0
 90
        2
176
     1
  1
strokes_ogs.tif
176
     1
290
     0
176
     1
 40
1.0
176
     1
 40
1.0
176
     1
  0
VISUALSTYLE
  5
ECD
102
{ACAD_REACTORS
330
ECB
102
}
330
ECB
100
AcDbVisualStyle
  2
FlatWithEdges
 70
     1
177
     3
291
     1
 70
    58
 90
        2
176
     1
 90
        1
176
     1
 90
        1
176
     1
 90
        2
176
     1
 40
0.6
176
     1
 40
30.0
176
     1
 62
     7
420
 16777215
176
     1
 90
        1
176
     1
 90
        0
176
     1
 62
     7
176
     1
 62
   257
176
     1
 90
        1
176
     1
 90
        1
176
     1
 40
1.0
176
     1
 90
        0
176
     1
 62
   257
176
     1
 40
1.0
176
     1
 90
        1
176
     1
 90
        6
176
     1
 90
        2
176
     1
 62
     7
176
     1
 90
        5
176
     1
 90
        0
176
     1
 90
        0
176
     1
290
     0
176
     1
 90
       13
176
     1
 40
0.0
176
     1
 90
        0
176
     1
290
     0
176
     1
290
     1
176
     1
290
     1
176
     1
290
     0
176
     1
290
     0
176
     1
290
     0
176
     1
290
     0
176
     1
290
     0
176
     1
290
     0
176
     1
 90
       50
176
     1
 40
0.0
176
     1
 40
1.0
176
     1
 90
        0
176
     1
 62
    18
176
     1
 90
       50
176
     1
 90
        3
176
     1
 62
     5
420
      255
176
     1
290
     0
176
     1
 90
       50
176
     1
 90
       50
176
     1
 90
       50
176
     1
290
     0
176
     1
 90
       50
176
     1
 62
   256
176
     0
 40
1.0
176
     0
 90
        2
176
     1
  1
strokes_ogs.tif
176
     1
290
     0
176
     1
 40
1.0
176
     1
 40
1.0
176
     1
  0
VISUALSTYLE
  5
ECE
102
{ACAD_REACTORS
330
ECB
102
}
330
ECB
100
AcDbVisualStyle
  2
Gouraud
 70
     2
177
     3
291
     1
 70
    58
 90
        2
176
     1
 90
        2
176
     1
 90
        1
176
     1
 90
        2
176
     1
 40
0.6
176
     1
 40
30.0
176
     1
 62
     7
420
 16777215
176
     1
 90
        0
176
     1
 90
        0
176
     1
 62
     7
176
     1
 62
   257
176
     1
 90
        1
176
     1
 90
        1
176
     1
 40
1.0
176
     1
 90
        0
176
     1
 62
     7
176
     1
 40
1.0
176
     1
 90
        1
176
     1
 90
        6
176
     1
 90
        2
176
     1
 62
     7
176
     1
 90
        5
176
     1
 90
        0
176
     1
 90
        0
176
     1
290
     0
176
     1
 90
       13
176
     1
 40
0.0
176
     1
 90
        0
176
     1
290
     0
176
     1
290
     1
176
     1
290
     1
176
     1
290
     0
176
     1
290
     0
176
     1
290
     0
176
     1
290
     0
176
     1
290
     0
176
     1
290
     0
176
     1
 90
       50
176
     1
 40
0.0
176
     1
 40
1.0
176
     1
 90
        0
176
     1
 62
    18
176
     1
 90
       50
176
     1
 90
        3
176
     1
 62
     5
420
      255
176
     1
290
     0
176
     1
 90
       50
176
     1
 90
       50
176
     1
 90
       50
176
     1
290
     0
176
     1
 90
       50
176
     1
 62
   256
176
     0
 40
1.0
176
     0
 90
        2
176
     1
  1
strokes_ogs.tif
176
     1
290
     0
176
     1
 40
1.0
176
     1
 40
1.0
176
     1
  0
VISUALSTYLE
  5
ECF
102
{ACAD_REACTORS
330
ECB
102
}
330
ECB
100
AcDbVisualStyle
  2
GouraudWithEdges
 70
     3
177
     3
291
     1
 70
    58
 90
        2
176
     1
 90
        2
176
     1
 90
        1
176
     1
 90
        2
176
     1
 40
0.6
176
     1
 40
30.0
176
     1
 62
     7
420
 16777215
176
     1
 90
        1
176
     1
 90
        0
176
     1
 62
     7
176
     1
 62
   257
176
     1
 90
        1
176
     1
 90
        1
176
     1
 40
1.0
176
     1
 90
        0
176
     1
 62
   257
176
     1
 40
1.0
176
     1
 90
        1
176
     1
 90
        6
176
     1
 90
        2
176
     1
 62
     7
176
     1
 90
        5
176
     1
 90
        0
176
     1
 90
        0
176
     1
290
     0
176
     1
 90
       13
176
     1
 40
0.0
176
     1
 90
        0
176
     1
290
     0
176
     1
290
     1
176
     1
290
     1
176
     1
290
     0
176
     1
290
     0
176
     1
290
     0
176
     1
290
     0
176
     1
290
     0
176
     1
290
     0
176
     1
 90
       50
176
     1
 40
0.0
176
     1
 40
1.0
176
     1
 90
        0
176
     1
 62
    18
176
     1
 90
       50
176
     1
 90
        3
176
     1
 62
     5
420
      255
176
     1
290
     0
176
     1
 90
       50
176
     1
 90
       50
176
     1
 90
       50
176
     1
290
     0
176
     1
 90
       50
176
     1
 62
   256
176
     0
 40
1.0
176
     0
 90
        2
176
     1
  1
strokes_ogs.tif
176
     1
290
     0
176
     1
 40
1.0
176
     1
 40
1.0
176
     1
  0
VISUALSTYLE
  5
ED3
102
{ACAD_REACTORS
330
ECB
102
}
330
ECB
100
AcDbVisualStyle
  2
Hidden
 70
     6
177
     3
291
     0
 70
    58
 90
        1
176
     1
 90
        2
176
     1
 90
        2
176
     1
 90
        0
176
     1
 40
0.6
176
     1
 40
30.0
176
     1
 62
     7
420
 16777215
176
     1
 90
        2
176
     1
 90
        2
176
     1
 62
     7
176
     1
 62
   257
176
     1
 90
        2
176
     1
 90
        1
176
     1
 40
40.0
176
     1
 90
        0
176
     1
 62
   257
176
     1
 40
1.0
176
     1
 90
        1
176
     1
 90
        6
176
     1
 90
        2
176
     1
 62
     7
176
     1
 90
        3
176
     1
 90
        0
176
     1
 90
        0
176
     1
290
     0
176
     1
 90
        1
176
     1
 40
0.0
176
     1
 90
        0
176
     1
290
     0
176
     1
290
     1
176
     1
290
     1
176
     1
290
     0
176
     1
290
     0
176
     1
290
     0
176
     1
290
     0
176
     1
290
     0
176
     1
290
     0
176
     1
 90
       50
176
     1
 40
0.0
176
     1
 40
1.0
176
     1
 90
        0
176
     1
 62
    18
176
     1
 90
       50
176
     1
 90
        3
176
     1
 62
     5
420
      255
176
     1
290
     0
176
     1
 90
       50
176
     1
 90
       50
176
     1
 90
       50
176
     1
290
     0
176
     1
 90
       50
176
     1
 62
   256
176
     0
 40
1.0
176
     0
 90
        2
176
     1
  1
strokes_ogs.tif
176
     1
290
     0
176
     1
 40
1.0
176
     1
 40
1.0
176
     1
  0
VISUALSTYLE
  5
EE1
102
{ACAD_REACTORS
330
ECB
102
}
330
ECB
100
AcDbVisualStyle
  2
JitterOff
 70
    20
177
     3
291
     1
 70
    58
 90
        2
176
     0
 90
        2
176
     0
 90
        0
176
     0
 90
        0
176
     0
 40
0.6
176
     0
 40
30.0
176
     0
 62
     7
420
 16777215
176
     0
 90
        1
176
     0
 90
        4
176
     0
 62
     7
176
     0
 62
   257
176
     0
 90
        1
176
     0
 90
        1
176
     0
 40
1.0
176
     0
 90
       10
176
     2
 62
     7
176
     0
 40
1.0
176
     0
 90
        1
176
     0
 90
        6
176
     0
 90
        2
176
     0
 62
     7
176
     0
 90
        5
176
     0
 90
        0
176
     0
 90
        0
176
     0
290
     0
176
     0
 90
        1
176
     0
 40
0.0
176
     0
 90
        0
176
     0
290
     0
176
     1
290
     1
176
     1
290
     1
176
     1
290
     0
176
     1
290
     0
176
     1
290
     0
176
     1
290
     0
176
     1
290
     0
176
     1
290
     0
176
     1
 90
       50
176
     0
 40
0.0
176
     0
 40
1.0
176
     0
 90
        0
176
     0
 62
    18
176
     0
 90
       50
176
     0
 90
        3
176
     0
 62
     5
420
      255
176
     0
290
     0
176
     1
 90
       50
176
     0
 90
       50
176
     0
 90
       50
176
     0
290
     0
176
     1
 90
       50
176
     0
 62
   256
176
     0
 40
1.0
176
     0
 90
        2
176
     0
  1
strokes_ogs.tif
176
     0
290
     0
176
     1
 40
1.0
176
     0
 40
1.0
176
     0
  0
VISUALSTYLE
  5
ED9
102
{ACAD_REACTORS
330
ECB
102
}
330
ECB
100
AcDbVisualStyle
  2
Linepattern
 70
    14
177
     3
291
     1
 70
    58
 90
        2
176
     1
 90
        2
176
     1
 90
        0
176
     1
 90
        0
176
     1
 40
0.6
176
     1
 40
30.0
176
     1
 62
     7
420
 16777215
176
     1
 90
        1
176
     1
 90
        4
176
     1
 62
     7
176
     1
 62
   257
176
     1
 90
        7
176
     1
 90
        7
176
     1
 40
1.0
176
     1
 90
        8
176
     1
 62
     7
176
     1
 40
1.0
176
     1
 90
        1
176
     1
 90
        6
176
     1
 90
        2
176
     1
 62
     7
176
     1
 90
        5
176
     1
 90
        0
176
     1
 90
        0
176
     1
290
     0
176
     1
 90
        1
176
     1
 40
0.0
176
     1
 90
        0
176
     1
290
     0
176
     1
290
     1
176
     1
290
     1
176
     1
290
     0
176
     1
290
     0
176
     1
290
     0
176
     1
290
     0
176
     1
290
     0
176
     1
290
     0
176
     1
 90
       50
176
     1
 40
0.0
176
     1
 40
1.0
176
     1
 90
        0
176
     1
 62
    18
176
     1
 90
       50
176
     1
 90
        3
176
     1
 62
     5
420
      255
176
     1
290
     0
176
     1
 90
       50
176
     1
 90
       50
176
     1
 90
       50
176
     1
290
     0
176
     1
 90
       50
176
     1
 62
   256
176
     0
 40
1.0
176
     0
 90
        2
176
     1
  1
strokes_ogs.tif
176
     1
290
     0
176
     1
 40
1.0
176
     1
 40
1.0
176
     1
  0
VISUALSTYLE
  5
EE2
102
{ACAD_REACTORS
330
ECB
102
}
330
ECB
100
AcDbVisualStyle
  2
OverhangOff
 70
    21
177
     3
291
     1
 70
    58
 90
        2
176
     0
 90
        2
176
     0
 90
        0
176
     0
 90
        0
176
     0
 40
0.6
176
     0
 40
30.0
176
     0
 62
     7
420
 16777215
176
     0
 90
        1
176
     0
 90
        4
176
     0
 62
     7
176
     0
 62
   257
176
     0
 90
        1
176
     0
 90
        1
176
     0
 40
1.0
176
     0
 90
        9
176
     2
 62
     7
176
     0
 40
1.0
176
     0
 90
        1
176
     0
 90
        6
176
     0
 90
        2
176
     0
 62
     7
176
     0
 90
        5
176
     0
 90
        0
176
     0
 90
        0
176
     0
290
     0
176
     0
 90
        1
176
     0
 40
0.0
176
     0
 90
        0
176
     0
290
     0
176
     1
290
     1
176
     1
290
     1
176
     1
290
     0
176
     1
290
     0
176
     1
290
     0
176
     1
290
     0
176
     1
290
     0
176
     1
290
     0
176
     1
 90
       50
176
     0
 40
0.0
176
     0
 40
1.0
176
     0
 90
        0
176
     0
 62
    18
176
     0
 90
       50
176
     0
 90
        3
176
     0
 62
     5
420
      255
176
     0
290
     0
176
     1
 90
       50
176
     0
 90
       50
176
     0
 90
       50
176
     0
290
     0
176
     1
 90
       50
176
     0
 62
   256
176
     0
 40
1.0
176
     0
 90
        2
176
     0
  1
strokes_ogs.tif
176
     0
290
     0
176
     1
 40
1.0
176
     0
 40
1.0
176
     0
  0
VISUALSTYLE
  5
ED5
102
{ACAD_REACTORS
330
ECB
102
}
330
ECB
100
AcDbVisualStyle
  2
Realistic
 70
     8
177
     3
291
     0
 70
    58
 90
        2
176
     1
 90
        3
176
     1
 90
        0
176
     1
 90
        2
176
     1
 40
0.6
176
     1
 40
30.0
176
     1
 62
     7
420
 16777215
176
     1
 90
        0
176
     1
 90
        0
176
     1
 62
     7
176
     1
 62
   257
176
     1
 90
        1
176
     1
 90
        1
176
     1
 40
1.0
176
     1
 90
        8
176
     1
 62
   257
176
     1
 40
1.0
176
     1
 90
        1
176
     1
 90
        6
176
     1
 90
        2
176
     1
 62
     7
176
     1
 90
        3
176
     1
 90
        0
176
     1
 90
        0
176
     1
290
     0
176
     1
 90
       13
176
     1
 40
0.0
176
     1
 90
        0
176
     1
290
     0
176
     1
290
     1
176
     1
290
     1
176
     1
290
     0
176
     1
290
     0
176
     1
290
     0
176
     1
290
     0
176
     1
290
     0
176
     1
290
     0
176
     1
 90
       50
176
     1
 40
0.0
176
     1
 40
1.0
176
     1
 90
        0
176
     1
 62
    18
176
     1
 90
       50
176
     1
 90
        3
176
     1
 62
     5
420
      255
176
     1
290
     0
176
     1
 90
       50
176
     1
 90
       50
176
     1
 90
       50
176
     1
290
     0
176
     1
 90
       50
176
     1
 62
   256
176
     0
 40
1.0
176
     0
 90
        2
176
     1
  1
strokes_ogs.tif
176
     1
290
     0
176
     1
 40
1.0
176
     1
 40
1.0
176
     1
  0
VISUALSTYLE
  5
EE0
102
{ACAD_REACTORS
330
ECB
102
}
330
ECB
100
AcDbVisualStyle
  2
Shaded
 70
    27
177
     3
291
     0
 70
    58
 90
        2
176
     1
 90
        2
176
     1
 90
        1
176
     1
 90
        2
176
     1
 40
0.6
176
     1
 40
30.0
176
     1
 62
     7
420
 16777215
176
     1
 90
        0
176
     1
 90
        4
176
     1
 62
     7
176
     1
 62
   257
176
     1
 90
        1
176
     1
 90
        1
176
     1
 40
1.0
176
     1
 90
        8
176
     1
 62
   257
176
     1
 40
1.0
176
     1
 90
        1
176
     1
 90
        6
176
     1
 90
        2
176
     1
 62
     8
420
  7895160
176
     1
 90
        3
176
     1
 90
        0
176
     1
 90
        0
176
     1
290
     0
176
     1
 90
        5
176
     1
 40
0.0
176
     1
 90
        0
176
     1
290
     0
176
     1
290
     1
176
     1
290
     1
176
     1
290
     0
176
     1
290
     0
176
     1
290
     0
176
     1
290
     0
176
     1
290
     0
176
     1
290
     0
176
     1
 90
       50
176
     1
 40
0.0
176
     1
 40
1.0
176
     1
 90
        0
176
     1
 62
    18
176
     1
 90
       50
176
     1
 90
        3
176
     1
 62
     5
420
      255
176
     1
290
     0
176
     1
 90
       50
176
     1
 90
       50
176
     1
 90
       50
176
     1
290
     0
176
     1
 90
       50
176
     1
 62
   256
176
     0
 40
1.0
176
     0
 90
        2
176
     1
  1
strokes_ogs.tif
176
     1
290
     0
176
     1
 40
1.0
176
     1
 40
1.0
176
     1
  0
VISUALSTYLE
  5
EDF
102
{ACAD_REACTORS
330
ECB
102
}
330
ECB
100
AcDbVisualStyle
  2
Shaded with edges
 70
    26
177
     3
291
     0
 70
    58
 90
        2
176
     1
 90
        2
176
     1
 90
        1
176
     1
 90
        2
176
     1
 40
0.6
176
     1
 40
30.0
176
     1
 62
     7
420
 16777215
176
     1
 90
        1
176
     1
 90
       10
176
     1
 62
     7
176
     1
 62
   257
176
     1
 90
        2
176
     1
 90
        1
176
     1
 40
1.0
176
     1
 90
        8
176
     1
 62
   257
176
     1
 40
1.0
176
     1
 90
        1
176
     1
 90
        6
176
     1
 90
        2
176
     1
 62
     7
176
     1
 90
        3
176
     1
 90
        0
176
     1
 90
        0
176
     1
290
     0
176
     1
 90
        5
176
     1
 40
0.0
176
     1
 90
        0
176
     1
290
     0
176
     1
290
     1
176
     1
290
     1
176
     1
290
     0
176
     1
290
     0
176
     1
290
     0
176
     1
290
     0
176
     1
290
     0
176
     1
290
     0
176
     1
 90
       50
176
     1
 40
0.0
176
     1
 40
1.0
176
     1
 90
        0
176
     1
 62
    18
176
     1
 90
       50
176
     1
 90
        3
176
     1
 62
     5
420
      255
176
     1
290
     0
176
     1
 90
       50
176
     1
 90
       50
176
     1
 90
       50
176
     1
290
     0
176
     1
 90
       50
176
     1
 62
   256
176
     0
 40
1.0
176
     0
 90
        2
176
     1
  1
strokes_ogs.tif
176
     1
290
     0
176
     1
 40
1.0
176
     1
 40
1.0
176
     1
  0
VISUALSTYLE
  5
EDC
102
{ACAD_REACTORS
330
ECB
102
}
330
ECB
100
AcDbVisualStyle
  2
Shades of Gray
 70
    23
177
     3
291
     0
 70
    58
 90
        2
176
     1
 90
        2
176
     1
 90
        3
176
     1
 90
        0
176
     1
 40
0.6
176
     1
 40
30.0
176
     1
 62
     7
420
 16777215
176
     1
 90
        2
176
     1
 90
        2
176
     1
 62
     7
176
     1
 62
     7
176
     1
 90
        1
176
     1
 90
        1
176
     1
 40
40.0
176
     1
 90
        8
176
     1
 62
     7
176
     1
 40
1.0
176
     1
 90
        1
176
     1
 90
        6
176
     1
 90
        2
176
     1
 62
     7
176
     1
 90
        3
176
     1
 90
        0
176
     1
 90
        0
176
     1
290
     0
176
     1
 90
        1
176
     1
 40
0.0
176
     1
 90
        0
176
     1
290
     0
176
     1
290
     1
176
     1
290
     1
176
     1
290
     0
176
     1
290
     0
176
     1
290
     0
176
     1
290
     0
176
     1
290
     0
176
     1
290
     0
176
     1
 90
       50
176
     1
 40
0.0
176
     1
 40
1.0
176
     1
 90
        0
176
     1
 62
    18
176
     1
 90
       50
176
     1
 90
        3
176
     1
 62
     5
420
      255
176
     1
290
     0
176
     1
 90
       50
176
     1
 90
       50
176
     1
 90
       50
176
     1
290
     0
176
     1
 90
       50
176
     1
 62
   256
176
     0
 40
1.0
176
     0
 90
        2
176
     1
  1
strokes_ogs.tif
176
     1
290
     0
176
     1
 40
1.0
176
     1
 40
1.0
176
     1
  0
VISUALSTYLE
  5
EDD
102
{ACAD_REACTORS
330
ECB
102
}
330
ECB
100
AcDbVisualStyle
  2
Sketchy
 70
    24
177
     3
291
     0
 70
    58
 90
        1
176
     1
 90
        2
176
     1
 90
        2
176
     1
 90
        0
176
     1
 40
0.6
176
     1
 40
30.0
176
     1
 62
     7
420
 16777215
176
     1
 90
        2
176
     1
 90
        2
176
     1
 62
     7
176
     1
 62
     7
176
     1
 90
        1
176
     1
 90
        1
176
     1
 40
40.0
176
     1
 90
       11
176
     1
 62
     7
176
     1
 40
1.0
176
     1
 90
        1
176
     1
 90
        6
176
     1
 90
        2
176
     1
 62
     7
176
     1
 90
        6
176
     1
 90
        0
176
     1
 90
        0
176
     1
290
     0
176
     1
 90
        1
176
     1
 40
0.0
176
     1
 90
        0
176
     1
290
     0
176
     1
290
     1
176
     1
290
     1
176
     1
290
     0
176
     1
290
     0
176
     1
290
     0
176
     1
290
     0
176
     1
290
     0
176
     1
290
     0
176
     1
 90
       50
176
     1
 40
0.0
176
     1
 40
1.0
176
     1
 90
        0
176
     1
 62
    18
176
     1
 90
       50
176
     1
 90
        3
176
     1
 62
     5
420
      255
176
     1
290
     0
176
     1
 90
       50
176
     1
 90
       50
176
     1
 90
       50
176
     1
290
     0
176
     1
 90
       50
176
     1
 62
   256
176
     0
 40
1.0
176
     0
 90
        2
176
     1
  1
strokes_ogs.tif
176
     1
290
     0
176
     1
 40
1.0
176
     1
 40
1.0
176
     1
  0
VISUALSTYLE
  5
ED8
102
{ACAD_REACTORS
330
ECB
102
}
330
ECB
100
AcDbVisualStyle
  2
Thicken
 70
    13
177
     3
291
     1
 70
    58
 90
        2
176
     1
 90
        2
176
     1
 90
        0
176
     1
 90
        0
176
     1
 40
0.6
176
     1
 40
30.0
176
     1
 62
     7
420
 16777215
176
     1
 90
        1
176
     1
 90
        4
176
     1
 62
     7
176
     1
 62
   257
176
     1
 90
        1
176
     1
 90
        1
176
     1
 40
1.0
176
     1
 90
       12
176
     1
 62
     7
176
     1
 40
1.0
176
     1
 90
        1
176
     1
 90
        6
176
     1
 90
        2
176
     1
 62
     7
176
     1
 90
        5
176
     1
 90
        0
176
     1
 90
        0
176
     1
290
     0
176
     1
 90
        1
176
     1
 40
0.0
176
     1
 90
        0
176
     1
290
     0
176
     1
290
     1
176
     1
290
     1
176
     1
290
     0
176
     1
290
     0
176
     1
290
     0
176
     1
290
     0
176
     1
290
     0
176
     1
290
     0
176
     1
 90
       50
176
     1
 40
0.0
176
     1
 40
1.0
176
     1
 90
        0
176
     1
 62
    18
176
     1
 90
       50
176
     1
 90
        3
176
     1
 62
     5
420
      255
176
     1
290
     0
176
     1
 90
       50
176
     1
 90
       50
176
     1
 90
       50
176
     1
290
     0
176
     1
 90
       50
176
     1
 62
   256
176
     0
 40
1.0
176
     0
 90
        2
176
     1
  1
strokes_ogs.tif
176
     1
290
     0
176
     1
 40
1.0
176
     1
 40
1.0
176
     1
  0
VISUALSTYLE
  5
ED2
102
{ACAD_REACTORS
330
ECB
102
}
330
ECB
100
AcDbVisualStyle
  2
Wireframe
 70
     5
177
     3
291
     0
 70
    58
 90
        0
176
     1
 90
        2
176
     1
 90
        0
176
     1
 90
        0
176
     1
 40
0.6
176
     1
 40
30.0
176
     1
 62
     7
420
 16777215
176
     1
 90
        1
176
     1
 90
        4
176
     1
 62
     7
176
     1
 62
   257
176
     1
 90
        1
176
     1
 90
        1
176
     1
 40
1.0
176
     1
 90
        0
176
     1
 62
   257
176
     1
 40
1.0
176
     1
 90
        1
176
     1
 90
        6
176
     1
 90
        2
176
     1
 62
     7
176
     1
 90
        3
176
     1
 90
        0
176
     1
 90
        0
176
     1
290
     0
176
     1
 90
        1
176
     1
 40
0.0
176
     1
 90
        0
176
     1
290
     0
176
     1
290
     1
176
     1
290
     1
176
     1
290
     0
176
     1
290
     0
176
     1
290
     0
176
     1
290
     0
176
     1
290
     0
176
     1
290
     0
176
     1
 90
       50
176
     1
 40
0.0
176
     1
 40
1.0
176
     1
 90
        0
176
     1
 62
    18
176
     1
 90
       50
176
     1
 90
        3
176
     1
 62
     5
420
      255
176
     1
290
     0
176
     1
 90
       50
176
     1
 90
       50
176
     1
 90
       50
176
     1
290
     0
176
     1
 90
       50
176
     1
 62
   256
176
     0
 40
1.0
176
     0
 90
        2
176
     1
  1
strokes_ogs.tif
176
     1
290
     0
176
     1
 40
1.0
176
     1
 40
1.0
176
     1
  0
VISUALSTYLE
  5
EDE
102
{ACAD_REACTORS
330
ECB
102
}
330
ECB
100
AcDbVisualStyle
  2
X-Ray
 70
    25
177
     3
291
     0
 70
    58
 90
        2
176
     1
 90
        2
176
     1
 90
        1
176
     1
 90
        1
176
     1
 40
0.5
176
     1
 40
30.0
176
     1
 62
     7
420
 16777215
176
     1
 90
        1
176
     1
 90
        0
176
     1
 62
     7
176
     1
 62
   257
176
     1
 90
        1
176
     1
 90
        1
176
     1
 40
1.0
176
     1
 90
        8
176
     1
 62
     7
176
     1
 40
1.0
176
     1
 90
        1
176
     1
 90
        6
176
     1
 90
        2
176
     1
 62
     7
176
     1
 90
        3
176
     1
 90
        0
176
     1
 90
        0
176
     1
290
     0
176
     1
 90
       13
176
     1
 40
0.0
176
     1
 90
        0
176
     1
290
     0
176
     1
290
     1
176
     1
290
     1
176
     1
290
     0
176
     1
290
     0
176
     1
290
     0
176
     1
290
     0
176
     1
290
     0
176
     1
290
     0
176
     1
 90
       50
176
     1
 40
0.0
176
     1
 40
1.0
176
     1
 90
        0
176
     1
 62
    18
176
     1
 90
       50
176
     1
 90
        3
176
     1
 62
     5
420
      255
176
     1
290
     0
176
     1
 90
       50
176
     1
 90
       50
176
     1
 90
       50
176
     1
290
     0
176
     1
 90
       50
176
     1
 62
   256
176
     0
 40
1.0
176
     0
 90
        2
176
     1
  1
strokes_ogs.tif
176
     1
290
     0
176
     1
 40
1.0
176
     1
 40
1.0
176
     1
  0
DICTIONARYVAR
  5
1005
102
{ACAD_REACTORS
330
FCB
102
}
330
FCB
100
DictionaryVariables
280
     0
  1
1:1
  0
DICTIONARYVAR
  5
1001
102
{ACAD_REACTORS
330
FCB
102
}
330
FCB
100
DictionaryVariables
280
     0
  1
STANDARD
  0
DICTIONARYVAR
  5
1000
102
{ACAD_REACTORS
330
FCB
102
}
330
FCB
100
DictionaryVariables
280
     0
  1
STANDARD
  0
DICTIONARYVAR
  5
1002
102
{ACAD_REACTORS
330
FCB
102
}
330
FCB
100
DictionaryVariables
280
     0
  1
Imperial24
  0
DICTIONARYVAR
  5
1003
102
{ACAD_REACTORS
330
FCB
102
}
330
FCB
100
DictionaryVariables
280
     0
  1
Imperial24
  0
DICTIONARYVAR
  5
1007
102
{ACAD_REACTORS
330
FCB
102
}
330
FCB
100
DictionaryVariables
280
     0
  1
1
  0
DICTIONARYVAR
  5
1008
102
{ACAD_REACTORS
330
FCB
102
}
330
FCB
100
DictionaryVariables
280
     0
  1
15
  0
DICTIONARYVAR
  5
1006
102
{ACAD_REACTORS
330
FCB
102
}
330
FCB
100
DictionaryVariables
280
     0
  1
0
  0
DICTIONARYVAR
  5
1004
102
{ACAD_REACTORS
330
FCB
102
}
330
FCB
100
DictionaryVariables
280
     0
  1
0
  0
DICTIONARY
  5
1149
102
{ACAD_REACTORS
330
1140
102
}
330
1140
100
AcDbDictionary
281
     1
  0
DICTIONARY
  5
EBC
330
EBB
100
AcDbDictionary
280
     1
281
     1
  3
BUMPTILE
360
EBE
  3
DIFFUSETILE
360
EBD
  3
OPACITYTILE
360
EC1
  3
REFLECTIONTILE
360
EC0
  3
REFRACTIONTILE
360
EC2
  3
SPECULARTILE
360
EBF
  0
DICTIONARY
  5
EB4
330
EB3
100
AcDbDictionary
280
     1
281
     1
  3
BUMPTILE
360
EB6
  3
DIFFUSETILE
360
EB5
  3
OPACITYTILE
360
EB9
  3
REFLECTIONTILE
360
EB8
  3
REFRACTIONTILE
360
EBA
  3
SPECULARTILE
360
EB7
  0
DICTIONARY
  5
EC4
330
EC3
100
AcDbDictionary
280
     1
281
     1
  3
BUMPTILE
360
EC6
  3
DIFFUSETILE
360
EC5
  3
OPACITYTILE
360
EC9
  3
REFLECTIONTILE
360
EC8
  3
REFRACTIONTILE
360
ECA
  3
SPECULARTILE
360
EC7
  0
DICTIONARY
  5
1102
330
F06
100
AcDbDictionary
280
     1
281
     1
  3
ACAD_ROUNDTRIP_2008_TABLESTYLE_CELLSTYLEMAP
360
1175
  0
XRECORD
  5
EBE
102
{ACAD_REACTORS
330
EBC
102
}
330
EBC
100
AcDbXrecord
280
     1
270
     1
271
     1
  0
XRECORD
  5
EBD
102
{ACAD_REACTORS
330
EBC
102
}
330
EBC
100
AcDbXrecord
280
     1
270
     1
271
     1
  0
XRECORD
  5
EC1
102
{ACAD_REACTORS
330
EBC
102
}
330
EBC
100
AcDbXrecord
280
     1
270
     1
271
     1
  0
XRECORD
  5
EC0
102
{ACAD_REACTORS
330
EBC
102
}
330
EBC
100
AcDbXrecord
280
     1
270
     1
271
     1
  0
XRECORD
  5
EC2
102
{ACAD_REACTORS
330
EBC
102
}
330
EBC
100
AcDbXrecord
280
     1
270
     1
271
     1
  0
XRECORD
  5
EBF
102
{ACAD_REACTORS
330
EBC
102
}
330
EBC
100
AcDbXrecord
280
     1
270
     1
271
     1
  0
XRECORD
  5
EB6
102
{ACAD_REACTORS
330
EB4
102
}
330
EB4
100
AcDbXrecord
280
     1
270
     1
271
     1
  0
XRECORD
  5
EB5
102
{ACAD_REACTORS
330
EB4
102
}
330
EB4
100
AcDbXrecord
280
     1
270
     1
271
     1
  0
XRECORD
  5
EB9
102
{ACAD_REACTORS
330
EB4
102
}
330
EB4
100
AcDbXrecord
280
     1
270
     1
271
     1
  0
XRECORD
  5
EB8
102
{ACAD_REACTORS
330
EB4
102
}
330
EB4
100
AcDbXrecord
280
     1
270
     1
271
     1
  0
XRECORD
  5
EBA
102
{ACAD_REACTORS
330
EB4
102
}
330
EB4
100
AcDbXrecord
280
     1
270
     1
271
     1
  0
XRECORD
  5
EB7
102
{ACAD_REACTORS
330
EB4
102
}
330
EB4
100
AcDbXrecord
280
     1
270
     1
271
     1
  0
XRECORD
  5
EC6
102
{ACAD_REACTORS
330
EC4
102
}
330
EC4
100
AcDbXrecord
280
     1
270
     1
271
     1
  0
XRECORD
  5
EC5
102
{ACAD_REACTORS
330
EC4
102
}
330
EC4
100
AcDbXrecord
280
     1
270
     1
271
     1
  0
XRECORD
  5
EC9
102
{ACAD_REACTORS
330
EC4
102
}
330
EC4
100
AcDbXrecord
280
     1
270
     1
271
     1
  0
XRECORD
  5
EC8
102
{ACAD_REACTORS
330
EC4
102
}
330
EC4
100
AcDbXrecord
280
     1
270
     1
271
     1
  0
XRECORD
  5
ECA
102
{ACAD_REACTORS
330
EC4
102
}
330
EC4
100
AcDbXrecord
280
     1
270
     1
271
     1
  0
XRECORD
  5
EC7
102
{ACAD_REACTORS
330
EC4
102
}
330
EC4
100
AcDbXrecord
280
     1
270
     1
271
     1
  0
CELLSTYLEMAP
  5
1175
102
{ACAD_REACTORS
330
1102
102
}
330
1102
100
AcDbCellStyleMap
 90
        3
300
CELLSTYLE
  1
TABLEFORMAT_BEGIN
 90
        5
170
     1
 91
        0
 92
    32768
 62
   257
 93
        1
300
CONTENTFORMAT
  1
CONTENTFORMAT_BEGIN
 90
        0
 91
        0
 92
      512
 93
        0
300

 40
0.0
140
1.0
 94
        5
 62
     0
340
EF7
144
0.25
309
CONTENTFORMAT_END
171
     1
301
MARGIN
  1
CELLMARGIN_BEGIN
 40
0.06
 40
0.06
 40
0.06
 40
0.06
 40
0.18
 40
0.18
309
CELLMARGIN_END
 94
        6
 95
        1
302
GRIDFORMAT
  1
GRIDFORMAT_BEGIN
 90
        0
 91
        1
 62
     0
 92
       -2
340
0
 93
        0
 40
0.045
309
GRIDFORMAT_END
 95
        2
302
GRIDFORMAT
  1
GRIDFORMAT_BEGIN
 90
        0
 91
        1
 62
     0
 92
       -2
340
0
 93
        0
 40
0.045
309
GRIDFORMAT_END
 95
        4
302
GRIDFORMAT
  1
GRIDFORMAT_BEGIN
 90
        0
 91
        1
 62
     0
 92
       -2
340
0
 93
        0
 40
0.045
309
GRIDFORMAT_END
 95
        8
302
GRIDFORMAT
  1
GRIDFORMAT_BEGIN
 90
        0
 91
        1
 62
     0
 92
       -2
340
0
 93
        0
 40
0.045
309
GRIDFORMAT_END
 95
       16
302
GRIDFORMAT
  1
GRIDFORMAT_BEGIN
 90
        0
 91
        1
 62
     0
 92
       -2
340
0
 93
        0
 40
0.045
309
GRIDFORMAT_END
 95
       32
302
GRIDFORMAT
  1
GRIDFORMAT_BEGIN
 90
        0
 91
        1
 62
     0
 92
       -2
340
0
 93
        0
 40
0.045
309
GRIDFORMAT_END
309
TABLEFORMAT_END
  1
CELLSTYLE_BEGIN
 90
        1
 91
        1
300
_TITLE
309
CELLSTYLE_END
300
CELLSTYLE
  1
TABLEFORMAT_BEGIN
 90
        5
170
     1
 91
        0
 92
        0
 62
   257
 93
        1
300
CONTENTFORMAT
  1
CONTENTFORMAT_BEGIN
 90
        0
 91
        0
 92
      512
 93
        0
300

 40
0.0
140
1.0
 94
        5
 62
     0
340
EF7
144
0.18
309
CONTENTFORMAT_END
171
     1
301
MARGIN
  1
CELLMARGIN_BEGIN
 40
0.06
 40
0.06
 40
0.06
 40
0.06
 40
0.18
 40
0.18
309
CELLMARGIN_END
 94
        6
 95
        1
302
GRIDFORMAT
  1
GRIDFORMAT_BEGIN
 90
        0
 91
        1
 62
     0
 92
       -2
340
0
 93
        0
 40
0.045
309
GRIDFORMAT_END
 95
        2
302
GRIDFORMAT
  1
GRIDFORMAT_BEGIN
 90
        0
 91
        1
 62
     0
 92
       -2
340
0
 93
        0
 40
0.045
309
GRIDFORMAT_END
 95
        4
302
GRIDFORMAT
  1
GRIDFORMAT_BEGIN
 90
        0
 91
        1
 62
     0
 92
       -2
340
0
 93
        0
 40
0.045
309
GRIDFORMAT_END
 95
        8
302
GRIDFORMAT
  1
GRIDFORMAT_BEGIN
 90
        0
 91
        1
 62
     0
 92
       -2
340
0
 93
        0
 40
0.045
309
GRIDFORMAT_END
 95
       16
302
GRIDFORMAT
  1
GRIDFORMAT_BEGIN
 90
        0
 91
        1
 62
     0
 92
       -2
340
0
 93
        0
 40
0.045
309
GRIDFORMAT_END
 95
       32
302
GRIDFORMAT
  1
GRIDFORMAT_BEGIN
 90
        0
 91
        1
 62
     0
 92
       -2
340
0
 93
        0
 40
0.045
309
GRIDFORMAT_END
309
TABLEFORMAT_END
  1
CELLSTYLE_BEGIN
 90
        2
 91
        1
300
_HEADER
309
CELLSTYLE_END
300
CELLSTYLE
  1
TABLEFORMAT_BEGIN
 90
        5
170
     1
 91
        0
 92
        0
 62
   257
 93
        1
300
CONTENTFORMAT
  1
CONTENTFORMAT_BEGIN
 90
        0
 91
        0
 92
      512
 93
        0
300

 40
0.0
140
1.0
 94
        2
 62
     0
340
EF7
144
0.18
309
CONTENTFORMAT_END
171
     1
301
MARGIN
  1
CELLMARGIN_BEGIN
 40
0.06
 40
0.06
 40
0.06
 40
0.06
 40
0.18
 40
0.18
309
CELLMARGIN_END
 94
        6
 95
        1
302
GRIDFORMAT
  1
GRIDFORMAT_BEGIN
 90
        0
 91
        1
 62
     0
 92
       -2
340
0
 93
        0
 40
0.045
309
GRIDFORMAT_END
 95
        2
302
GRIDFORMAT
  1
GRIDFORMAT_BEGIN
 90
        0
 91
        1
 62
     0
 92
       -2
340
0
 93
        0
 40
0.045
309
GRIDFORMAT_END
 95
        4
302
GRIDFORMAT
  1
GRIDFORMAT_BEGIN
 90
        0
 91
        1
 62
     0
 92
       -2
340
0
 93
        0
 40
0.045
309
GRIDFORMAT_END
 95
        8
302
GRIDFORMAT
  1
GRIDFORMAT_BEGIN
 90
        0
 91
        1
 62
     0
 92
       -2
340
0
 93
        0
 40
0.045
309
GRIDFORMAT_END
 95
       16
302
GRIDFORMAT
  1
GRIDFORMAT_BEGIN
 90
        0
 91
        1
 62
     0
 92
       -2
340
0
 93
        0
 40
0.045
309
GRIDFORMAT_END
 95
       32
302
GRIDFORMAT
  1
GRIDFORMAT_BEGIN
 90
        0
 91
        1
 62
     0
 92
       -2
340
0
 93
        0
 40
0.045
309
GRIDFORMAT_END
309
TABLEFORMAT_END
  1
CELLSTYLE_BEGIN
 90
        3
 91
        2
300
_DATA
309
CELLSTYLE_END
  0
ENDSEC
  0
SECTION
  2
ACDSDATA
 70
     2
 71
     2
  0
ACDSSCHEMA
 90
        0
  1
AcDb_Thumbnail_Schema
  2
AcDbDs::ID
280
    10
 91
        8
  2
Thumbnail_Data
280
    15
 91
        0
101
ACDSRECORD
 95
        0
 90
        1
  2
AcDbDs::TreatedAsObjectData
280
     1
291
     1
101
ACDSRECORD
 95
        0
 90
        2
  2
AcDbDs::Legacy
280
     1
291
     1
101
ACDSRECORD
  1
AcDbDs::ID
 90
        3
  2
AcDs:Indexable
280
     1
291
     1
101
ACDSRECORD
  1
AcDbDs::ID
 90
        4
  2
AcDbDs::HandleAttribute
280
     7
282
     1
  0
ACDSSCHEMA
 90
        1
  1
AcDbDs::TreatedAsObjectDataSchema
  2
AcDbDs::TreatedAsObjectData
280
     1
 91
        0
  0
ACDSSCHEMA
 90
        2
  1
AcDbDs::LegacySchema
  2
AcDbDs::Legacy
280
     1
 91
        0
  0
ACDSSCHEMA
 90
        3
  1
AcDbDs::IndexedPropertySchema
  2
AcDs:Indexable
280
     1
 91
        0
  0
ACDSSCHEMA
 90
        4
  1
AcDbDs::HandleAttributeSchema
  2
AcDbDs::HandleAttribute
280
     7
 91
        1
284
     1
  0
ACDSRECORD
 90
        0
  2
AcDbDs::ID
280
    10
320
F15
  2
Thumbnail_Data
280
    15
 94
     1244
310
89504E470D0A1A0A0000000D49484452000001000000007D08030000007A674DFF00000300504C5445212830000000C8C8C80000000000000000000000000000000000000000000000000000330000660000990000CC0000FF0033000033330033660033990033CC0033FF0066000066330066660066990066CC0066FF0099
310
000099330099660099990099CC0099FF00CC0000CC3300CC6600CC9900CCCC00CCFF00FF0000FF3300FF6600FF9900FFCC00FFFF3300003300333300663300993300CC3300FF3333003333333333663333993333CC3333FF3366003366333366663366993366CC3366FF3399003399333399663399993399CC3399FF33CC00
310
33CC3333CC6633CC9933CCCC33CCFF33FF0033FF3333FF6633FF9933FFCC33FFFF6600006600336600666600996600CC6600FF6633006633336633666633996633CC6633FF6666006666336666666666996666CC6666FF6699006699336699666699996699CC6699FF66CC0066CC3366CC6666CC9966CCCC66CCFF66FF0066
310
FF3366FF6666FF9966FFCC66FFFF9900009900339900669900999900CC9900FF9933009933339933669933999933CC9933FF9966009966339966669966999966CC9966FF9999009999339999669999999999CC9999FF99CC0099CC3399CC6699CC9999CCCC99CCFF99FF0099FF3399FF6699FF9999FFCC99FFFFCC0000CC00
310
33CC0066CC0099CC00CCCC00FFCC3300CC3333CC3366CC3399CC33CCCC33FFCC6600CC6633CC6666CC6699CC66CCCC66FFCC9900CC9933CC9966CC9999CC99CCCC99FFCCCC00CCCC33CCCC66CCCC99CCCCCCCCCCFFCCFF00CCFF33CCFF66CCFF99CCFFCCCCFFFFFF0000FF0033FF0066FF0099FF00CCFF00FFFF3300FF3333
310
FF3366FF3399FF33CCFF33FFFF6600FF6633FF6666FF6699FF66CCFF66FFFF9900FF9933FF9966FF9999FF99CCFF99FFFFCC00FFCC33FFCC66FFCC99FFCCCCFFCCFFFFFF00FFFF33FFFF66FFFF99FFFFCCFFFFFF0000000D0D0D1A1A1A2828283535354343435050505D5D5D6B6B6B787878868686939393A1A1A1AEAEAEBB
310
BBBBC9C9C9D6D6D6E4E4E4F1F1F1FFFFFF000000000000000000000000000000000000000000000000000000000000B21171F6000001974944415478DAEDDC51AE82400C85E1EEC0FDEFADDB38EF178DDE98888619987280BF09BE419BCFA9538518D1158A15719B89181FB2B9D8E900B231E600B2399C00A2A39C5531E5F3
310
02D82100000000008E0AB0C91C0000000098012C9F06D7013CF3B80164693802546F8100000000008705583B0600000000A6000BC7E15E807C1B831D014AC7604B80CA2D10000000000000000000C00240D2EB181EFFC99A9FA41807A03D56805A4E700598DEC80280B405504F556703682EEB4C2DA018FBADD91F40A1512D
310
700880AE9A9601BC2D816B6E839707D8A9054A26C1C68FBE4A0055AC809FC9AE0E9000D00200000000000702C8CB03E4B50112807681330124001D02EC0200000000007E00AA0450CA0D40F1B5A6ED01A6648F572300C5F79A3607D0C723A9162B20CA009EF754357791FD001E655501BCF2190174DEEBBF17D7FAA7201FC9
310
D203202A010280B06B01000028FC5518000000000000000000000000000000000000000000000000000000000000000000000000000000000000000000000000000000000000000000000000801FE5FD01E60AE5EC038F88EE0000000049454E44AE426082
  0
ENDSEC
  0
EOF
