  0
SECTION
  2
HEADER
  9
$ACADVER
  1
AC1009
  9
$DWGCODEPAGE
  3
ansi_1252
  9
$INSBASE
 10
0.0
 20
0.0
 30
0.0
  9
$EXTMIN
 10
-51.57155829749036
 20
-168.3672359823087
 30
0.0
  9
$EXTMAX
 10
560.7029027537383
 20
981.113552964442
 30
0.0
  9
$LIMMIN
 10
0.0
 20
0.0
  9
$LIMMAX
 10
594.0
 20
420.0
  9
$ORTHOMODE
 70
     0
  9
$REGENMODE
 70
     1
  9
$FILLMODE
 70
     1
  9
$QTEXTMODE
 70
     0
  9
$MIRRTEXT
 70
     1
  9
$DRAGMODE
 70
     2
  9
$LTSCALE
 40
32.67
  9
$OSMODE
 70
   511
  9
$ATTMODE
 70
     1
  9
$TEXTSIZE
 40
0.2
  9
$TRACEWID
 40
0.05
  9
$TEXTSTYLE
  7
STANDARD
  9
$CLAYER
  8
DIMENSIONS
  9
$CELTYPE
  6
BYBLOCK
  9
$CECOLOR
 62
   256
  9
$DIMSCALE
 40
1.0
  9
$DIMASZ
 40
5.0
  9
$DIMEXO
 40
1.5
  9
$DIMDLI
 40
1.0
  9
$DIMRND
 40
0.0
  9
$DIMDLE
 40
0.0
  9
$DIMEXE
 40
0.18
  9
$DIMTP
 40
0.0
  9
$DIMTM
 40
0.0
  9
$DIMTXT
 40
5.0
  9
$DIMCEN
 40
2.5
  9
$DIMTSZ
 40
0.0
  9
$DIMTOL
 70
     0
  9
$DIMLIM
 70
     0
  9
$DIMTIH
 70
     0
  9
$DIMTOH
 70
     0
  9
$DIMSE1
 70
     0
  9
$DIMSE2
 70
     0
  9
$DIMTAD
 70
     1
  9
$DIMZIN
 70
     8
  9
$DIMBLK
  1

  9
$DIMASO
 70
     1
  9
$DIMSHO
 70
     1
  9
$DIMPOST
  1

  9
$DIMAPOST
  1

  9
$DIMALT
 70
     1
  9
$DIMALTD
 70
     2
  9
$DIMALTF
 40
0.03937
  9
$DIMLFAC
 40
1.0
  9
$DIMTOFL
 70
     1
  9
$DIMTVP
 40
0.0
  9
$DIMTIX
 70
     0
  9
$DIMSOXD
 70
     0
  9
$DIMSAH
 70
     0
  9
$DIMBLK1
  1

  9
$DIMBLK2
  1

  9
$DIMSTYLE
  2
DUAL-DIM
  9
$DIMCLRD
 70
     0
  9
$DIMCLRE
 70
     0
  9
$DIMCLRT
 70
     5
  9
$DIMTFAC
 40
1.0
  9
$DIMGAP
 40
1.0
  9
$LUNITS
 70
     2
  9
$LUPREC
 70
     4
  9
$SKETCHINC
 40
0.1
  9
$FILLETRAD
 40
15.0
  9
$AUNITS
 70
     0
  9
$AUPREC
 70
     0
  9
$MENU
  1
.
  9
$ELEVATION
 40
0.0
  9
$PELEVATION
 40
0.0
  9
$THICKNESS
 40
0.0
  9
$LIMCHECK
 70
     0
  9
$CHAMFERA
 40
0.0
  9
$CHAMFERB
 40
0.0
  9
$SKPOLY
 70
     0
  9
$TDCREATE
 40
2457428.35467787
  9
$TDUPDATE
 40
2457438.391831123
  9
$TDINDWG
 40
0.0517242824
  9
$TDUSRTIMER
 40
2457438.348505498
  9
$USRTIMER
 70
     1
  9
$ANGBASE
 50
0.0
  9
$ANGDIR
 70
     0
  9
$PDMODE
 70
     3
  9
$PDSIZE
 40
0.3125
  9
$PLINEWID
 40
0.0
  9
$COORDS
 70
     2
  9
$SPLFRAME
 70
     0
  9
$SPLINETYPE
 70
     6
  9
$SPLINESEGS
 70
     8
  9
$ATTDIA
 70
     0
  9
$ATTREQ
 70
     1
  9
$HANDLING
 70
     1
  9
$HANDSEED
  5
1964
  9
$SURFTAB1
 70
     6
  9
$SURFTAB2
 70
     6
  9
$SURFTYPE
 70
     6
  9
$SURFU
 70
     6
  9
$SURFV
 70
     6
  9
$UCSNAME
  2

  9
$UCSORG
 10
0.0
 20
0.0
 30
0.0
  9
$UCSXDIR
 10
1.0
 20
0.0
 30
0.0
  9
$UCSYDIR
 10
0.0
 20
1.0
 30
0.0
  9
$PUCSNAME
  2

  9
$PUCSORG
 10
0.0
 20
0.0
 30
0.0
  9
$PUCSXDIR
 10
1.0
 20
0.0
 30
0.0
  9
$PUCSYDIR
 10
0.0
 20
1.0
 30
0.0
  9
$USERI1
 70
     0
  9
$USERI2
 70
     0
  9
$USERI3
 70
     0
  9
$USERI4
 70
     0
  9
$USERI5
 70
     0
  9
$USERR1
 40
0.0
  9
$USERR2
 40
0.0
  9
$USERR3
 40
0.0
  9
$USERR4
 40
0.0
  9
$USERR5
 40
0.0
  9
$WORLDVIEW
 70
     1
  9
$SHADEDGE
 70
     3
  9
$SHADEDIF
 70
    70
  9
$TILEMODE
 70
     1
  9
$MAXACTVP
 70
    64
  9
$PLIMCHECK
 70
     0
  9
$PEXTMIN
 10
1.000000000000000E+20
 20
1.000000000000000E+20
 30
1.000000000000000E+20
  9
$PEXTMAX
 10
-1.000000000000000E+20
 20
-1.000000000000000E+20
 30
-1.000000000000000E+20
  9
$PLIMMIN
 10
0.0
 20
0.0
  9
$PLIMMAX
 10
0.0
 20
0.0
  9
$UNITMODE
 70
     0
  9
$VISRETAIN
 70
     1
  9
$PLINEGEN
 70
     0
  9
$PSLTSCALE
 70
     1
  0
ENDSEC
  0
SECTION
  2
TABLES
  0
TABLE
  2
VPORT
 70
     1
  0
VPORT
  2
*ACTIVE
 70
     0
 10
0.0
 20
0.0
 11
1.0
 21
1.0
 12
1017.562869381044
 22
703.8599596100659
 13
0.0
 23
0.0
 14
0.5
 24
0.5
 15
0.5
 25
0.5
 16
0.0
 26
0.0
 36
1.0
 17
0.0
 27
0.0
 37
0.0
 40
1067.375018307697
 41
2.450549450549451
 42
50.0
 43
0.0
 44
0.0
 50
0.0
 51
0.0
 71
    16
 72
   100
 73
     1
 74
     3
 75
     0
 76
     0
 77
     0
 78
     0
  0
ENDTAB
  0
TABLE
  2
LTYPE
 70
     6
  0
LTYPE
  2
CONTINUOUS
 70
     0
  3
Solid line
 72
    65
 73
     0
 40
0.0
  0
LTYPE
  2
CENTER
 70
     0
  3
____ _ ____ _ ____ _ ____ _ ____ _ ____ _ ____
 72
    65
 73
     4
 40
0.6
 49
0.375
 49
-0.075
 49
0.075
 49
-0.075
  0
LTYPE
  2
HIDDEN
 70
     0
  3
- - - - - - - - - - - - - - - - - - - -
 72
    65
 73
     2
 40
0.2
 49
0.1
 49
-0.1
  0
LTYPE
  2
PHANTOM
 70
     0
  3
_____ _ _ _____ _ _ _____ _ _ _____
 72
    65
 73
     6
 40
0.8
 49
0.45
 49
-0.05
 49
0.1
 49
-0.05
 49
0.1
 49
-0.05
  0
LTYPE
  2
DOT
 70
     0
  3
. . . . . . . . . . . . . . . . . . . .
 72
    65
 73
     2
 40
0.2
 49
0.1
 49
-0.1
  0
LTYPE
  2
DASHED
 70
     0
  3
- - - - - - - - - - - - - - - - - - - -
 72
    65
 73
     2
 40
0.2
 49
0.1
 49
-0.1
  0
ENDTAB
  0
TABLE
  2
LAYER
 70
    15
  0
LAYER
  2
0
 70
     0
 62
     7
  6
CONTINUOUS
  0
LAYER
  2
DEFAULT_1
 70
     0
 62
     7
  6
CENTER
  0
LAYER
  2
DEFAULT_2
 70
     0
 62
     8
  6
HIDDEN
  0
LAYER
  2
DEFAULT_3
 70
     0
 62
     7
  6
PHANTOM
  0
LAYER
  2
01___PRT_ALL_DTM_PLN
 70
     0
 62
     7
  6
CONTINUOUS
  0
LAYER
  2
01___PRT_DEF_DTM_PLN
 70
     0
 62
     7
  6
CONTINUOUS
  0
LAYER
  2
02___PRT_ALL_AXES
 70
     0
 62
     7
  6
CONTINUOUS
  0
LAYER
  2
03___PRT_ALL_CURVES
 70
     0
 62
     7
  6
CONTINUOUS
  0
LAYER
  2
04___PRT_ALL_DTM_PNT
 70
     0
 62
     7
  6
CONTINUOUS
  0
LAYER
  2
05___PRT_ALL_DTM_CSYS
 70
     0
 62
     7
  6
CONTINUOUS
  0
LAYER
  2
05___PRT_DEF_DTM_CSYS
 70
     0
 62
     7
  6
CONTINUOUS
  0
LAYER
  2
06___PRT_ALL_SURFS
 70
     0
 62
     7
  6
CONTINUOUS
  0
LAYER
  2
DEFPOINTS
 70
     0
 62
     7
  6
CONTINUOUS
  0
LAYER
  2
DIMENSIONS
 70
     0
 62
     2
  6
CONTINUOUS
  0
LAYER
  2
AM_5
 70
     0
 62
     3
  6
CONTINUOUS
  0
ENDTAB
  0
TABLE
  2
STYLE
 70
     2
  0
STYLE
  2
STANDARD
 70
     0
 40
0.0
 41
1.0
 50
0.0
 71
     0
 42
0.2
  3
arial.ttf
  4

  0
STYLE
  2
TEXTSTYLE_1
 70
     0
 40
0.0
 41
0.8
 50
0.0
 71
     0
 42
0.2
  3
gdt
  4

  0
ENDTAB
  0
TABLE
  2
VIEW
 70
     0
  0
ENDTAB
  0
TABLE
  2
UCS
 70
     0
  0
ENDTAB
  0
TABLE
  2
APPID
 70
     8
  0
APPID
  2
ACAD
 70
     0
  0
APPID
  2
ACAECLAYERSTANDARD
 70
     0
  0
APPID
  2
ACAD_DSTYLE_DIMRADIAL_EXTE
 70
     0
  0
APPID
  2
ACAD_DSTYLE_DIMJOGGED_JOGA
 70
     0
  0
APPID
  2
ACAD_DSTYLE_DIMJAG
 70
     0
  0
APPID
  2
ACAD_DSTYLE_DIMBREAK
 70
     0
  0
APPID
  2
ACAD_PSEXT
 70
     0
  0
APPID
  2
ACAD_DSTYLE_DIMINSPECT
 70
     0
  0
ENDTAB
  0
TABLE
  2
DIMSTYLE
 70
     5
  0
DIMSTYLE
  2
STANDARD
 70
     0
  3

  4

  5

  6

  7

 40
1.0
 41
0.18
 42
0.0625
 43
0.38
 44
0.18
 45
0.0
 46
0.0
 47
0.0
 48
0.0
140
0.18
141
0.09
142
0.0
143
25.4
144
1.0
145
0.0
146
1.0
147
0.09
 71
     0
 72
     0
 73
     1
 74
     1
 75
     0
 76
     0
 77
     0
 78
     0
170
     0
171
     2
172
     0
173
     0
174
     0
175
     0
176
     0
177
     0
178
     0
  0
DIMSTYLE
  2
DUAL-DIM
 70
     0
  3

  4

  5

  6

  7

 40
1.0
 41
5.0
 42
1.5
 43
1.0
 44
0.18
 45
0.0
 46
0.0
 47
0.0
 48
0.0
140
5.0
141
2.5
142
0.0
143
0.03937
144
1.0
145
0.0
146
1.0
147
1.0
 71
     0
 72
     0
 73
     0
 74
     0
 75
     0
 76
     0
 77
     1
 78
     8
170
     1
171
     2
172
     1
173
     0
174
     0
175
     0
176
     0
177
     0
178
     5
  0
DIMSTYLE
  2
AM_ISO
 70
     0
  3

  4
"
  5

  6

  7

 40
1.0
 41
3.5
 42
1.0
 43
10.0
 44
1.0
 45
0.0
 46
0.0
 47
0.1
 48
0.1
140
3.5
141
0.0
142
0.0
143
0.0393701
144
1.0
145
0.0
146
0.71
147
1.5
 71
     0
 72
     0
 73
     0
 74
     0
 75
     0
 76
     0
 77
     1
 78
     8
170
     0
171
     2
172
     1
173
     0
174
     0
175
     0
176
   256
177
   256
178
     2
  0
DIMSTYLE
  2
AM_ISO$3
 70
     0
  3

  4
"
  5

  6

  7

 40
1.0
 41
3.5
 42
1.0
 43
10.0
 44
1.0
 45
0.0
 46
0.0
 47
0.1
 48
0.1
140
3.5
141
0.0
142
0.0
143
0.0393701
144
1.0
145
0.0
146
0.71
147
1.5
 71
     0
 72
     0
 73
     0
 74
     1
 75
     0
 76
     0
 77
     1
 78
     8
170
     0
171
     2
172
     0
173
     0
174
     0
175
     0
176
   256
177
   256
178
     2
  0
DIMSTYLE
  2
AM_ISO$0
 70
     0
  3

  4
"
  5

  6

  7

 40
1.0
 41
3.5
 42
1.0
 43
10.0
 44
1.0
 45
0.0
 46
0.0
 47
0.1
 48
0.1
140
3.5
141
0.0
142
0.0
143
0.0393701
144
1.0
145
0.0
146
0.71
147
1.5
 71
     0
 72
     0
 73
     0
 74
     0
 75
     0
 76
     0
 77
     1
 78
     8
170
     0
171
     2
172
     1
173
     0
174
     0
175
     0
176
   256
177
   256
178
     2
  0
ENDTAB
  0
ENDSEC
  0
SECTION
  2
BLOCKS
  0
BLOCK
  8
0
  2
$MODEL_SPACE
 70
     0
 10
0.0
 20
0.0
 30
0.0
  3
$MODEL_SPACE
  1

  0
ENDBLK
  5
110
  8
0
  0
BLOCK
 67
     1
  8
0
  2
$PAPER_SPACE
 70
     0
 10
0.0
 20
0.0
 30
0.0
  3
$PAPER_SPACE
  1

  0
ENDBLK
  5
112
 67
     1
  8
0
  0
BLOCK
  8
0
  2
_FILLED
 70
     0
 10
0.0
 20
0.0
 30
0.0
  3
_FILLED
  1

  0
SOLID
  5
3D
  8
0
  6
BYBLOCK
 62
     0
 10
0.0
 20
0.0
 30
0.0
 11
-1.0
 21
0.2
 31
0.0
 12
-1.0
 22
-0.2
 32
0.0
 13
-1.0
 23
-0.2
 33
0.0
  0
ENDBLK
  5
3E
  8
0
  6
BYBLOCK
 62
     0
  0
BLOCK
  8
0
  2
*D349
 70
     1
 10
0.0
 20
0.0
 30
0.0
  3
*D349
  1

  0
LINE
  5
182C
  8
DIMENSIONS
  6
BYBLOCK
 62
     0
 10
96.56643059520192
 20
850.7331541571535
 30
0.0
 11
96.56643059520195
 21
899.8486890850143
 31
0.0
  0
LINE
  5
182D
  8
DIMENSIONS
  6
BYBLOCK
 62
     0
 10
426.566430595202
 20
850.7331541571535
 30
0.0
 11
426.566430595202
 21
899.8486890850143
 31
0.0
  0
LINE
  5
182E
  8
DIMENSIONS
  6
BYBLOCK
 62
     0
 10
101.566430595202
 20
899.6686890850143
 30
0.0
 11
421.566430595202
 21
899.6686890850143
 31
0.0
  0
SOLID
  5
182F
  8
DIMENSIONS
 62
     0
 10
101.566430595202
 20
900.5020224183477
 30
0.0
 11
101.566430595202
 21
898.8353557516809
 31
0.0
 12
96.56643059520195
 22
899.6686890850143
 32
0.0
 13
96.56643059520195
 23
899.6686890850143
 33
0.0
  0
SOLID
  5
1830
  8
DIMENSIONS
 62
     0
 10
421.566430595202
 20
898.8353557516809
 30
0.0
 11
421.566430595202
 21
900.5020224183477
 31
0.0
 12
426.566430595202
 22
899.6686890850143
 32
0.0
 13
426.566430595202
 23
899.6686890850143
 33
0.0
  0
TEXT
  5
1831
  8
DIMENSIONS
  6
CONTINUOUS
 62
     5
 10
244.186430595202
 20
902.0636890850143
 30
0.0
 40
5.0
  1
330 [12.99]
  0
POINT
  5
1832
  8
DEFPOINTS
 62
     0
 10
96.56643059520192
 20
849.2331541571535
 30
0.0
  0
POINT
  5
1833
  8
DEFPOINTS
 62
     0
 10
426.566430595202
 20
849.2331541571535
 30
0.0
  0
POINT
  5
1834
  8
DEFPOINTS
 62
     0
 10
426.566430595202
 20
899.6686890850143
 30
0.0
  0
ENDBLK
  5
182B
  8
0
  0
BLOCK
  8
0
  2
*D350
 70
     1
 10
0.0
 20
0.0
 30
0.0
  3
*D350
  1

  0
LINE
  5
183B
  8
DIMENSIONS
  6
BYBLOCK
 62
     0
 10
436.5375630817019
 20
858.2731541571535
 30
0.0
 11
436.5375630817019
 21
917.6847389921693
 31
0.0
  0
LINE
  5
183C
  8
DIMENSIONS
  6
BYBLOCK
 62
     0
 10
86.53756308170193
 20
858.2731541571535
 30
0.0
 11
86.53756308170193
 21
917.6847389921693
 31
0.0
  0
LINE
  5
183D
  8
DIMENSIONS
  6
BYBLOCK
 62
     0
 10
431.5375630817019
 20
917.5047389921693
 30
0.0
 11
91.53756308170193
 21
917.5047389921693
 31
0.0
  0
SOLID
  5
183E
  8
DIMENSIONS
 62
     0
 10
431.5375630817019
 20
916.671405658836
 30
0.0
 11
431.5375630817019
 21
918.3380723255027
 31
0.0
 12
436.5375630817019
 22
917.5047389921693
 32
0.0
 13
436.5375630817019
 23
917.5047389921693
 33
0.0
  0
SOLID
  5
183F
  8
DIMENSIONS
 62
     0
 10
91.53756308170193
 20
918.3380723255027
 30
0.0
 11
91.53756308170193
 21
916.671405658836
 31
0.0
 12
86.53756308170193
 22
917.5047389921693
 32
0.0
 13
86.53756308170193
 23
917.5047389921693
 33
0.0
  0
TEXT
  5
1840
  8
DIMENSIONS
  6
CONTINUOUS
 62
     5
 10
244.1575630817019
 20
919.8997389921693
 30
0.0
 40
5.0
  1
350 [13.78]
  0
POINT
  5
1841
  8
DEFPOINTS
 62
     0
 10
436.5375630817019
 20
856.7731541571535
 30
0.0
  0
POINT
  5
1842
  8
DEFPOINTS
 62
     0
 10
86.53756308170193
 20
856.7731541571535
 30
0.0
  0
POINT
  5
1843
  8
DEFPOINTS
 62
     0
 10
86.53756308170193
 20
917.5047389921693
 30
0.0
  0
ENDBLK
  5
183A
  8
0
  0
BLOCK
  8
0
  2
*D351
 70
     1
 10
0.0
 20
0.0
 30
0.0
  3
*D351
  1

  0
LINE
  5
184A
  8
DIMENSIONS
  6
BYBLOCK
 62
     0
 10
64.03756308170193
 20
882.5731541571535
 30
0.0
 11
64.03756308170193
 21
935.6259542879279
 31
0.0
  0
LINE
  5
184B
  8
DIMENSIONS
  6
BYBLOCK
 62
     0
 10
459.0375630817019
 20
882.5731541571535
 30
0.0
 11
459.0375630817019
 21
935.6259542879279
 31
0.0
  0
LINE
  5
184C
  8
DIMENSIONS
  6
BYBLOCK
 62
     0
 10
69.03756308170193
 20
935.445954287928
 30
0.0
 11
454.0375630817019
 21
935.445954287928
 31
0.0
  0
SOLID
  5
184D
  8
DIMENSIONS
 62
     0
 10
69.03756308170193
 20
936.2792876212613
 30
0.0
 11
69.03756308170193
 21
934.6126209545946
 31
0.0
 12
64.03756308170193
 22
935.445954287928
 32
0.0
 13
64.03756308170193
 23
935.445954287928
 33
0.0
  0
SOLID
  5
184E
  8
DIMENSIONS
 62
     0
 10
454.0375630817019
 20
934.6126209545946
 30
0.0
 11
454.0375630817019
 21
936.2792876212613
 31
0.0
 12
459.0375630817019
 22
935.445954287928
 32
0.0
 13
459.0375630817019
 23
935.445954287928
 33
0.0
  0
TEXT
  5
184F
  8
DIMENSIONS
  6
CONTINUOUS
 62
     5
 10
244.1575630817019
 20
937.840954287928
 30
0.0
 40
5.0
  1
395 [15.55]
  0
POINT
  5
1850
  8
DEFPOINTS
 62
     0
 10
64.03756308170193
 20
881.0731541571535
 30
0.0
  0
POINT
  5
1851
  8
DEFPOINTS
 62
     0
 10
459.0375630817019
 20
881.0731541571535
 30
0.0
  0
POINT
  5
1852
  8
DEFPOINTS
 62
     0
 10
459.0375630817019
 20
935.445954287928
 30
0.0
  0
ENDBLK
  5
1849
  8
0
  0
BLOCK
  8
0
  2
*D352
 70
     1
 10
0.0
 20
0.0
 30
0.0
  3
*D352
  1

  0
LINE
  5
1859
  8
DIMENSIONS
  6
BYBLOCK
 62
     0
 10
62.53756308170193
 20
881.0731541571535
 30
0.0
 11
26.95325194074844
 21
881.0731541571535
 31
0.0
  0
LINE
  5
185A
  8
DIMENSIONS
  6
BYBLOCK
 62
     0
 10
85.03756308170193
 20
856.7731541571535
 30
0.0
 11
26.95325194074844
 21
856.7731541571535
 31
0.0
  0
LINE
  5
185B
  8
DIMENSIONS
  6
BYBLOCK
 62
     0
 10
27.13325194074844
 20
856.7731541571535
 30
0.0
 11
27.13325194074844
 21
817.4531541571536
 31
0.0
  0
LINE
  5
185C
  8
DIMENSIONS
  6
BYBLOCK
 62
     0
 10
27.13325194074844
 20
876.0731541571535
 30
0.0
 11
27.13325194074844
 21
861.7731541571535
 31
0.0
  0
SOLID
  5
185D
  8
DIMENSIONS
 62
     0
 10
27.96658527408177
 20
876.0731541571535
 30
0.0
 11
26.2999186074151
 21
876.0731541571535
 31
0.0
 12
27.13325194074844
 22
881.0731541571535
 32
0.0
 13
27.13325194074844
 23
881.0731541571535
 33
0.0
  0
SOLID
  5
185E
  8
DIMENSIONS
 62
     0
 10
26.2999186074151
 20
861.7731541571535
 30
0.0
 11
27.96658527408177
 21
861.7731541571535
 31
0.0
 12
27.13325194074844
 22
856.7731541571535
 32
0.0
 13
27.13325194074844
 23
856.7731541571535
 33
0.0
  0
TEXT
  5
185F
  8
DIMENSIONS
  6
CONTINUOUS
 62
     5
 10
24.73825194074846
 20
818.2481541571535
 30
0.0
 40
5.0
  1
24.3 [0.96]
 50
90.0
  0
POINT
  5
1860
  8
DEFPOINTS
 62
     0
 10
64.03756308170193
 20
881.0731541571535
 30
0.0
  0
POINT
  5
1861
  8
DEFPOINTS
 62
     0
 10
86.53756308170193
 20
856.7731541571535
 30
0.0
  0
POINT
  5
1931
  8
DEFPOINTS
 62
     0
 10
27.13325194074844
 20
856.7731541571535
 30
0.0
  0
ENDBLK
  5
1858
  8
0
  0
BLOCK
  8
0
  2
*D353
 70
     1
 10
0.0
 20
0.0
 30
0.0
  3
*D353
  1

  0
LINE
  5
1868
  8
DIMENSIONS
  6
BYBLOCK
 62
     0
 10
85.03756308170193
 20
856.7731541571535
 30
0.0
 11
45.14720396991994
 21
856.7731541571535
 31
0.0
  0
LINE
  5
1869
  8
DIMENSIONS
  6
BYBLOCK
 62
     0
 10
85.03756308170193
 20
569.2731541571535
 30
0.0
 11
45.14720396991992
 21
569.2731541571535
 31
0.0
  0
LINE
  5
186A
  8
DIMENSIONS
  6
BYBLOCK
 62
     0
 10
45.32720396991994
 20
851.7731541571535
 30
0.0
 11
45.32720396991992
 21
574.2731541571535
 31
0.0
  0
SOLID
  5
186B
  8
DIMENSIONS
 62
     0
 10
46.16053730325327
 20
851.7731541571535
 30
0.0
 11
44.4938706365866
 21
851.7731541571535
 31
0.0
 12
45.32720396991994
 22
856.7731541571535
 32
0.0
 13
45.32720396991994
 23
856.7731541571535
 33
0.0
  0
SOLID
  5
186C
  8
DIMENSIONS
 62
     0
 10
44.49387063658659
 20
574.2731541571535
 30
0.0
 11
46.16053730325326
 21
574.2731541571535
 31
0.0
 12
45.32720396991992
 22
569.2731541571535
 32
0.0
 13
45.32720396991992
 23
569.2731541571535
 33
0.0
  0
TEXT
  5
186D
  8
DIMENSIONS
  6
CONTINUOUS
 62
     5
 10
42.9322039699199
 20
692.7781541571535
 30
0.0
 40
5.0
  1
287.5 [11.32]
 50
90.0
  0
POINT
  5
186E
  8
DEFPOINTS
 62
     0
 10
86.53756308170193
 20
856.7731541571535
 30
0.0
  0
POINT
  5
186F
  8
DEFPOINTS
 62
     0
 10
86.53756308170193
 20
569.2731541571535
 30
0.0
  0
POINT
  5
1870
  8
DEFPOINTS
 62
     0
 10
45.32720396991992
 20
569.2731541571535
 30
0.0
  0
ENDBLK
  5
1867
  8
0
  0
BLOCK
  8
0
  2
*D354
 70
     1
 10
0.0
 20
0.0
 30
0.0
  3
*D354
  1

  0
LINE
  5
1877
  8
DIMENSIONS
  6
BYBLOCK
 62
     0
 10
85.03756308170193
 20
569.2731541571535
 30
0.0
 11
45.14720396991992
 21
569.2731541571535
 31
0.0
  0
LINE
  5
1878
  8
DIMENSIONS
  6
BYBLOCK
 62
     0
 10
85.03756308170193
 20
209.2731541571535
 30
0.0
 11
45.1472039699199
 21
209.2731541571535
 31
0.0
  0
LINE
  5
1879
  8
DIMENSIONS
  6
BYBLOCK
 62
     0
 10
45.32720396991992
 20
564.2731541571535
 30
0.0
 11
45.3272039699199
 21
214.2731541571535
 31
0.0
  0
SOLID
  5
187A
  8
DIMENSIONS
 62
     0
 10
46.16053730325326
 20
564.2731541571535
 30
0.0
 11
44.49387063658659
 21
564.2731541571535
 31
0.0
 12
45.32720396991992
 22
569.2731541571535
 32
0.0
 13
45.32720396991992
 23
569.2731541571535
 33
0.0
  0
SOLID
  5
187B
  8
DIMENSIONS
 62
     0
 10
44.49387063658656
 20
214.2731541571535
 30
0.0
 11
46.16053730325324
 21
214.2731541571535
 31
0.0
 12
45.3272039699199
 22
209.2731541571535
 32
0.0
 13
45.3272039699199
 23
209.2731541571535
 33
0.0
  0
TEXT
  5
187C
  8
DIMENSIONS
  6
CONTINUOUS
 62
     5
 10
42.9322039699199
 20
371.8931541571535
 30
0.0
 40
5.0
  1
360 [14.17]
 50
90.0
  0
POINT
  5
187D
  8
DEFPOINTS
 62
     0
 10
86.53756308170193
 20
569.2731541571535
 30
0.0
  0
POINT
  5
187E
  8
DEFPOINTS
 62
     0
 10
86.53756308170193
 20
209.2731541571535
 30
0.0
  0
POINT
  5
187F
  8
DEFPOINTS
 62
     0
 10
45.3272039699199
 20
209.2731541571535
 30
0.0
  0
ENDBLK
  5
1876
  8
0
  0
BLOCK
  8
0
  2
*D355
 70
     1
 10
0.0
 20
0.0
 30
0.0
  3
*D355
  1

  0
LINE
  5
1886
  8
DIMENSIONS
  6
BYBLOCK
 62
     0
 10
85.03756308170193
 20
209.2731541571535
 30
0.0
 11
45.1472039699199
 21
209.2731541571535
 31
0.0
  0
LINE
  5
1887
  8
DIMENSIONS
  6
BYBLOCK
 62
     0
 10
85.03756308170193
 20
-78.2268458428465
 30
0.0
 11
45.14720396991989
 21
-78.2268458428465
 31
0.0
  0
LINE
  5
1888
  8
DIMENSIONS
  6
BYBLOCK
 62
     0
 10
45.3272039699199
 20
204.2731541571535
 30
0.0
 11
45.32720396991989
 21
-73.2268458428465
 31
0.0
  0
SOLID
  5
1889
  8
DIMENSIONS
 62
     0
 10
46.16053730325324
 20
204.2731541571535
 30
0.0
 11
44.49387063658656
 21
204.2731541571535
 31
0.0
 12
45.3272039699199
 22
209.2731541571535
 32
0.0
 13
45.3272039699199
 23
209.2731541571535
 33
0.0
  0
SOLID
  5
188A
  8
DIMENSIONS
 62
     0
 10
44.49387063658655
 20
-73.2268458428465
 30
0.0
 11
46.16053730325322
 21
-73.2268458428465
 31
0.0
 12
45.32720396991989
 22
-78.2268458428465
 32
0.0
 13
45.32720396991989
 23
-78.2268458428465
 33
0.0
  0
TEXT
  5
188B
  8
DIMENSIONS
  6
CONTINUOUS
 62
     5
 10
42.9322039699199
 20
45.27815415715351
 30
0.0
 40
5.0
  1
287.5 [11.32]
 50
90.0
  0
POINT
  5
188C
  8
DEFPOINTS
 62
     0
 10
86.53756308170193
 20
209.2731541571535
 30
0.0
  0
POINT
  5
188D
  8
DEFPOINTS
 62
     0
 10
86.53756308170193
 20
-78.2268458428465
 30
0.0
  0
POINT
  5
188E
  8
DEFPOINTS
 62
     0
 10
45.32720396991989
 20
-78.2268458428465
 30
0.0
  0
ENDBLK
  5
1885
  8
0
  0
BLOCK
  8
0
  2
*D356
 70
     1
 10
0.0
 20
0.0
 30
0.0
  3
*D356
  1

  0
LINE
  5
1895
  8
DIMENSIONS
  6
BYBLOCK
 62
     0
 10
85.03756308170193
 20
-78.2268458428465
 30
0.0
 11
29.543342452374
 21
-78.2268458428465
 31
0.0
  0
LINE
  5
1896
  8
DIMENSIONS
  6
BYBLOCK
 62
     0
 10
62.53756308170193
 20
-100.7268458428465
 30
0.0
 11
29.543342452374
 21
-100.7268458428465
 31
0.0
  0
LINE
  5
1897
  8
DIMENSIONS
  6
BYBLOCK
 62
     0
 10
29.723342452374
 20
-78.2268458428465
 30
0.0
 11
29.723342452374
 21
-38.90684584284651
 31
0.0
  0
LINE
  5
1898
  8
DIMENSIONS
  6
BYBLOCK
 62
     0
 10
29.723342452374
 20
-83.2268458428465
 30
0.0
 11
29.723342452374
 21
-95.7268458428465
 31
0.0
  0
SOLID
  5
1899
  8
DIMENSIONS
 62
     0
 10
30.55667578570733
 20
-83.2268458428465
 30
0.0
 11
28.89000911904067
 21
-83.2268458428465
 31
0.0
 12
29.723342452374
 22
-78.2268458428465
 32
0.0
 13
29.723342452374
 23
-78.2268458428465
 33
0.0
  0
SOLID
  5
189A
  8
DIMENSIONS
 62
     0
 10
28.89000911904067
 20
-95.7268458428465
 30
0.0
 11
30.55667578570733
 21
-95.7268458428465
 31
0.0
 12
29.723342452374
 22
-100.7268458428465
 32
0.0
 13
29.723342452374
 23
-100.7268458428465
 33
0.0
  0
TEXT
  5
189B
  8
DIMENSIONS
  6
CONTINUOUS
 62
     5
 10
27.328342452374
 20
-72.4318458428465
 30
0.0
 40
5.0
  1
22.5 [0.89]
 50
90.0
  0
POINT
  5
189C
  8
DEFPOINTS
 62
     0
 10
86.53756308170193
 20
-78.2268458428465
 30
0.0
  0
POINT
  5
189D
  8
DEFPOINTS
 62
     0
 10
64.03756308170193
 20
-100.7268458428465
 30
0.0
  0
POINT
  5
1932
  8
DEFPOINTS
 62
     0
 10
29.723342452374
 20
-100.7268458428465
 30
0.0
  0
ENDBLK
  5
1894
  8
0
  0
BLOCK
  8
0
  2
*D357
 70
     1
 10
0.0
 20
0.0
 30
0.0
  3
*D357
  1

  0
LINE
  5
18A4
  8
DIMENSIONS
  6
BYBLOCK
 62
     0
 10
101.5664305952019
 20
117.0731541571535
 30
0.0
 11
101.566430595202
 21
96.48423856947198
 31
0.0
  0
LINE
  5
18A5
  8
DIMENSIONS
  6
BYBLOCK
 62
     0
 10
411.566430595202
 20
117.0731541571535
 30
0.0
 11
411.566430595202
 21
96.48423856947198
 31
0.0
  0
LINE
  5
18A6
  8
DIMENSIONS
  6
BYBLOCK
 62
     0
 10
106.566430595202
 20
96.66423856947199
 30
0.0
 11
406.566430595202
 21
96.66423856947199
 31
0.0
  0
SOLID
  5
18A7
  8
DIMENSIONS
 62
     0
 10
106.566430595202
 20
97.49757190280532
 30
0.0
 11
106.566430595202
 21
95.83090523613866
 31
0.0
 12
101.566430595202
 22
96.66423856947199
 32
0.0
 13
101.566430595202
 23
96.66423856947199
 33
0.0
  0
SOLID
  5
18A8
  8
DIMENSIONS
 62
     0
 10
406.566430595202
 20
95.83090523613866
 30
0.0
 11
406.566430595202
 21
97.49757190280532
 31
0.0
 12
411.566430595202
 22
96.66423856947199
 32
0.0
 13
411.566430595202
 23
96.66423856947199
 33
0.0
  0
TEXT
  5
18A9
  8
DIMENSIONS
  6
CONTINUOUS
 62
     5
 10
241.126430595202
 20
99.059238569472
 30
0.0
 40
5.0
  1
310 [12.2]
  0
POINT
  5
18AA
  8
DEFPOINTS
 62
     0
 10
101.5664305952019
 20
118.5731541571535
 30
0.0
  0
POINT
  5
18AB
  8
DEFPOINTS
 62
     0
 10
411.566430595202
 20
118.5731541571535
 30
0.0
  0
POINT
  5
18AC
  8
DEFPOINTS
 62
     0
 10
411.566430595202
 20
96.66423856947199
 30
0.0
  0
ENDBLK
  5
18A3
  8
0
  0
BLOCK
  8
0
  2
*D359
 70
     1
 10
0.0
 20
0.0
 30
0.0
  3
*D359
  1

  0
LINE
  5
18C2
  8
DIMENSIONS
  6
BYBLOCK
 62
     0
 10
411.566430595202
 20
98.91395955178922
 30
0.0
 11
411.566430595202
 21
96.48423856947198
 31
0.0
  0
LINE
  5
18C3
  8
DIMENSIONS
  6
BYBLOCK
 62
     0
 10
459.0375630817019
 20
98.91395955178905
 30
0.0
 11
459.0375630817019
 21
96.48423856947198
 31
0.0
  0
LINE
  5
18C4
  8
DIMENSIONS
  6
BYBLOCK
 62
     0
 10
416.566430595202
 20
96.66423856947199
 30
0.0
 11
454.0375630817019
 21
96.66423856947199
 31
0.0
  0
SOLID
  5
18C5
  8
DIMENSIONS
 62
     0
 10
416.566430595202
 20
97.49757190280532
 30
0.0
 11
416.566430595202
 21
95.83090523613866
 31
0.0
 12
411.566430595202
 22
96.66423856947199
 32
0.0
 13
411.566430595202
 23
96.66423856947199
 33
0.0
  0
SOLID
  5
18C6
  8
DIMENSIONS
 62
     0
 10
454.0375630817019
 20
95.83090523613866
 30
0.0
 11
454.0375630817019
 21
97.49757190280532
 31
0.0
 12
459.0375630817019
 22
96.66423856947199
 32
0.0
 13
459.0375630817019
 23
96.66423856947199
 33
0.0
  0
TEXT
  5
18C7
  8
DIMENSIONS
  6
CONTINUOUS
 62
     5
 10
418.994496838452
 20
99.059238569472
 30
0.0
 40
5.0
  1
47.5 [1.87]
  0
POINT
  5
18C8
  8
DEFPOINTS
 62
     0
 10
411.566430595202
 20
100.4139595517892
 30
0.0
  0
POINT
  5
18C9
  8
DEFPOINTS
 62
     0
 10
459.0375630817019
 20
100.413959551789
 30
0.0
  0
POINT
  5
18CA
  8
DEFPOINTS
 62
     0
 10
459.0375630817019
 20
96.66423856947199
 30
0.0
  0
ENDBLK
  5
18C1
  8
0
  0
BLOCK
  8
0
  2
*D360
 70
     1
 10
0.0
 20
0.0
 30
0.0
  3
*D360
  1

  0
LINE
  5
18D1
  8
DIMENSIONS
  6
BYBLOCK
 62
     0
 10
460.5375630817019
 20
881.0731541571535
 30
0.0
 11
509.1142037441169
 21
881.0731541571535
 31
0.0
  0
LINE
  5
18D2
  8
DIMENSIONS
  6
BYBLOCK
 62
     0
 10
428.066430595202
 20
849.2331541571535
 30
0.0
 11
509.1142037441169
 21
849.2331541571535
 31
0.0
  0
LINE
  5
18D3
  8
DIMENSIONS
  6
BYBLOCK
 62
     0
 10
508.9342037441169
 20
849.2331541571535
 30
0.0
 11
508.9342037441169
 21
810.0031541571535
 31
0.0
  0
LINE
  5
18D4
  8
DIMENSIONS
  6
BYBLOCK
 62
     0
 10
508.9342037441169
 20
876.0731541571535
 30
0.0
 11
508.9342037441169
 21
854.2331541571535
 31
0.0
  0
SOLID
  5
18D5
  8
DIMENSIONS
 62
     0
 10
509.7675370774502
 20
876.0731541571535
 30
0.0
 11
508.1008704107836
 21
876.0731541571535
 31
0.0
 12
508.9342037441169
 22
881.0731541571535
 32
0.0
 13
508.9342037441169
 23
881.0731541571535
 33
0.0
  0
SOLID
  5
18D6
  8
DIMENSIONS
 62
     0
 10
508.1008704107836
 20
854.2331541571535
 30
0.0
 11
509.7675370774502
 21
854.2331541571535
 31
0.0
 12
508.9342037441169
 22
849.2331541571535
 32
0.0
 13
508.9342037441169
 23
849.2331541571535
 33
0.0
  0
TEXT
  5
18D7
  8
DIMENSIONS
  6
CONTINUOUS
 62
     5
 10
506.539203744117
 20
810.7081541571536
 30
0.0
 40
5.0
  1
31.8 [1.25]
 50
90.0
  0
POINT
  5
18D8
  8
DEFPOINTS
 62
     0
 10
459.0375630817019
 20
881.0731541571535
 30
0.0
  0
POINT
  5
18D9
  8
DEFPOINTS
 62
     0
 10
426.566430595202
 20
849.2331541571535
 30
0.0
  0
POINT
  5
1933
  8
DEFPOINTS
 62
     0
 10
508.9342037441169
 20
849.2331541571535
 30
0.0
  0
ENDBLK
  5
18D0
  8
0
  0
BLOCK
  8
0
  2
*D361
 70
     1
 10
0.0
 20
0.0
 30
0.0
  3
*D361
  1

  0
LINE
  5
18E0
  8
DIMENSIONS
  6
BYBLOCK
 62
     0
 10
428.066430595202
 20
849.2331541571535
 30
0.0
 11
483.710449802024
 21
849.2331541571535
 31
0.0
  0
LINE
  5
18E1
  8
DIMENSIONS
  6
BYBLOCK
 62
     0
 10
428.066430595202
 20
539.2331541571535
 30
0.0
 11
483.710449802024
 21
539.2331541571535
 31
0.0
  0
LINE
  5
18E2
  8
DIMENSIONS
  6
BYBLOCK
 62
     0
 10
483.530449802024
 20
844.2331541571535
 30
0.0
 11
483.530449802024
 21
544.2331541571535
 31
0.0
  0
SOLID
  5
18E3
  8
DIMENSIONS
 62
     0
 10
484.3637831353573
 20
844.2331541571535
 30
0.0
 11
482.6971164686906
 21
844.2331541571535
 31
0.0
 12
483.530449802024
 22
849.2331541571535
 32
0.0
 13
483.530449802024
 23
849.2331541571535
 33
0.0
  0
SOLID
  5
18E4
  8
DIMENSIONS
 62
     0
 10
482.6971164686906
 20
544.2331541571535
 30
0.0
 11
484.3637831353573
 21
544.2331541571535
 31
0.0
 12
483.530449802024
 22
539.2331541571535
 32
0.0
 13
483.530449802024
 23
539.2331541571535
 33
0.0
  0
TEXT
  5
18E5
  8
DIMENSIONS
  6
CONTINUOUS
 62
     5
 10
481.1354498020239
 20
678.7931541571536
 30
0.0
 40
5.0
  1
310 [12.2]
 50
90.0
  0
POINT
  5
18E6
  8
DEFPOINTS
 62
     0
 10
426.566430595202
 20
849.2331541571535
 30
0.0
  0
POINT
  5
18E7
  8
DEFPOINTS
 62
     0
 10
426.566430595202
 20
539.2331541571535
 30
0.0
  0
POINT
  5
18E8
  8
DEFPOINTS
 62
     0
 10
483.530449802024
 20
539.2331541571535
 30
0.0
  0
ENDBLK
  5
18DF
  8
0
  0
BLOCK
  8
0
  2
*D362
 70
     1
 10
0.0
 20
0.0
 30
0.0
  3
*D362
  1

  0
LINE
  5
18EF
  8
DIMENSIONS
  6
BYBLOCK
 62
     0
 10
428.066430595202
 20
539.2331541571535
 30
0.0
 11
483.7102563242579
 21
539.2331541571535
 31
0.0
  0
LINE
  5
18F0
  8
DIMENSIONS
  6
BYBLOCK
 62
     0
 10
413.066430595202
 20
345.5731541571535
 30
0.0
 11
483.7102563242579
 21
345.5731541571535
 31
0.0
  0
LINE
  5
18F1
  8
DIMENSIONS
  6
BYBLOCK
 62
     0
 10
483.5302563242579
 20
534.2331541571535
 30
0.0
 11
483.5302563242579
 21
350.5731541571535
 31
0.0
  0
SOLID
  5
18F2
  8
DIMENSIONS
 62
     0
 10
484.3635896575912
 20
534.2331541571535
 30
0.0
 11
482.6969229909246
 21
534.2331541571535
 31
0.0
 12
483.5302563242579
 22
539.2331541571535
 32
0.0
 13
483.5302563242579
 23
539.2331541571535
 33
0.0
  0
SOLID
  5
18F3
  8
DIMENSIONS
 62
     0
 10
482.6969229909246
 20
350.5731541571535
 30
0.0
 11
484.3635896575912
 21
350.5731541571535
 31
0.0
 12
483.5302563242579
 22
345.5731541571535
 32
0.0
 13
483.5302563242579
 23
345.5731541571535
 33
0.0
  0
TEXT
  5
18F4
  8
DIMENSIONS
  6
CONTINUOUS
 62
     5
 10
481.135256324258
 20
423.8206541571535
 30
0.0
 40
5.0
  1
193.7 [7.62]
 50
90.0
  0
POINT
  5
18F5
  8
DEFPOINTS
 62
     0
 10
426.566430595202
 20
539.2331541571535
 30
0.0
  0
POINT
  5
18F6
  8
DEFPOINTS
 62
     0
 10
411.566430595202
 20
345.5731541571535
 30
0.0
  0
POINT
  5
18F7
  8
DEFPOINTS
 62
     0
 10
483.5302563242579
 20
345.5731541571535
 30
0.0
  0
ENDBLK
  5
18EE
  8
0
  0
BLOCK
  8
0
  2
*D363
 70
     1
 10
0.0
 20
0.0
 30
0.0
  3
*D363
  1

  0
LINE
  5
18FE
  8
DIMENSIONS
  6
BYBLOCK
 62
     0
 10
413.066430595202
 20
345.5731541571535
 30
0.0
 11
483.7102563242579
 21
345.5731541571535
 31
0.0
  0
LINE
  5
18FF
  8
DIMENSIONS
  6
BYBLOCK
 62
     0
 10
413.066430595202
 20
118.5731541571535
 30
0.0
 11
483.7102563242579
 21
118.5731541571535
 31
0.0
  0
LINE
  5
1900
  8
DIMENSIONS
  6
BYBLOCK
 62
     0
 10
483.5302563242579
 20
340.5731541571535
 30
0.0
 11
483.5302563242579
 21
123.5731541571535
 31
0.0
  0
SOLID
  5
1901
  8
DIMENSIONS
 62
     0
 10
484.3635896575912
 20
340.5731541571535
 30
0.0
 11
482.6969229909246
 21
340.5731541571535
 31
0.0
 12
483.5302563242579
 22
345.5731541571535
 32
0.0
 13
483.5302563242579
 23
345.5731541571535
 33
0.0
  0
SOLID
  5
1902
  8
DIMENSIONS
 62
     0
 10
482.6969229909246
 20
123.5731541571535
 30
0.0
 11
484.3635896575912
 21
123.5731541571535
 31
0.0
 12
483.5302563242579
 22
118.5731541571535
 32
0.0
 13
483.5302563242579
 23
118.5731541571535
 33
0.0
  0
TEXT
  5
1903
  8
DIMENSIONS
  6
CONTINUOUS
 62
     5
 10
481.135256324258
 20
216.6781541571535
 30
0.0
 40
5.0
  1
227 [8.94]
 50
90.0
  0
POINT
  5
1904
  8
DEFPOINTS
 62
     0
 10
411.566430595202
 20
345.5731541571535
 30
0.0
  0
POINT
  5
1905
  8
DEFPOINTS
 62
     0
 10
411.566430595202
 20
118.5731541571535
 30
0.0
  0
POINT
  5
1906
  8
DEFPOINTS
 62
     0
 10
483.5302563242579
 20
118.5731541571535
 30
0.0
  0
ENDBLK
  5
18FD
  8
0
  0
BLOCK
  8
0
  2
*D364
 70
     1
 10
0.0
 20
0.0
 30
0.0
  3
*D364
  1

  0
LINE
  5
190D
  8
DIMENSIONS
  6
BYBLOCK
 62
     0
 10
413.066430595202
 20
118.5731541571535
 30
0.0
 11
483.7102563242579
 21
118.5731541571535
 31
0.0
  0
LINE
  5
190E
  8
DIMENSIONS
  6
BYBLOCK
 62
     0
 10
460.5375630817019
 20
-100.7268458428465
 30
0.0
 11
483.7102563242579
 21
-100.7268458428465
 31
0.0
  0
LINE
  5
190F
  8
DIMENSIONS
  6
BYBLOCK
 62
     0
 10
483.5302563242579
 20
113.5731541571535
 30
0.0
 11
483.5302563242579
 21
-95.7268458428465
 31
0.0
  0
SOLID
  5
1910
  8
DIMENSIONS
 62
     0
 10
484.3635896575912
 20
113.5731541571535
 30
0.0
 11
482.6969229909246
 21
113.5731541571535
 31
0.0
 12
483.5302563242579
 22
118.5731541571535
 32
0.0
 13
483.5302563242579
 23
118.5731541571535
 33
0.0
  0
SOLID
  5
1911
  8
DIMENSIONS
 62
     0
 10
482.6969229909246
 20
-95.7268458428465
 30
0.0
 11
484.3635896575912
 21
-95.7268458428465
 31
0.0
 12
483.5302563242579
 22
-100.7268458428465
 32
0.0
 13
483.5302563242579
 23
-100.7268458428465
 33
0.0
  0
TEXT
  5
1912
  8
DIMENSIONS
  6
CONTINUOUS
 62
     5
 10
481.1352563242579
 20
-9.381845842846474
 30
0.0
 40
5.0
  1
219.3 [8.63]
 50
90.0
  0
POINT
  5
1913
  8
DEFPOINTS
 62
     0
 10
411.566430595202
 20
118.5731541571535
 30
0.0
  0
POINT
  5
1914
  8
DEFPOINTS
 62
     0
 10
459.0375630817019
 20
-100.7268458428465
 30
0.0
  0
POINT
  5
1915
  8
DEFPOINTS
 62
     0
 10
483.5302563242579
 20
-100.7268458428465
 30
0.0
  0
ENDBLK
  5
190C
  8
0
  0
BLOCK
  8
0
  2
*D366
 70
     1
 10
0.0
 20
0.0
 30
0.0
  3
*D366
  1

  0
LINE
  5
1929
  8
DIMENSIONS
  6
BYBLOCK
 62
     0
 10
428.0376197061075
 20
-78.25787182691157
 30
0.0
 11
390.8472039979758
 21
-78.39362205419515
 31
0.0
  0
LINE
  5
192A
  8
DIMENSIONS
  6
BYBLOCK
 62
     0
 10
445.0375064572965
 20
-78.1958198587814
 30
0.0
 11
450.0374731488227
 21
-78.1775692799196
 31
0.0
  0
TEXT
  5
192B
  8
DIMENSIONS
  6
CONTINUOUS
 62
     5
 10
391.5581651650191
 20
-75.9160104585336
 30
0.0
 40
5.0
  1
Ø7 [Ø0.28]
 50
0.2091366928923595
  0
LINE
  5
192C
  8
DIMENSIONS
  6
BYBLOCK
 62
     0
 10
440.0375397657703
 20
-78.21407043764322
 30
0.0
 11
433.0375863976337
 21
-78.23962124804976
 31
0.0
  0
SOLID
  5
192D
  8
DIMENSIONS
 62
     0
 10
445.0344646941529
 20
-77.36249207686038
 30
0.0
 11
445.0405482204401
 21
-79.02914764070243
 31
0.0
 12
440.0375397657703
 22
-78.21407043764322
 32
0.0
 13
440.0375397657703
 23
-78.21407043764322
 33
0.0
  0
SOLID
  5
192E
  8
DIMENSIONS
 62
     0
 10
428.0406614692511
 20
-79.0911996088326
 30
0.0
 11
428.0345779429638
 21
-77.42454404499054
 31
0.0
 12
433.0375863976337
 22
-78.23962124804976
 32
0.0
 13
433.0375863976337
 23
-78.23962124804976
 33
0.0
  0
POINT
  5
192F
  8
DEFPOINTS
 62
     0
 10
433.0375863976337
 20
-78.23962124804976
 30
0.0
  0
POINT
  5
1930
  8
DEFPOINTS
 62
     0
 10
440.0375397657703
 20
-78.21407043764322
 30
0.0
  0
ENDBLK
  5
1928
  8
0
  0
BLOCK
  8
0
  2
*D367
 70
     1
 10
0.0
 20
0.0
 30
0.0
  3
*D367
  1

  0
LINE
  5
193A
  8
DIMENSIONS
  6
BYBLOCK
 62
     0
 10
101.566430595202
 20
97.98423856947198
 30
0.0
 11
101.566430595202
 21
96.84465925543695
 31
0.0
  0
LINE
  5
193B
  8
DIMENSIONS
  6
BYBLOCK
 62
     0
 10
64.03756308170193
 20
97.98423856947198
 30
0.0
 11
64.03756308170193
 21
96.84465925543695
 31
0.0
  0
LINE
  5
193C
  8
DIMENSIONS
  6
BYBLOCK
 62
     0
 10
96.56643059520195
 20
96.66465925543694
 30
0.0
 11
69.03756308170193
 21
96.66465925543694
 31
0.0
  0
SOLID
  5
193D
  8
DIMENSIONS
 62
     0
 10
96.56643059520195
 20
95.83132592210362
 30
0.0
 11
96.56643059520195
 21
97.49799258877027
 31
0.0
 12
101.566430595202
 22
96.66465925543694
 32
0.0
 13
101.566430595202
 23
96.66465925543694
 33
0.0
  0
SOLID
  5
193E
  8
DIMENSIONS
 62
     0
 10
69.03756308170193
 20
97.49799258877027
 30
0.0
 11
69.03756308170193
 21
95.83132592210362
 31
0.0
 12
64.03756308170193
 22
96.66465925543694
 32
0.0
 13
64.03756308170193
 23
96.66465925543694
 33
0.0
  0
TEXT
  5
193F
  8
DIMENSIONS
  6
CONTINUOUS
 62
     5
 10
66.39199683845194
 20
99.05965925543696
 30
0.0
 40
5.0
  1
37.5 [1.48]
  0
POINT
  5
1940
  8
DEFPOINTS
 62
     0
 10
101.566430595202
 20
96.48423856947198
 30
0.0
  0
POINT
  5
1941
  8
DEFPOINTS
 62
     0
 10
64.03756308170193
 20
96.48423856947198
 30
0.0
  0
POINT
  5
1942
  8
DEFPOINTS
 62
     0
 10
64.03756308170193
 20
96.66465925543694
 30
0.0
  0
ENDBLK
  5
1939
  8
0
  0
BLOCK
  8
0
  2
*D368
 70
     1
 10
0.0
 20
0.0
 30
0.0
  3
*D368
  1

  0
LINE
  5
194F
  8
DIMENSIONS
  6
BYBLOCK
 62
     0
 10
62.53756308170193
 20
-100.7268458428465
 30
0.0
 11
8.122965591674875
 21
-100.7268458428465
 31
0.0
  0
LINE
  5
1950
  8
DIMENSIONS
  6
BYBLOCK
 62
     0
 10
62.53756308170193
 20
881.0731541571535
 30
0.0
 11
8.122965591674935
 21
881.0731541571535
 31
0.0
  0
LINE
  5
1951
  8
DIMENSIONS
  6
BYBLOCK
 62
     0
 10
8.302965591674875
 20
-95.7268458428465
 30
0.0
 11
8.302965591674935
 21
876.0731541571535
 31
0.0
  0
SOLID
  5
1952
  8
DIMENSIONS
 62
     0
 10
7.469632258341542
 20
-95.7268458428465
 30
0.0
 11
9.136298925008209
 21
-95.7268458428465
 31
0.0
 12
8.302965591674875
 22
-100.7268458428465
 32
0.0
 13
8.302965591674875
 23
-100.7268458428465
 33
0.0
  0
SOLID
  5
1953
  8
DIMENSIONS
 62
     0
 10
9.13629892500827
 20
876.0731541571535
 30
0.0
 11
7.469632258341602
 21
876.0731541571535
 31
0.0
 12
8.302965591674935
 22
881.0731541571535
 32
0.0
 13
8.302965591674935
 23
881.0731541571535
 33
0.0
  0
TEXT
  5
1954
  8
DIMENSIONS
  6
CONTINUOUS
 62
     5
 10
5.907965591674952
 20
369.8856541571535
 30
0.0
 40
5.0
  1
981.8 [38.65]
 50
90.0
  0
POINT
  5
1955
  8
DEFPOINTS
 62
     0
 10
64.03756308170193
 20
-100.7268458428465
 30
0.0
  0
POINT
  5
1956
  8
DEFPOINTS
 62
     0
 10
64.03756308170193
 20
881.0731541571535
 30
0.0
  0
POINT
  5
1957
  8
DEFPOINTS
 62
     0
 10
8.302965591674935
 20
881.0731541571535
 30
0.0
  0
ENDBLK
  5
194E
  8
0
  0
ENDSEC
  0
SECTION
  2
ENTITIES
  0
TEXT
  5
C0B
  8
DIMENSIONS
  6
BYBLOCK
 10
63.79202378573362
 20
-126.7141376880604
 30
0.0
 40
7.999999999999999
  1
Note:
 50
0.2102616414016837
  0
TEXT
  5
C0C
  8
DIMENSIONS
  6
BYBLOCK
 10
63.83606078208881
 20
-138.7140568854114
 30
0.0
 40
7.999999999999999
  1
Primary dimensions in millimeters.
 50
0.2102616414016837
  0
TEXT
  5
C0D
  8
DIMENSIONS
  6
BYBLOCK
 10
63.880097778444
 20
-150.7139760827623
 30
0.0
 40
7.999999999999999
  1
Secondary dimensions in inches.
 50
0.2102616414016837
  0
LINE
  5
1803
  8
0
  6
CONTINUOUS
 62
     7
 10
459.0375630817019
 20
-100.7268458428465
 30
0.0
 11
64.03756308170193
 21
-100.7268458428465
 31
0.0
  0
LINE
  5
1804
  8
0
  6
CONTINUOUS
 62
     7
 10
411.566430595202
 20
118.5731541571535
 30
0.0
 11
101.5664305952019
 21
118.5731541571535
 31
0.0
  0
LINE
  5
1805
  8
0
  6
CONTINUOUS
 62
     7
 10
64.03756308170193
 20
-100.7268458428465
 30
0.0
 11
64.03756308170193
 21
881.0731541571535
 31
0.0
  0
LINE
  5
1806
  8
0
  6
CONTINUOUS
 62
     7
 10
96.56643059520192
 20
539.2331541571535
 30
0.0
 11
96.56643059520192
 21
849.2331541571535
 31
0.0
  0
LINE
  5
1807
  8
0
  6
CONTINUOUS
 62
     7
 10
101.5664305952019
 20
118.5731541571535
 30
0.0
 11
101.5664305952019
 21
345.5731541571535
 31
0.0
  0
LINE
  5
1808
  8
0
  6
CONTINUOUS
 62
     7
 10
101.5664305952019
 20
345.5731541571535
 30
0.0
 11
411.566430595202
 21
345.5731541571535
 31
0.0
  0
LINE
  5
1809
  8
0
  6
CONTINUOUS
 62
     7
 10
411.566430595202
 20
345.5731541571535
 30
0.0
 11
411.566430595202
 21
118.5731541571535
 31
0.0
  0
LINE
  5
180A
  8
0
  6
CONTINUOUS
 62
     7
 10
426.566430595202
 20
849.2331541571535
 30
0.0
 11
426.566430595202
 21
539.2331541571535
 31
0.0
  0
LINE
  5
180B
  8
0
  6
CONTINUOUS
 62
     7
 10
426.566430595202
 20
539.2331541571535
 30
0.0
 11
96.56643059520192
 21
539.2331541571535
 31
0.0
  0
LINE
  5
180C
  8
0
  6
CONTINUOUS
 62
     7
 10
459.0375630817019
 20
881.0731541571535
 30
0.0
 11
459.0375630817019
 21
-100.7268458428465
 31
0.0
  0
LINE
  5
180D
  8
0
  6
CONTINUOUS
 62
     7
 10
96.56643059520192
 20
849.2331541571535
 30
0.0
 11
426.566430595202
 21
849.2331541571535
 31
0.0
  0
LINE
  5
180E
  8
0
  6
CONTINUOUS
 62
     7
 10
64.03756308170193
 20
881.0731541571535
 30
0.0
 11
459.0375630817019
 21
881.0731541571535
 31
0.0
  0
CIRCLE
  5
180F
  8
02___PRT_ALL_AXES
  6
CONTINUOUS
 62
     7
 10
436.5375630817019
 20
856.7731541571535
 30
0.0
 40
3.5
  0
CIRCLE
  5
1810
  8
02___PRT_ALL_AXES
  6
CONTINUOUS
 62
     7
 10
86.53756308170193
 20
856.7731541571535
 30
0.0
 40
3.5
  0
CIRCLE
  5
1811
  8
02___PRT_ALL_AXES
  6
CONTINUOUS
 62
     7
 10
436.5375630817019
 20
569.2731541571535
 30
0.0
 40
3.5
  0
CIRCLE
  5
1812
  8
02___PRT_ALL_AXES
  6
CONTINUOUS
 62
     7
 10
86.53756308170193
 20
569.2731541571535
 30
0.0
 40
3.5
  0
CIRCLE
  5
1813
  8
02___PRT_ALL_AXES
  6
CONTINUOUS
 62
     7
 10
86.53756308170193
 20
209.2731541571535
 30
0.0
 40
3.5
  0
CIRCLE
  5
1814
  8
02___PRT_ALL_AXES
  6
CONTINUOUS
 62
     7
 10
436.5375630817019
 20
-78.2268458428465
 30
0.0
 40
3.5
  0
CIRCLE
  5
1815
  8
02___PRT_ALL_AXES
  6
CONTINUOUS
 62
     7
 10
436.5375630817019
 20
209.2731541571535
 30
0.0
 40
3.5
  0
CIRCLE
  5
1816
  8
02___PRT_ALL_AXES
  6
CONTINUOUS
 62
     7
 10
86.53756308170193
 20
-78.2268458428465
 30
0.0
 40
3.5
  0
DIMENSION
  5
1826
  8
DIMENSIONS
  6
BYBLOCK
  2
*D349
 10
426.566430595202
 20
899.6686890850143
 30
0.0
 11
261.566430595202
 21
903.8711890850143
 31
0.0
 70
    32
  3
DUAL-DIM
 13
96.56643059520192
 23
849.2331541571535
 33
0.0
 14
426.566430595202
 24
849.2331541571535
 34
0.0
  0
DIMENSION
  5
1835
  8
DIMENSIONS
  6
BYBLOCK
  2
*D350
 10
86.53756308170193
 20
917.5047389921693
 30
0.0
 11
261.5375630817019
 21
921.7072389921693
 31
0.0
 70
    32
  3
DUAL-DIM
 13
436.5375630817019
 23
856.7731541571535
 33
0.0
 14
86.53756308170193
 24
856.7731541571535
 34
0.0
  0
DIMENSION
  5
1844
  8
DIMENSIONS
  6
BYBLOCK
  2
*D351
 10
459.0375630817019
 20
935.445954287928
 30
0.0
 11
261.5375630817019
 21
939.648454287928
 31
0.0
 70
    32
  3
DUAL-DIM
 13
64.03756308170193
 23
881.0731541571535
 33
0.0
 14
459.0375630817019
 24
881.0731541571535
 34
0.0
  0
DIMENSION
  5
1853
  8
DIMENSIONS
  6
BYBLOCK
  2
*D352
 10
27.13325194074844
 20
856.7731541571535
 30
0.0
 11
27.13325194074844
 21
834.6131541571535
 31
0.0
 70
   160
  3
DUAL-DIM
 13
64.03756308170193
 23
881.0731541571535
 33
0.0
 14
86.53756308170193
 24
856.7731541571535
 34
0.0
 50
90.0
1001
ACAD
1000
DSTYLE
1002
{
1070
   287
1070
     2
1070
   279
1070
     0
1002
}
  0
DIMENSION
  5
1862
  8
DIMENSIONS
  6
BYBLOCK
  2
*D353
 10
45.32720396991992
 20
569.2731541571535
 30
0.0
 11
41.12470396991994
 21
713.0231541571535
 31
0.0
 70
    32
  3
DUAL-DIM
 13
86.53756308170193
 23
856.7731541571535
 33
0.0
 14
86.53756308170193
 24
569.2731541571535
 34
0.0
 50
90.0
  0
DIMENSION
  5
1871
  8
DIMENSIONS
  6
BYBLOCK
  2
*D354
 10
45.3272039699199
 20
209.2731541571535
 30
0.0
 11
41.12470396991992
 21
389.2731541571535
 31
0.0
 70
    32
  3
DUAL-DIM
 13
86.53756308170193
 23
569.2731541571535
 33
0.0
 14
86.53756308170193
 24
209.2731541571535
 34
0.0
 50
90.0
  0
DIMENSION
  5
1880
  8
DIMENSIONS
  6
BYBLOCK
  2
*D355
 10
45.32720396991989
 20
-78.2268458428465
 30
0.0
 11
41.12470396991989
 21
65.5231541571535
 31
0.0
 70
    32
  3
DUAL-DIM
 13
86.53756308170193
 23
209.2731541571535
 33
0.0
 14
86.53756308170193
 24
-78.2268458428465
 34
0.0
 50
90.0
  0
DIMENSION
  5
188F
  8
DIMENSIONS
  6
BYBLOCK
  2
*D356
 10
29.723342452374
 20
-100.7268458428465
 30
0.0
 11
29.723342452374
 21
-56.0668458428465
 31
0.0
 70
   160
  3
DUAL-DIM
 13
86.53756308170193
 23
-78.2268458428465
 33
0.0
 14
64.03756308170193
 24
-100.7268458428465
 34
0.0
 50
90.0
1001
ACAD
1000
DSTYLE
1002
{
1070
   287
1070
     2
1070
   279
1070
     0
1002
}
  0
DIMENSION
  5
189E
  8
DIMENSIONS
  6
BYBLOCK
  2
*D357
 10
411.566430595202
 20
96.66423856947199
 30
0.0
 11
256.566430595202
 21
100.866738569472
 31
0.0
 70
    32
  3
DUAL-DIM
 13
101.5664305952019
 23
118.5731541571535
 33
0.0
 14
411.566430595202
 24
118.5731541571535
 34
0.0
  0
DIMENSION
  5
18BC
  8
DIMENSIONS
  6
BYBLOCK
  2
*D359
 10
459.0375630817019
 20
96.66423856947199
 30
0.0
 11
435.3019968384519
 21
100.866738569472
 31
0.0
 70
    32
  3
DUAL-DIM
 13
411.566430595202
 23
100.4139595517892
 33
0.0
 14
459.0375630817019
 24
100.413959551789
 34
0.0
  0
DIMENSION
  5
18CB
  8
DIMENSIONS
  6
BYBLOCK
  2
*D360
 10
508.9342037441169
 20
849.2331541571535
 30
0.0
 11
508.9342037441169
 21
827.1181541571535
 31
0.0
 70
   160
  3
DUAL-DIM
 13
459.0375630817019
 23
881.0731541571535
 33
0.0
 14
426.566430595202
 24
849.2331541571535
 34
0.0
 50
90.0
1001
ACAD
1000
DSTYLE
1002
{
1070
   287
1070
     2
1070
   279
1070
     0
1002
}
  0
DIMENSION
  5
18DA
  8
DIMENSIONS
  6
BYBLOCK
  2
*D361
 10
483.530449802024
 20
539.2331541571535
 30
0.0
 11
479.327949802024
 21
694.2331541571535
 31
0.0
 70
    32
  3
DUAL-DIM
 13
426.566430595202
 23
849.2331541571535
 33
0.0
 14
426.566430595202
 24
539.2331541571535
 34
0.0
 50
90.0
  0
DIMENSION
  5
18E9
  8
DIMENSIONS
  6
BYBLOCK
  2
*D362
 10
483.5302563242579
 20
345.5731541571535
 30
0.0
 11
479.3277563242579
 21
442.4031541571535
 31
0.0
 70
    32
  3
DUAL-DIM
 13
426.566430595202
 23
539.2331541571535
 33
0.0
 14
411.566430595202
 24
345.5731541571535
 34
0.0
 50
90.0
  0
DIMENSION
  5
18F8
  8
DIMENSIONS
  6
BYBLOCK
  2
*D363
 10
483.5302563242579
 20
118.5731541571535
 30
0.0
 11
479.3277563242579
 21
232.0731541571535
 31
0.0
 70
    32
  3
DUAL-DIM
 13
411.566430595202
 23
345.5731541571535
 33
0.0
 14
411.566430595202
 24
118.5731541571535
 34
0.0
 50
90.0
  0
DIMENSION
  5
1907
  8
DIMENSIONS
  6
BYBLOCK
  2
*D364
 10
483.5302563242579
 20
-100.7268458428465
 30
0.0
 11
479.3277563242579
 21
8.923154157153505
 31
0.0
 70
    32
  3
DUAL-DIM
 13
411.566430595202
 23
118.5731541571535
 33
0.0
 14
459.0375630817019
 24
-100.7268458428465
 34
0.0
 50
90.0
  0
DIMENSION
  5
1923
  8
DIMENSIONS
  6
BYBLOCK
  2
*D366
 10
440.0375397657703
 20
-78.21407043764322
 30
0.0
 11
408.5495860693243
 21
-78.3290058797349
 31
0.0
 70
   163
  1
<>
  3
DUAL-DIM
 15
433.0375863976337
 25
-78.23962124804976
 35
0.0
 40
0.0
1001
ACAD_DSTYLE_DIMRADIAL_EXTE
1070
   387
1070
     1
1070
   388
1040
0.0
1070
   390
1040
6.283185307179586
1001
ACAD
1000
DSTYLE
1002
{
1070
   287
1070
     2
1070
   279
1070
     0
1002
}
  0
DIMENSION
  5
1934
  8
DIMENSIONS
  6
BYBLOCK
  2
*D367
 10
64.03756308170193
 20
96.66465925543694
 30
0.0
 11
82.80199683845194
 21
100.8671592554369
 31
0.0
 70
    32
  3
DUAL-DIM
 13
101.566430595202
 23
96.48423856947198
 33
0.0
 14
64.03756308170193
 24
96.48423856947198
 34
0.0
  0
DIMENSION
  5
1949
  8
DIMENSIONS
  6
BYBLOCK
  2
*D368
 10
8.302965591674935
 20
881.0731541571535
 30
0.0
 11
4.100465591674919
 21
390.1731541571535
 31
0.0
 70
    32
  3
DUAL-DIM
 13
64.03756308170193
 23
-100.7268458428465
 33
0.0
 14
64.03756308170193
 24
881.0731541571535
 34
0.0
 50
90.0
  0
POLYLINE
  5
1958
  8
0
  6
BYBLOCK
 66
     1
 10
0.0
 20
0.0
 30
0.0
 70
     1
  0
VERTEX
  5
195F
  8
0
  6
BYBLOCK
 10
-51.57155829749036
 20
-168.3672359823087
 30
0.0
  0
VERTEX
  5
1960
  8
0
  6
BYBLOCK
 10
-51.57155829749036
 20
981.113552964442
 30
0.0
  0
VERTEX
  5
1961
  8
0
  6
BYBLOCK
 10
560.7029027537383
 20
981.113552964442
 30
0.0
  0
VERTEX
  5
1962
  8
0
  6
BYBLOCK
 10
560.7029027537383
 20
-168.3672359823087
 30
0.0
  0
SEQEND
  5
1963
  8
0
  6
BYBLOCK
  0
ENDSEC
  0
EOF
