  0
SECTION
  2
HEADER
  9
$ACADVER
  1
AC1009
  9
$DWGCODEPAGE
  3
ansi_1252
  9
$INSBASE
 10
0.0
 20
0.0
 30
0.0
  9
$EXTMIN
 10
23.34975459886061
 20
319.3613287449927
 30
0.0
  9
$EXTMAX
 10
1146.721434327849
 20
1149.298690572062
 30
0.0
  9
$LIMMIN
 10
0.0
 20
0.0
  9
$LIMMAX
 10
594.0
 20
420.0
  9
$ORTHOMODE
 70
     0
  9
$REGENMODE
 70
     1
  9
$FILLMODE
 70
     1
  9
$QTEXTMODE
 70
     0
  9
$MIRRTEXT
 70
     1
  9
$DRAGMODE
 70
     2
  9
$LTSCALE
 40
32.67
  9
$OSMODE
 70
   511
  9
$ATTMODE
 70
     1
  9
$TEXTSIZE
 40
0.2
  9
$TRACEWID
 40
0.05
  9
$TEXTSTYLE
  7
STANDARD
  9
$CLAYER
  8
DIMENSIONS
  9
$CELTYPE
  6
BYBLOCK
  9
$CECOLOR
 62
   256
  9
$DIMSCALE
 40
1.0
  9
$DIMASZ
 40
5.0
  9
$DIMEXO
 40
1.5
  9
$DIMDLI
 40
1.0
  9
$DIMRND
 40
0.0
  9
$DIMDLE
 40
0.0
  9
$DIMEXE
 40
0.18
  9
$DIMTP
 40
0.0
  9
$DIMTM
 40
0.0
  9
$DIMTXT
 40
5.0
  9
$DIMCEN
 40
2.5
  9
$DIMTSZ
 40
0.0
  9
$DIMTOL
 70
     0
  9
$DIMLIM
 70
     0
  9
$DIMTIH
 70
     0
  9
$DIMTOH
 70
     0
  9
$DIMSE1
 70
     0
  9
$DIMSE2
 70
     0
  9
$DIMTAD
 70
     1
  9
$DIMZIN
 70
     8
  9
$DIMBLK
  1

  9
$DIMASO
 70
     1
  9
$DIMSHO
 70
     1
  9
$DIMPOST
  1

  9
$DIMAPOST
  1

  9
$DIMALT
 70
     1
  9
$DIMALTD
 70
     2
  9
$DIMALTF
 40
0.03937
  9
$DIMLFAC
 40
1.0
  9
$DIMTOFL
 70
     0
  9
$DIMTVP
 40
0.0
  9
$DIMTIX
 70
     0
  9
$DIMSOXD
 70
     0
  9
$DIMSAH
 70
     0
  9
$DIMBLK1
  1

  9
$DIMBLK2
  1

  9
$DIMSTYLE
  2
DUAL-DIM
  9
$DIMCLRD
 70
     0
  9
$DIMCLRE
 70
     0
  9
$DIMCLRT
 70
     5
  9
$DIMTFAC
 40
1.0
  9
$DIMGAP
 40
1.0
  9
$LUNITS
 70
     2
  9
$LUPREC
 70
     4
  9
$SKETCHINC
 40
0.1
  9
$FILLETRAD
 40
15.0
  9
$AUNITS
 70
     0
  9
$AUPREC
 70
     0
  9
$MENU
  1
.
  9
$ELEVATION
 40
0.0
  9
$PELEVATION
 40
0.0
  9
$THICKNESS
 40
0.0
  9
$LIMCHECK
 70
     0
  9
$CHAMFERA
 40
0.0
  9
$CHAMFERB
 40
0.0
  9
$SKPOLY
 70
     0
  9
$TDCREATE
 40
2457428.354677859
  9
$TDUPDATE
 40
2457438.497767257
  9
$TDINDWG
 40
0.139747581
  9
$TDUSRTIMER
 40
2457438.454478102
  9
$USRTIMER
 70
     1
  9
$ANGBASE
 50
0.0
  9
$ANGDIR
 70
     0
  9
$PDMODE
 70
     3
  9
$PDSIZE
 40
0.3125
  9
$PLINEWID
 40
0.0
  9
$COORDS
 70
     2
  9
$SPLFRAME
 70
     0
  9
$SPLINETYPE
 70
     6
  9
$SPLINESEGS
 70
     8
  9
$ATTDIA
 70
     0
  9
$ATTREQ
 70
     1
  9
$HANDLING
 70
     1
  9
$HANDSEED
  5
3B14
  9
$SURFTAB1
 70
     6
  9
$SURFTAB2
 70
     6
  9
$SURFTYPE
 70
     6
  9
$SURFU
 70
     6
  9
$SURFV
 70
     6
  9
$UCSNAME
  2

  9
$UCSORG
 10
0.0
 20
0.0
 30
0.0
  9
$UCSXDIR
 10
1.0
 20
0.0
 30
0.0
  9
$UCSYDIR
 10
0.0
 20
1.0
 30
0.0
  9
$PUCSNAME
  2

  9
$PUCSORG
 10
0.0
 20
0.0
 30
0.0
  9
$PUCSXDIR
 10
1.0
 20
0.0
 30
0.0
  9
$PUCSYDIR
 10
0.0
 20
1.0
 30
0.0
  9
$USERI1
 70
     0
  9
$USERI2
 70
     0
  9
$USERI3
 70
     0
  9
$USERI4
 70
     0
  9
$USERI5
 70
     0
  9
$USERR1
 40
0.0
  9
$USERR2
 40
0.0
  9
$USERR3
 40
0.0
  9
$USERR4
 40
0.0
  9
$USERR5
 40
0.0
  9
$WORLDVIEW
 70
     1
  9
$SHADEDGE
 70
     3
  9
$SHADEDIF
 70
    70
  9
$TILEMODE
 70
     1
  9
$MAXACTVP
 70
    64
  9
$PLIMCHECK
 70
     0
  9
$PEXTMIN
 10
1.05
 20
0.6999999999999997
 30
0.0
  9
$PEXTMAX
 10
9.45
 20
6.300000000000001
 30
0.0
  9
$PLIMMIN
 10
-0.25
 20
-0.7499999999999999
  9
$PLIMMAX
 10
10.75
 20
7.75
  9
$UNITMODE
 70
     0
  9
$VISRETAIN
 70
     1
  9
$PLINEGEN
 70
     0
  9
$PSLTSCALE
 70
     1
  0
ENDSEC
  0
SECTION
  2
TABLES
  0
TABLE
  2
VPORT
 70
     1
  0
VPORT
  2
*ACTIVE
 70
     0
 10
0.0
 20
0.0
 11
1.0
 21
1.0
 12
1009.858412918372
 22
692.7236511500464
 13
0.0
 23
0.0
 14
0.5
 24
0.5
 15
0.5
 25
0.5
 16
0.0
 26
0.0
 36
1.0
 17
0.0
 27
0.0
 37
0.0
 40
996.3627958609941
 41
2.450549450549451
 42
50.0
 43
0.0
 44
0.0
 50
0.0
 51
0.0
 71
    16
 72
   100
 73
     1
 74
     3
 75
     0
 76
     0
 77
     0
 78
     0
  0
ENDTAB
  0
TABLE
  2
LTYPE
 70
     7
  0
LTYPE
  2
CONTINUOUS
 70
     0
  3
Solid line
 72
    65
 73
     0
 40
0.0
  0
LTYPE
  2
CENTER
 70
     0
  3
____ _ ____ _ ____ _ ____ _ ____ _ ____ _ ____
 72
    65
 73
     4
 40
0.6
 49
0.375
 49
-0.075
 49
0.075
 49
-0.075
  0
LTYPE
  2
HIDDEN
 70
     0
  3
- - - - - - - - - - - - - - - - - - - -
 72
    65
 73
     2
 40
0.2
 49
0.1
 49
-0.1
  0
LTYPE
  2
PHANTOM
 70
     0
  3
_____ _ _ _____ _ _ _____ _ _ _____
 72
    65
 73
     6
 40
0.8
 49
0.45
 49
-0.05
 49
0.1
 49
-0.05
 49
0.1
 49
-0.05
  0
LTYPE
  2
DOT
 70
     0
  3
. . . . . . . . . . . . . . . . . . . .
 72
    65
 73
     2
 40
0.2
 49
0.1
 49
-0.1
  0
LTYPE
  2
DASHED
 70
     0
  3
- - - - - - - - - - - - - - - - - - - -
 72
    65
 73
     2
 40
0.2
 49
0.1
 49
-0.1
  0
LTYPE
  2
STRICHPUNKT
 70
     0
  3
__ . __ . __ . __ . __ . __ . __ . __ . __ . __
 72
    65
 73
     4
 40
1.0
 49
0.5
 49
-0.25
 49
0.0
 49
-0.25
  0
ENDTAB
  0
TABLE
  2
LAYER
 70
    19
  0
LAYER
  2
0
 70
     0
 62
     7
  6
CONTINUOUS
  0
LAYER
  2
DEFAULT_1
 70
     0
 62
     7
  6
CENTER
  0
LAYER
  2
DEFAULT_2
 70
     0
 62
     7
  6
HIDDEN
  0
LAYER
  2
DEFAULT_3
 70
     0
 62
     7
  6
PHANTOM
  0
LAYER
  2
01___PRT_ALL_DTM_PLN
 70
     0
 62
     7
  6
CONTINUOUS
  0
LAYER
  2
01___PRT_DEF_DTM_PLN
 70
     0
 62
     7
  6
CONTINUOUS
  0
LAYER
  2
02___PRT_ALL_AXES
 70
     0
 62
     7
  6
CONTINUOUS
  0
LAYER
  2
03___PRT_ALL_CURVES
 70
     0
 62
     7
  6
CONTINUOUS
  0
LAYER
  2
04___PRT_ALL_DTM_PNT
 70
     0
 62
     7
  6
CONTINUOUS
  0
LAYER
  2
05___PRT_ALL_DTM_CSYS
 70
     0
 62
     7
  6
CONTINUOUS
  0
LAYER
  2
05___PRT_DEF_DTM_CSYS
 70
     0
 62
     7
  6
CONTINUOUS
  0
LAYER
  2
06___PRT_ALL_SURFS
 70
     0
 62
     7
  6
CONTINUOUS
  0
LAYER
  2
DEFPOINTS
 70
     0
 62
     7
  6
CONTINUOUS
  0
LAYER
  2
DIMENSIONS
 70
     0
 62
     2
  6
CONTINUOUS
  0
LAYER
  2
AM_5
 70
     0
 62
     3
  6
CONTINUOUS
  0
LAYER
  2
CUTOUT
 70
     0
 62
     7
  6
CONTINUOUS
  0
LAYER
  2
EXTERNAL_OUTFIT
 70
     0
 62
     7
  6
CENTER
  0
LAYER
  2
OUTLINES
 70
     0
 62
     4
  6
CONTINUOUS
  0
LAYER
  2
3
 70
     0
 62
     4
  6
CONTINUOUS
  0
ENDTAB
  0
TABLE
  2
STYLE
 70
     2
  0
STYLE
  2
STANDARD
 70
     0
 40
0.0
 41
1.0
 50
0.0
 71
     0
 42
0.2
  3
arial.ttf
  4

  0
STYLE
  2
TEXTSTYLE_1
 70
     0
 40
0.0
 41
0.8
 50
0.0
 71
     0
 42
0.2
  3
gdt
  4

  0
ENDTAB
  0
TABLE
  2
VIEW
 70
     0
  0
ENDTAB
  0
TABLE
  2
UCS
 70
     0
  0
ENDTAB
  0
TABLE
  2
APPID
 70
    11
  0
APPID
  2
ACAD
 70
     0
  0
APPID
  2
ACAECLAYERSTANDARD
 70
     0
  0
APPID
  2
ACAD_DSTYLE_DIMRADIAL_EXTE
 70
     0
  0
APPID
  2
ACAD_DSTYLE_DIMJOGGED_JOGA
 70
     0
  0
APPID
  2
ACAD_DSTYLE_DIMJAG
 70
     0
  0
APPID
  2
ACAD_DSTYLE_DIMBREAK
 70
     0
  0
APPID
  2
ACAD_PSEXT
 70
     0
  0
APPID
  2
ACAD_DSTYLE_DIMINSPECT
 70
     0
  0
APPID
  2
ACAD_DSTYLE_DIMRADIAL_EXT0
 70
     0
  0
APPID
  2
ACAD_DSTYLE_DIMJOGGED_JOG0
 70
     0
  0
APPID
  2
PLOTTRANSPARENCY
 70
     0
  0
ENDTAB
  0
TABLE
  2
DIMSTYLE
 70
     5
  0
DIMSTYLE
  2
STANDARD
 70
     0
  3

  4

  5

  6

  7

 40
1.0
 41
0.18
 42
0.0625
 43
0.38
 44
0.18
 45
0.0
 46
0.0
 47
0.0
 48
0.0
140
0.18
141
0.09
142
0.0
143
25.4
144
1.0
145
0.0
146
1.0
147
0.09
 71
     0
 72
     0
 73
     1
 74
     1
 75
     0
 76
     0
 77
     0
 78
     0
170
     0
171
     2
172
     0
173
     0
174
     0
175
     0
176
     0
177
     0
178
     0
  0
DIMSTYLE
  2
DUAL-DIM
 70
     0
  3

  4

  5

  6

  7

 40
1.0
 41
5.0
 42
1.5
 43
1.0
 44
0.18
 45
0.0
 46
0.0
 47
0.0
 48
0.0
140
5.0
141
2.5
142
0.0
143
0.03937
144
1.0
145
0.0
146
1.0
147
1.0
 71
     0
 72
     0
 73
     0
 74
     0
 75
     0
 76
     0
 77
     1
 78
     8
170
     1
171
     2
172
     0
173
     0
174
     0
175
     0
176
     0
177
     0
178
     5
  0
DIMSTYLE
  2
AM_ISO
 70
     0
  3

  4
"
  5

  6

  7

 40
1.0
 41
3.5
 42
1.0
 43
10.0
 44
1.0
 45
0.0
 46
0.0
 47
0.1
 48
0.1
140
3.5
141
0.0
142
0.0
143
0.0393701
144
1.0
145
0.0
146
0.71
147
1.5
 71
     0
 72
     0
 73
     0
 74
     0
 75
     0
 76
     0
 77
     1
 78
     8
170
     0
171
     2
172
     1
173
     0
174
     0
175
     0
176
   256
177
   256
178
     2
  0
DIMSTYLE
  2
AM_ISO$3
 70
     0
  3

  4
"
  5

  6

  7

 40
1.0
 41
3.5
 42
1.0
 43
10.0
 44
1.0
 45
0.0
 46
0.0
 47
0.1
 48
0.1
140
3.5
141
0.0
142
0.0
143
0.0393701
144
1.0
145
0.0
146
0.71
147
1.5
 71
     0
 72
     0
 73
     0
 74
     1
 75
     0
 76
     0
 77
     1
 78
     8
170
     0
171
     2
172
     0
173
     0
174
     0
175
     0
176
   256
177
   256
178
     2
  0
DIMSTYLE
  2
AM_ISO$0
 70
     0
  3

  4
"
  5

  6

  7

 40
1.0
 41
3.5
 42
1.0
 43
10.0
 44
1.0
 45
0.0
 46
0.0
 47
0.1
 48
0.1
140
3.5
141
0.0
142
0.0
143
0.0393701
144
1.0
145
0.0
146
0.71
147
1.5
 71
     0
 72
     0
 73
     0
 74
     0
 75
     0
 76
     0
 77
     1
 78
     8
170
     0
171
     2
172
     1
173
     0
174
     0
175
     0
176
   256
177
   256
178
     2
  0
ENDTAB
  0
ENDSEC
  0
SECTION
  2
BLOCKS
  0
BLOCK
  8
0
  2
$MODEL_SPACE
 70
     0
 10
0.0
 20
0.0
 30
0.0
  3
$MODEL_SPACE
  1

  0
ENDBLK
  5
110
  8
0
  0
BLOCK
 67
     1
  8
0
  2
$PAPER_SPACE
 70
     0
 10
0.0
 20
0.0
 30
0.0
  3
$PAPER_SPACE
  1

  0
ENDBLK
  5
112
 67
     1
  8
0
  0
BLOCK
  8
0
  2
_FILLED
 70
     0
 10
0.0
 20
0.0
 30
0.0
  3
_FILLED
  1

  0
SOLID
  5
3D
  8
0
  6
BYBLOCK
 62
     0
 10
0.0
 20
0.0
 30
0.0
 11
-1.0
 21
0.2
 31
0.0
 12
-1.0
 22
-0.2
 32
0.0
 13
-1.0
 23
-0.2
 33
0.0
  0
ENDBLK
  5
3E
  8
0
  6
BYBLOCK
 62
     0
  0
BLOCK
  8
0
  2
*X639
 70
     1
 10
0.0
 20
0.0
 30
0.0
  3
*X639
  1

  0
LINE
  5
39D6
  8
CUTOUT
 10
128.6999999999998
 20
579.4805730064238
 30
0.0
 11
173.2194269935759
 21
624.0
 31
0.0
  0
LINE
  5
39D7
  8
CUTOUT
 10
128.6999999999998
 20
504.3504775053532
 30
0.0
 11
248.3495224946466
 21
624.0
 31
0.0
  0
LINE
  5
39D8
  8
CUTOUT
 10
128.6999999999998
 20
429.2203820042826
 30
0.0
 11
323.4796179957173
 21
624.0
 31
0.0
  0
LINE
  5
39D9
  8
CUTOUT
 10
128.6999999999998
 20
354.0902865032119
 30
0.0
 11
398.6097134967879
 21
624.0
 31
0.0
  0
LINE
  5
39DA
  8
CUTOUT
 10
128.6999999999998
 20
278.9601910021412
 30
0.0
 11
468.4999999999999
 21
618.7601910021413
 31
0.0
  0
LINE
  5
39DB
  8
CUTOUT
 10
128.6999999999998
 20
203.8300955010705
 30
0.0
 11
468.4999999999999
 21
543.6300955010706
 31
0.0
  0
LINE
  5
39DC
  8
CUTOUT
 10
128.6999999999998
 20
128.6999999999999
 30
0.0
 11
468.4999999999998
 21
468.4999999999999
 31
0.0
  0
LINE
  5
39DD
  8
CUTOUT
 10
151.1300955010706
 20
76.0
 30
0.0
 11
468.4999999999999
 21
393.3699044989293
 31
0.0
  0
LINE
  5
39DE
  8
CUTOUT
 10
226.2601910021414
 20
76.0
 30
0.0
 11
468.4999999999999
 21
318.2398089978586
 31
0.0
  0
LINE
  5
39DF
  8
CUTOUT
 10
301.390286503212
 20
76.00000000000006
 30
0.0
 11
468.4999999999999
 21
243.1097134967879
 31
0.0
  0
LINE
  5
39E0
  8
CUTOUT
 10
792.4999999999999
 20
567.109713496788
 30
0.0
 11
849.3902865032119
 21
624.0
 31
0.0
  0
LINE
  5
39E1
  8
CUTOUT
 10
376.5203820042826
 20
76.0
 30
0.0
 11
468.4999999999999
 21
167.9796179957173
 31
0.0
  0
LINE
  5
39E2
  8
CUTOUT
 10
451.6504775053533
 20
76.00000000000006
 30
0.0
 11
468.4999999999999
 21
92.84952249464658
 31
0.0
  0
LINE
  5
39E3
  8
CUTOUT
 10
792.4999999999999
 20
491.9796179957173
 30
0.0
 11
918.4999999999998
 21
617.9796179957173
 31
0.0
  0
LINE
  5
39E4
  8
CUTOUT
 10
792.4999999999999
 20
416.8495224946466
 30
0.0
 11
918.4999999999999
 21
542.8495224946466
 31
0.0
  0
LINE
  5
39E5
  8
CUTOUT
 10
792.4999999999999
 20
341.7194269935759
 30
0.0
 11
918.4999999999999
 21
467.719426993576
 31
0.0
  0
LINE
  5
39E6
  8
CUTOUT
 10
792.4999999999999
 20
266.5893314925053
 30
0.0
 11
918.4999999999999
 21
392.5893314925053
 31
0.0
  0
LINE
  5
39E7
  8
CUTOUT
 10
792.4999999999999
 20
191.4592359914346
 30
0.0
 11
918.4999999999999
 21
317.4592359914345
 31
0.0
  0
LINE
  5
39E8
  8
CUTOUT
 10
792.4999999999999
 20
116.3291404903639
 30
0.0
 11
918.4999999999999
 21
242.3291404903639
 31
0.0
  0
LINE
  5
39E9
  8
CUTOUT
 10
827.3009550107067
 20
76.0
 30
0.0
 11
918.4999999999999
 21
167.1990449892932
 31
0.0
  0
LINE
  5
39EA
  8
CUTOUT
 10
902.4310505117774
 20
76.0
 30
0.0
 11
918.4999999999999
 21
92.06894948822253
 31
0.0
  0
ENDBLK
  5
39EB
  8
0
  0
BLOCK
  8
0
  2
*D640
 70
     1
 10
0.0
 20
0.0
 30
0.0
  3
*D640
  1

  0
LINE
  5
3A05
  8
DIMENSIONS
  6
BYBLOCK
 62
     0
 10
227.2474048678972
 20
557.6577324031527
 30
0.0
 11
151.4002040530212
 21
557.6577324031527
 31
0.0
  0
LINE
  5
3A06
  8
DIMENSIONS
  6
BYBLOCK
 62
     0
 10
227.2474048678972
 20
907.6577324031527
 30
0.0
 11
151.4002040530213
 21
907.6577324031527
 31
0.0
  0
LINE
  5
3A07
  8
DIMENSIONS
  6
BYBLOCK
 62
     0
 10
151.5802040530212
 20
562.6577324031527
 30
0.0
 11
151.5802040530213
 21
902.6577324031527
 31
0.0
  0
SOLID
  5
3A08
  8
DIMENSIONS
 62
     0
 10
150.7468707196879
 20
562.6577324031527
 30
0.0
 11
152.4135373863546
 21
562.6577324031527
 31
0.0
 12
151.5802040530212
 22
557.6577324031527
 32
0.0
 13
151.5802040530212
 23
557.6577324031527
 33
0.0
  0
SOLID
  5
3A09
  8
DIMENSIONS
 62
     0
 10
152.4135373863546
 20
902.6577324031527
 30
0.0
 11
150.7468707196879
 21
902.6577324031527
 31
0.0
 12
151.5802040530213
 22
907.6577324031527
 32
0.0
 13
151.5802040530213
 23
907.6577324031527
 33
0.0
  0
TEXT
  5
3A0A
  8
DIMENSIONS
  6
CONTINUOUS
 62
     5
 10
149.1852040530213
 20
715.2777324031529
 30
0.0
 40
5.0
  1
350 [13.78]
 50
90.0
  0
POINT
  5
3A0B
  8
DEFPOINTS
 62
     0
 10
228.7474048678972
 20
557.6577324031527
 30
0.0
  0
POINT
  5
3A0C
  8
DEFPOINTS
 62
     0
 10
228.7474048678972
 20
907.6577324031527
 30
0.0
  0
POINT
  5
3A0D
  8
DEFPOINTS
 62
     0
 10
151.5802040530213
 20
907.6577324031527
 30
0.0
  0
ENDBLK
  5
3A04
  8
0
  0
BLOCK
  8
0
  2
*D641
 70
     1
 10
0.0
 20
0.0
 30
0.0
  3
*D641
  1

  0
LINE
  5
3A14
  8
DIMENSIONS
  6
BYBLOCK
 62
     0
 10
237.247404867897
 20
458.6577324031527
 30
0.0
 11
134.0398368161683
 21
458.6577324031527
 31
0.0
  0
LINE
  5
3A15
  8
DIMENSIONS
  6
BYBLOCK
 62
     0
 10
237.247404867897
 20
1006.657732403153
 30
0.0
 11
134.0398368161683
 21
1006.657732403153
 31
0.0
  0
LINE
  5
3A16
  8
DIMENSIONS
  6
BYBLOCK
 62
     0
 10
134.2198368161683
 20
463.6577324031527
 30
0.0
 11
134.2198368161683
 21
1001.657732403153
 31
0.0
  0
SOLID
  5
3A17
  8
DIMENSIONS
 62
     0
 10
133.386503482835
 20
463.6577324031527
 30
0.0
 11
135.0531701495017
 21
463.6577324031527
 31
0.0
 12
134.2198368161683
 22
458.6577324031527
 32
0.0
 13
134.2198368161683
 23
458.6577324031527
 33
0.0
  0
SOLID
  5
3A18
  8
DIMENSIONS
 62
     0
 10
135.0531701495017
 20
1001.657732403153
 30
0.0
 11
133.386503482835
 21
1001.657732403153
 31
0.0
 12
134.2198368161683
 22
1006.657732403153
 32
0.0
 13
134.2198368161683
 23
1006.657732403153
 33
0.0
  0
TEXT
  5
3A19
  8
DIMENSIONS
  6
CONTINUOUS
 62
     5
 10
131.8248368161684
 20
715.2802324031527
 30
0.0
 40
5.0
  1
548 [21.57]
 50
90.0
  0
POINT
  5
3A1A
  8
DEFPOINTS
 62
     0
 10
238.747404867897
 20
458.6577324031527
 30
0.0
  0
POINT
  5
3A1B
  8
DEFPOINTS
 62
     0
 10
238.747404867897
 20
1006.657732403153
 30
0.0
  0
POINT
  5
3A1C
  8
DEFPOINTS
 62
     0
 10
134.2198368161683
 20
1006.657732403153
 30
0.0
  0
ENDBLK
  5
3A13
  8
0
  0
BLOCK
  8
0
  2
*D642
 70
     1
 10
0.0
 20
0.0
 30
0.0
  3
*D642
  1

  0
LINE
  5
3A23
  8
DIMENSIONS
  6
BYBLOCK
 62
     0
 10
168.5474048678973
 20
426.1577324031528
 30
0.0
 11
116.879373095097
 21
426.1577324031527
 31
0.0
  0
LINE
  5
3A24
  8
DIMENSIONS
  6
BYBLOCK
 62
     0
 10
168.5474048678973
 20
1039.157732403153
 30
0.0
 11
116.879373095097
 21
1039.157732403153
 31
0.0
  0
LINE
  5
3A25
  8
DIMENSIONS
  6
BYBLOCK
 62
     0
 10
117.059373095097
 20
431.1577324031527
 30
0.0
 11
117.059373095097
 21
1034.157732403153
 31
0.0
  0
SOLID
  5
3A26
  8
DIMENSIONS
 62
     0
 10
116.2260397617636
 20
431.1577324031527
 30
0.0
 11
117.8927064284303
 21
431.1577324031527
 31
0.0
 12
117.059373095097
 22
426.1577324031527
 32
0.0
 13
117.059373095097
 23
426.1577324031527
 33
0.0
  0
SOLID
  5
3A27
  8
DIMENSIONS
 62
     0
 10
117.8927064284303
 20
1034.157732403153
 30
0.0
 11
116.2260397617637
 21
1034.157732403153
 31
0.0
 12
117.059373095097
 22
1039.157732403153
 32
0.0
 13
117.059373095097
 23
1039.157732403153
 33
0.0
  0
TEXT
  5
3A28
  8
DIMENSIONS
  6
CONTINUOUS
 62
     5
 10
114.6643730950969
 20
715.2952324031528
 30
0.0
 40
5.0
  1
613 [24.13]
 50
90.0
  0
POINT
  5
3A29
  8
DEFPOINTS
 62
     0
 10
170.0474048678973
 20
426.1577324031528
 30
0.0
  0
POINT
  5
3A2A
  8
DEFPOINTS
 62
     0
 10
170.0474048678973
 20
1039.157732403153
 30
0.0
  0
POINT
  5
3A2B
  8
DEFPOINTS
 62
     0
 10
117.059373095097
 20
1039.157732403153
 30
0.0
  0
ENDBLK
  5
3A22
  8
0
  0
BLOCK
  8
0
  2
*D643
 70
     1
 10
0.0
 20
0.0
 30
0.0
  3
*D643
  1

  0
LINE
  5
3A32
  8
DIMENSIONS
  6
BYBLOCK
 62
     0
 10
170.0474048678973
 20
1040.657732403153
 30
0.0
 11
170.0474048678973
 21
1055.451997100702
 31
0.0
  0
LINE
  5
3A33
  8
DIMENSIONS
  6
BYBLOCK
 62
     0
 10
228.7474048678972
 20
909.1577324031527
 30
0.0
 11
228.7474048678972
 21
1055.451997100702
 31
0.0
  0
LINE
  5
3A34
  8
DIMENSIONS
  6
BYBLOCK
 62
     0
 10
175.0474048678973
 20
1055.271997100702
 30
0.0
 11
223.7474048678972
 21
1055.271997100702
 31
0.0
  0
SOLID
  5
3A35
  8
DIMENSIONS
 62
     0
 10
175.0474048678973
 20
1056.105330434035
 30
0.0
 11
175.0474048678973
 21
1054.438663767369
 31
0.0
 12
170.0474048678973
 22
1055.271997100702
 32
0.0
 13
170.0474048678973
 23
1055.271997100702
 33
0.0
  0
SOLID
  5
3A36
  8
DIMENSIONS
 62
     0
 10
223.7474048678972
 20
1054.438663767369
 30
0.0
 11
223.7474048678972
 21
1056.105330434035
 31
0.0
 12
228.7474048678972
 22
1055.271997100702
 32
0.0
 13
228.7474048678972
 23
1055.271997100702
 33
0.0
  0
TEXT
  5
3A37
  8
DIMENSIONS
  6
CONTINUOUS
 62
     5
 10
182.9899048678973
 20
1057.666997100702
 30
0.0
 40
5.0
  1
58.7 [2.31]
  0
POINT
  5
3A38
  8
DEFPOINTS
 62
     0
 10
170.0474048678973
 20
1039.157732403153
 30
0.0
  0
POINT
  5
3A39
  8
DEFPOINTS
 62
     0
 10
228.7474048678972
 20
907.6577324031527
 30
0.0
  0
POINT
  5
3A3A
  8
DEFPOINTS
 62
     0
 10
228.7474048678972
 20
1055.271997100702
 30
0.0
  0
ENDBLK
  5
3A31
  8
0
  0
BLOCK
  8
0
  2
*D644
 70
     1
 10
0.0
 20
0.0
 30
0.0
  3
*D644
  1

  0
LINE
  5
3A57
  8
DIMENSIONS
  6
BYBLOCK
 62
     0
 10
228.7474048678972
 20
909.1577324031527
 30
0.0
 11
228.7474048678972
 21
1055.451997100702
 31
0.0
  0
LINE
  5
3A58
  8
DIMENSIONS
  6
BYBLOCK
 62
     0
 10
590.5474048678972
 20
909.1577324031527
 30
0.0
 11
590.5474048678972
 21
1055.451997100702
 31
0.0
  0
LINE
  5
3A59
  8
DIMENSIONS
  6
BYBLOCK
 62
     0
 10
233.7474048678972
 20
1055.271997100702
 30
0.0
 11
585.5474048678972
 21
1055.271997100702
 31
0.0
  0
SOLID
  5
3A5A
  8
DIMENSIONS
 62
     0
 10
233.7474048678972
 20
1056.105330434035
 30
0.0
 11
233.7474048678972
 21
1054.438663767369
 31
0.0
 12
228.7474048678972
 22
1055.271997100702
 32
0.0
 13
228.7474048678972
 23
1055.271997100702
 33
0.0
  0
SOLID
  5
3A5B
  8
DIMENSIONS
 62
     0
 10
585.5474048678972
 20
1054.438663767369
 30
0.0
 11
585.5474048678972
 21
1056.105330434035
 31
0.0
 12
590.5474048678972
 22
1055.271997100702
 32
0.0
 13
590.5474048678972
 23
1055.271997100702
 33
0.0
  0
TEXT
  5
3A5C
  8
DIMENSIONS
  6
CONTINUOUS
 62
     5
 10
389.3574048678972
 20
1057.666997100702
 30
0.0
 40
5.0
  1
361.8 [14.24]
  0
POINT
  5
3A5D
  8
DEFPOINTS
 62
     0
 10
228.7474048678972
 20
907.6577324031527
 30
0.0
  0
POINT
  5
3A5E
  8
DEFPOINTS
 62
     0
 10
590.5474048678972
 20
907.6577324031527
 30
0.0
  0
POINT
  5
3A5F
  8
DEFPOINTS
 62
     0
 10
590.5474048678972
 20
1055.271997100702
 30
0.0
  0
ENDBLK
  5
3A56
  8
0
  0
BLOCK
  8
0
  2
*D645
 70
     1
 10
0.0
 20
0.0
 30
0.0
  3
*D645
  1

  0
LINE
  5
3A66
  8
DIMENSIONS
  6
BYBLOCK
 62
     0
 10
590.5474048678972
 20
909.1577324031527
 30
0.0
 11
590.5474048678972
 21
1055.451997100702
 31
0.0
  0
LINE
  5
3A67
  8
DIMENSIONS
  6
BYBLOCK
 62
     0
 10
890.5474048678972
 20
909.1577324031527
 30
0.0
 11
890.5474048678972
 21
1055.451997100702
 31
0.0
  0
LINE
  5
3A68
  8
DIMENSIONS
  6
BYBLOCK
 62
     0
 10
595.5474048678972
 20
1055.271997100702
 30
0.0
 11
885.5474048678972
 21
1055.271997100702
 31
0.0
  0
SOLID
  5
3A69
  8
DIMENSIONS
 62
     0
 10
595.5474048678972
 20
1056.105330434035
 30
0.0
 11
595.5474048678972
 21
1054.438663767369
 31
0.0
 12
590.5474048678972
 22
1055.271997100702
 32
0.0
 13
590.5474048678972
 23
1055.271997100702
 33
0.0
  0
SOLID
  5
3A6A
  8
DIMENSIONS
 62
     0
 10
885.5474048678972
 20
1054.438663767369
 30
0.0
 11
885.5474048678972
 21
1056.105330434035
 31
0.0
 12
890.5474048678972
 22
1055.271997100702
 32
0.0
 13
890.5474048678972
 23
1055.271997100702
 33
0.0
  0
TEXT
  5
3A6B
  8
DIMENSIONS
  6
CONTINUOUS
 62
     5
 10
723.1674048678972
 20
1057.666997100702
 30
0.0
 40
5.0
  1
300 [11.81]
  0
POINT
  5
3A6C
  8
DEFPOINTS
 62
     0
 10
590.5474048678972
 20
907.6577324031527
 30
0.0
  0
POINT
  5
3A6D
  8
DEFPOINTS
 62
     0
 10
890.5474048678972
 20
907.6577324031527
 30
0.0
  0
POINT
  5
3A6E
  8
DEFPOINTS
 62
     0
 10
890.5474048678972
 20
1055.271997100702
 30
0.0
  0
ENDBLK
  5
3A65
  8
0
  0
BLOCK
  8
0
  2
*D646
 70
     1
 10
0.0
 20
0.0
 30
0.0
  3
*D646
  1

  0
LINE
  5
3A75
  8
DIMENSIONS
  6
BYBLOCK
 62
     0
 10
890.5474048678972
 20
909.1577324031527
 30
0.0
 11
890.5474048678972
 21
1055.451997100702
 31
0.0
  0
LINE
  5
3A76
  8
DIMENSIONS
  6
BYBLOCK
 62
     0
 10
1040.547404867897
 20
909.1577324031527
 30
0.0
 11
1040.547404867897
 21
1055.451997100702
 31
0.0
  0
LINE
  5
3A77
  8
DIMENSIONS
  6
BYBLOCK
 62
     0
 10
895.5474048678972
 20
1055.271997100702
 30
0.0
 11
1035.547404867897
 21
1055.271997100702
 31
0.0
  0
SOLID
  5
3A78
  8
DIMENSIONS
 62
     0
 10
895.5474048678972
 20
1056.105330434035
 30
0.0
 11
895.5474048678972
 21
1054.438663767369
 31
0.0
 12
890.5474048678972
 22
1055.271997100702
 32
0.0
 13
890.5474048678972
 23
1055.271997100702
 33
0.0
  0
SOLID
  5
3A79
  8
DIMENSIONS
 62
     0
 10
1035.547404867897
 20
1054.438663767369
 30
0.0
 11
1035.547404867897
 21
1056.105330434035
 31
0.0
 12
1040.547404867897
 22
1055.271997100702
 32
0.0
 13
1040.547404867897
 23
1055.271997100702
 33
0.0
  0
TEXT
  5
3A7A
  8
DIMENSIONS
  6
CONTINUOUS
 62
     5
 10
949.874904867897
 20
1057.666997100702
 30
0.0
 40
5.0
  1
150 [5.91]
  0
POINT
  5
3A7B
  8
DEFPOINTS
 62
     0
 10
890.5474048678972
 20
907.6577324031527
 30
0.0
  0
POINT
  5
3A7C
  8
DEFPOINTS
 62
     0
 10
1040.547404867897
 20
907.6577324031527
 30
0.0
  0
POINT
  5
3A7D
  8
DEFPOINTS
 62
     0
 10
1040.547404867897
 20
1055.271997100702
 30
0.0
  0
ENDBLK
  5
3A74
  8
0
  0
BLOCK
  8
0
  2
*D647
 70
     1
 10
0.0
 20
0.0
 30
0.0
  3
*D647
  1

  0
LINE
  5
3A84
  8
DIMENSIONS
  6
BYBLOCK
 62
     0
 10
170.0474048678973
 20
424.6577324031528
 30
0.0
 11
170.0474048678973
 21
407.725911975807
 31
0.0
  0
LINE
  5
3A85
  8
DIMENSIONS
  6
BYBLOCK
 62
     0
 10
238.747404867897
 20
457.1577324031527
 30
0.0
 11
238.747404867897
 21
407.725911975807
 31
0.0
  0
LINE
  5
3A86
  8
DIMENSIONS
  6
BYBLOCK
 62
     0
 10
175.0474048678973
 20
407.905911975807
 30
0.0
 11
233.747404867897
 21
407.905911975807
 31
0.0
  0
SOLID
  5
3A87
  8
DIMENSIONS
 62
     0
 10
175.0474048678973
 20
408.7392453091404
 30
0.0
 11
175.0474048678973
 21
407.0725786424737
 31
0.0
 12
170.0474048678973
 22
407.905911975807
 32
0.0
 13
170.0474048678973
 23
407.905911975807
 33
0.0
  0
SOLID
  5
3A88
  8
DIMENSIONS
 62
     0
 10
233.747404867897
 20
407.0725786424737
 30
0.0
 11
233.747404867897
 21
408.7392453091404
 31
0.0
 12
238.747404867897
 22
407.905911975807
 32
0.0
 13
238.747404867897
 23
407.905911975807
 33
0.0
  0
TEXT
  5
3A89
  8
DIMENSIONS
  6
CONTINUOUS
 62
     5
 10
188.0049048678972
 20
410.300911975807
 30
0.0
 40
5.0
  1
68.7 [2.70]
  0
POINT
  5
3A8A
  8
DEFPOINTS
 62
     0
 10
170.0474048678973
 20
426.1577324031528
 30
0.0
  0
POINT
  5
3A8B
  8
DEFPOINTS
 62
     0
 10
238.747404867897
 20
458.6577324031527
 30
0.0
  0
POINT
  5
3A8C
  8
DEFPOINTS
 62
     0
 10
238.747404867897
 20
407.905911975807
 30
0.0
  0
ENDBLK
  5
3A83
  8
0
  0
BLOCK
  8
0
  2
*D648
 70
     1
 10
0.0
 20
0.0
 30
0.0
  3
*D648
  1

  0
LINE
  5
3A93
  8
DIMENSIONS
  6
BYBLOCK
 62
     0
 10
238.747404867897
 20
457.1577324031527
 30
0.0
 11
238.747404867897
 21
407.725911975807
 31
0.0
  0
LINE
  5
3A94
  8
DIMENSIONS
  6
BYBLOCK
 62
     0
 10
578.5474048678972
 20
457.1577324031528
 30
0.0
 11
578.5474048678972
 21
407.725911975807
 31
0.0
  0
LINE
  5
3A95
  8
DIMENSIONS
  6
BYBLOCK
 62
     0
 10
243.747404867897
 20
407.905911975807
 30
0.0
 11
573.5474048678972
 21
407.905911975807
 31
0.0
  0
SOLID
  5
3A96
  8
DIMENSIONS
 62
     0
 10
243.747404867897
 20
408.7392453091404
 30
0.0
 11
243.747404867897
 21
407.0725786424737
 31
0.0
 12
238.747404867897
 22
407.905911975807
 32
0.0
 13
238.747404867897
 23
407.905911975807
 33
0.0
  0
SOLID
  5
3A97
  8
DIMENSIONS
 62
     0
 10
573.5474048678972
 20
407.0725786424737
 30
0.0
 11
573.5474048678972
 21
408.7392453091404
 31
0.0
 12
578.5474048678972
 22
407.905911975807
 32
0.0
 13
578.5474048678972
 23
407.905911975807
 33
0.0
  0
TEXT
  5
3A98
  8
DIMENSIONS
  6
CONTINUOUS
 62
     5
 10
388.3574048678971
 20
410.300911975807
 30
0.0
 40
5.0
  1
339.8 [13.38]
  0
POINT
  5
3A99
  8
DEFPOINTS
 62
     0
 10
238.747404867897
 20
458.6577324031527
 30
0.0
  0
POINT
  5
3A9A
  8
DEFPOINTS
 62
     0
 10
578.5474048678972
 20
458.6577324031528
 30
0.0
  0
POINT
  5
3A9B
  8
DEFPOINTS
 62
     0
 10
578.5474048678972
 20
407.905911975807
 30
0.0
  0
ENDBLK
  5
3A92
  8
0
  0
BLOCK
  8
0
  2
*D649
 70
     1
 10
0.0
 20
0.0
 30
0.0
  3
*D649
  1

  0
LINE
  5
3AA2
  8
DIMENSIONS
  6
BYBLOCK
 62
     0
 10
578.5474048678972
 20
457.1577324031528
 30
0.0
 11
578.5474048678972
 21
407.725911975807
 31
0.0
  0
LINE
  5
3AA3
  8
DIMENSIONS
  6
BYBLOCK
 62
     0
 10
902.5474048678972
 20
457.1577324031527
 30
0.0
 11
902.5474048678972
 21
407.725911975807
 31
0.0
  0
LINE
  5
3AA4
  8
DIMENSIONS
  6
BYBLOCK
 62
     0
 10
583.5474048678972
 20
407.905911975807
 30
0.0
 11
897.5474048678972
 21
407.905911975807
 31
0.0
  0
SOLID
  5
3AA5
  8
DIMENSIONS
 62
     0
 10
583.5474048678972
 20
408.7392453091404
 30
0.0
 11
583.5474048678972
 21
407.0725786424737
 31
0.0
 12
578.5474048678972
 22
407.905911975807
 32
0.0
 13
578.5474048678972
 23
407.905911975807
 33
0.0
  0
SOLID
  5
3AA6
  8
DIMENSIONS
 62
     0
 10
897.5474048678972
 20
407.0725786424737
 30
0.0
 11
897.5474048678972
 21
408.7392453091404
 31
0.0
 12
902.5474048678972
 22
407.905911975807
 32
0.0
 13
902.5474048678972
 23
407.905911975807
 33
0.0
  0
TEXT
  5
3AA7
  8
DIMENSIONS
  6
CONTINUOUS
 62
     5
 10
723.1674048678972
 20
410.300911975807
 30
0.0
 40
5.0
  1
324 [12.76]
  0
POINT
  5
3AA8
  8
DEFPOINTS
 62
     0
 10
578.5474048678972
 20
458.6577324031528
 30
0.0
  0
POINT
  5
3AA9
  8
DEFPOINTS
 62
     0
 10
902.5474048678972
 20
458.6577324031527
 30
0.0
  0
POINT
  5
3AAA
  8
DEFPOINTS
 62
     0
 10
902.5474048678972
 20
407.905911975807
 30
0.0
  0
ENDBLK
  5
3AA1
  8
0
  0
BLOCK
  8
0
  2
*D650
 70
     1
 10
0.0
 20
0.0
 30
0.0
  3
*D650
  1

  0
LINE
  5
3AB1
  8
DIMENSIONS
  6
BYBLOCK
 62
     0
 10
902.5474048678972
 20
457.1577324031527
 30
0.0
 11
902.5474048678972
 21
407.725911975807
 31
0.0
  0
LINE
  5
3AB2
  8
DIMENSIONS
  6
BYBLOCK
 62
     0
 10
1028.547404867897
 20
457.1577324031528
 30
0.0
 11
1028.547404867897
 21
407.725911975807
 31
0.0
  0
LINE
  5
3AB3
  8
DIMENSIONS
  6
BYBLOCK
 62
     0
 10
907.5474048678972
 20
407.905911975807
 30
0.0
 11
1023.547404867897
 21
407.905911975807
 31
0.0
  0
SOLID
  5
3AB4
  8
DIMENSIONS
 62
     0
 10
907.5474048678972
 20
408.7392453091404
 30
0.0
 11
907.5474048678972
 21
407.0725786424737
 31
0.0
 12
902.5474048678972
 22
407.905911975807
 32
0.0
 13
902.5474048678972
 23
407.905911975807
 33
0.0
  0
SOLID
  5
3AB5
  8
DIMENSIONS
 62
     0
 10
1023.547404867897
 20
407.0725786424737
 30
0.0
 11
1023.547404867897
 21
408.7392453091404
 31
0.0
 12
1028.547404867897
 22
407.905911975807
 32
0.0
 13
1028.547404867897
 23
407.905911975807
 33
0.0
  0
TEXT
  5
3AB6
  8
DIMENSIONS
  6
CONTINUOUS
 62
     5
 10
949.874904867897
 20
410.300911975807
 30
0.0
 40
5.0
  1
126 [4.96]
  0
POINT
  5
3AB7
  8
DEFPOINTS
 62
     0
 10
902.5474048678972
 20
458.6577324031527
 30
0.0
  0
POINT
  5
3AB8
  8
DEFPOINTS
 62
     0
 10
1028.547404867897
 20
458.6577324031528
 30
0.0
  0
POINT
  5
3AB9
  8
DEFPOINTS
 62
     0
 10
1028.547404867897
 20
407.905911975807
 30
0.0
  0
ENDBLK
  5
3AB0
  8
0
  0
BLOCK
  8
0
  2
*D651
 70
     1
 10
0.0
 20
0.0
 30
0.0
  3
*D651
  1

  0
LINE
  5
3AC0
  8
DIMENSIONS
  6
BYBLOCK
 62
     0
 10
1028.547404867897
 20
457.1577324031528
 30
0.0
 11
1028.547404867897
 21
391.0430990049177
 31
0.0
  0
LINE
  5
3AC1
  8
DIMENSIONS
  6
BYBLOCK
 62
     0
 10
1050.047404867897
 20
424.6577324031527
 30
0.0
 11
1050.047404867897
 21
391.0430990049177
 31
0.0
  0
LINE
  5
3AC2
  8
DIMENSIONS
  6
BYBLOCK
 62
     0
 10
1028.547404867897
 20
391.2230990049177
 30
0.0
 11
989.2274048678971
 21
391.2230990049177
 31
0.0
  0
LINE
  5
3AC3
  8
DIMENSIONS
  6
BYBLOCK
 62
     0
 10
1033.547404867897
 20
391.2230990049177
 30
0.0
 11
1045.047404867897
 21
391.2230990049177
 31
0.0
  0
SOLID
  5
3AC4
  8
DIMENSIONS
 62
     0
 10
1033.547404867897
 20
392.0564323382511
 30
0.0
 11
1033.547404867897
 21
390.3897656715844
 31
0.0
 12
1028.547404867897
 22
391.2230990049177
 32
0.0
 13
1028.547404867897
 23
391.2230990049177
 33
0.0
  0
SOLID
  5
3AC5
  8
DIMENSIONS
 62
     0
 10
1045.047404867897
 20
390.3897656715844
 30
0.0
 11
1045.047404867897
 21
392.0564323382511
 31
0.0
 12
1050.047404867897
 22
391.2230990049177
 32
0.0
 13
1050.047404867897
 23
391.2230990049177
 33
0.0
  0
TEXT
  5
3AC6
  8
DIMENSIONS
  6
CONTINUOUS
 62
     5
 10
990.0224048678971
 20
393.6180990049177
 30
0.0
 40
5.0
  1
21.5 [0.85]
  0
POINT
  5
3AC7
  8
DEFPOINTS
 62
     0
 10
1028.547404867897
 20
458.6577324031528
 30
0.0
  0
POINT
  5
3AC8
  8
DEFPOINTS
 62
     0
 10
1050.047404867897
 20
426.1577324031527
 30
0.0
  0
POINT
  5
3AD5
  8
DEFPOINTS
 62
     0
 10
1050.047404867897
 20
391.2230990049177
 30
0.0
  0
ENDBLK
  5
3ABF
  8
0
  0
BLOCK
  8
0
  2
*D652
 70
     1
 10
0.0
 20
0.0
 30
0.0
  3
*D652
  1

  0
LINE
  5
3ACF
  8
DIMENSIONS
  6
BYBLOCK
 62
     0
 10
879.5474110835621
 20
557.6694261873849
 30
0.0
 11
835.262436107264
 21
557.7165042996326
 31
0.0
  0
TEXT
  5
3AD0
  8
DIMENSIONS
  6
CONTINUOUS
 62
     5
 10
835.9850668018727
 20
560.1907374897766
 30
0.0
 40
5.0
  1
Ø12 [Ø0.47]
 50
359.9390904900691
  0
SOLID
  5
3AD1
  8
DIMENSIONS
 62
     0
 10
879.5465251908172
 20
556.8360933249353
 30
0.0
 11
879.548296976307
 21
558.5027590498346
 31
0.0
 12
884.5474082582599
 22
557.6641108309158
 32
0.0
 13
884.5474082582599
 23
557.6641108309158
 33
0.0
  0
LINE
  5
3AD2
  8
DIMENSIONS
  6
BYBLOCK
 62
     0
 10
888.0474048678972
 20
557.6577324031527
 30
0.0
 11
893.0474048678972
 21
557.6577324031527
 31
0.0
  0
LINE
  5
3AD3
  8
DIMENSIONS
  6
BYBLOCK
 62
     0
 10
890.5474048678972
 20
555.1577324031527
 30
0.0
 11
890.5474048678972
 21
560.1577324031527
 31
0.0
  0
POINT
  5
3AD4
  8
DEFPOINTS
 62
     0
 10
884.5474082582599
 20
557.6641108309158
 30
0.0
  0
POINT
  5
3AD6
  8
DEFPOINTS
 62
     0
 10
896.5474014775344
 20
557.6513539753897
 30
0.0
  0
ENDBLK
  5
3ACE
  8
0
  0
BLOCK
  8
0
  2
*D653
 70
     1
 10
0.0
 20
0.0
 30
0.0
  3
*D653
  1

  0
LINE
  5
3ADE
  8
DIMENSIONS
  6
BYBLOCK
 62
     0
 10
170.0474048678973
 20
1040.657732403153
 30
0.0
 11
170.0474048678973
 21
1073.037771910541
 31
0.0
  0
LINE
  5
3ADF
  8
DIMENSIONS
  6
BYBLOCK
 62
     0
 10
1050.047404867897
 20
1040.657732403153
 30
0.0
 11
1050.047404867897
 21
1073.037771910541
 31
0.0
  0
LINE
  5
3AE0
  8
DIMENSIONS
  6
BYBLOCK
 62
     0
 10
175.0474048678973
 20
1072.857771910541
 30
0.0
 11
1045.047404867897
 21
1072.857771910541
 31
0.0
  0
SOLID
  5
3AE1
  8
DIMENSIONS
 62
     0
 10
175.0474048678973
 20
1073.691105243874
 30
0.0
 11
175.0474048678973
 21
1072.024438577207
 31
0.0
 12
170.0474048678973
 22
1072.857771910541
 32
0.0
 13
170.0474048678973
 23
1072.857771910541
 33
0.0
  0
SOLID
  5
3AE2
  8
DIMENSIONS
 62
     0
 10
1045.047404867897
 20
1072.024438577207
 30
0.0
 11
1045.047404867897
 21
1073.691105243874
 31
0.0
 12
1050.047404867897
 22
1072.857771910541
 32
0.0
 13
1050.047404867897
 23
1072.857771910541
 33
0.0
  0
TEXT
  5
3AE3
  8
DIMENSIONS
  6
CONTINUOUS
 62
     5
 10
592.6724048678972
 20
1075.252771910541
 30
0.0
 40
5.0
  1
880 [34.65]
  0
POINT
  5
3AE4
  8
DEFPOINTS
 62
     0
 10
170.0474048678973
 20
1039.157732403153
 30
0.0
  0
POINT
  5
3AE5
  8
DEFPOINTS
 62
     0
 10
1050.047404867897
 20
1039.157732403153
 30
0.0
  0
POINT
  5
3AE6
  8
DEFPOINTS
 62
     0
 10
1050.047404867897
 20
1072.857771910541
 30
0.0
  0
ENDBLK
  5
3ADD
  8
0
  0
ENDSEC
  0
SECTION
  2
ENTITIES
  0
TEXT
  5
25BF
  8
DIMENSIONS
  6
BYBLOCK
 10
167.1743648301431
 20
361.6568971519872
 30
0.0
 40
5.0
  1
Note:
  0
TEXT
  5
25C0
  8
DIMENSIONS
  6
BYBLOCK
 10
167.3082908704287
 20
351.1279293039941
 30
0.0
 40
5.0
  1
Primary dimensions in millimeters.
  0
TEXT
  5
25C1
  8
DIMENSIONS
  6
BYBLOCK
 10
167.5297048068187
 20
340.5559036952101
 30
0.0
 40
5.0
  1
Secondary dimensions in inches.
  0
POLYLINE
  5
39EF
  8
CUTOUT
 66
     1
 10
0.0
 20
0.0
 30
0.0
 70
     1
  0
VERTEX
  5
3B00
  8
CUTOUT
 10
170.0474048678973
 20
426.1577324031528
 30
0.0
  0
VERTEX
  5
3B01
  8
CUTOUT
 10
170.0474048678973
 20
1039.157732403153
 30
0.0
  0
VERTEX
  5
3B02
  8
CUTOUT
 10
1050.047404867897
 20
1039.157732403153
 30
0.0
  0
VERTEX
  5
3B03
  8
CUTOUT
 10
1050.047404867897
 20
426.1577324031528
 30
0.0
  0
SEQEND
  5
3B10
  8
CUTOUT
  0
CIRCLE
  5
39F0
  8
CUTOUT
 10
1040.547404867897
 20
732.6577324031527
 30
0.0
 40
6.0
  0
CIRCLE
  5
39F1
  8
CUTOUT
 10
1040.547404867897
 20
557.6577324031527
 30
0.0
 40
6.0
  0
CIRCLE
  5
39F2
  8
CUTOUT
 10
1040.547404867897
 20
907.6577324031527
 30
0.0
 40
6.0
  0
CIRCLE
  5
39F3
  8
CUTOUT
 10
890.5474048678972
 20
907.6577324031527
 30
0.0
 40
6.0
  0
CIRCLE
  5
39F4
  8
CUTOUT
 10
890.5474048678972
 20
732.6577324031527
 30
0.0
 40
6.0
  0
CIRCLE
  5
39F5
  8
CUTOUT
 10
890.5474048678972
 20
557.6577324031527
 30
0.0
 40
6.0
  0
CIRCLE
  5
39F6
  8
CUTOUT
 10
590.5474048678972
 20
907.6577324031527
 30
0.0
 40
6.0
  0
CIRCLE
  5
39F7
  8
CUTOUT
 10
590.5474048678972
 20
732.6577324031527
 30
0.0
 40
6.0
  0
CIRCLE
  5
39F8
  8
CUTOUT
 10
590.5474048678972
 20
557.6577324031527
 30
0.0
 40
6.0
  0
CIRCLE
  5
39F9
  8
CUTOUT
 10
228.7474048678972
 20
907.6577324031527
 30
0.0
 40
6.0
  0
CIRCLE
  5
39FA
  8
CUTOUT
 10
228.7474048678972
 20
732.6577324031527
 30
0.0
 40
6.0
  0
CIRCLE
  5
39FB
  8
CUTOUT
 10
228.7474048678972
 20
557.6577324031527
 30
0.0
 40
6.0
  0
POLYLINE
  5
39FC
  8
CUTOUT
 66
     1
 10
0.0
 20
0.0
 30
0.0
 70
     1
  0
VERTEX
  5
3B04
  8
CUTOUT
 10
1028.547404867897
 20
458.6577324031528
 30
0.0
  0
VERTEX
  5
3B05
  8
CUTOUT
 10
1028.547404867897
 20
1006.657732403153
 30
0.0
  0
VERTEX
  5
3B06
  8
CUTOUT
 10
902.5474048678972
 20
1006.657732403153
 30
0.0
  0
VERTEX
  5
3B07
  8
CUTOUT
 10
902.5474048678972
 20
458.6577324031528
 30
0.0
  0
SEQEND
  5
3B11
  8
CUTOUT
  0
POLYLINE
  5
39FD
  8
CUTOUT
 66
     1
 10
0.0
 20
0.0
 30
0.0
 70
     1
  0
VERTEX
  5
3B08
  8
CUTOUT
 10
578.5474048678972
 20
458.6577324031528
 30
0.0
  0
VERTEX
  5
3B09
  8
CUTOUT
 10
578.5474048678972
 20
1006.657732403153
 30
0.0
  0
VERTEX
  5
3B0A
  8
CUTOUT
 10
238.747404867897
 20
1006.657732403153
 30
0.0
  0
VERTEX
  5
3B0B
  8
CUTOUT
 10
238.747404867897
 20
458.6577324031528
 30
0.0
  0
SEQEND
  5
3B12
  8
CUTOUT
  0
INSERT
  5
39FE
  8
CUTOUT
  2
*X639
 10
110.0474048678973
 20
382.6577324031528
 30
0.0
  0
DIMENSION
  5
39FF
  8
DIMENSIONS
  6
BYBLOCK
  2
*D640
 10
151.5802040530213
 20
907.6577324031527
 30
0.0
 11
147.3777040530213
 21
732.6577324031527
 31
0.0
 70
    32
  3
DUAL-DIM
 13
228.7474048678972
 23
557.6577324031527
 33
0.0
 14
228.7474048678972
 24
907.6577324031527
 34
0.0
 50
90.0
1001
ACAD
1000
DSTYLE
1002
{
1070
   287
1070
     5
1070
   279
1070
     2
1002
}
  0
DIMENSION
  5
3A0E
  8
DIMENSIONS
  6
BYBLOCK
  2
*D641
 10
134.2198368161683
 20
1006.657732403153
 30
0.0
 11
130.0173368161683
 21
732.6577324031527
 31
0.0
 70
    32
  3
DUAL-DIM
 13
238.747404867897
 23
458.6577324031527
 33
0.0
 14
238.747404867897
 24
1006.657732403153
 34
0.0
 50
90.0
1001
ACAD
1000
DSTYLE
1002
{
1070
   287
1070
     5
1070
   279
1070
     2
1002
}
  0
DIMENSION
  5
3A1D
  8
DIMENSIONS
  6
BYBLOCK
  2
*D642
 10
117.059373095097
 20
1039.157732403153
 30
0.0
 11
112.856873095097
 21
732.6577324031527
 31
0.0
 70
    32
  3
DUAL-DIM
 13
170.0474048678973
 23
426.1577324031528
 33
0.0
 14
170.0474048678973
 24
1039.157732403153
 34
0.0
 50
90.0
1001
ACAD
1000
DSTYLE
1002
{
1070
   287
1070
     5
1070
   279
1070
     2
1002
}
  0
DIMENSION
  5
3A2C
  8
DIMENSIONS
  6
BYBLOCK
  2
*D643
 10
228.7474048678972
 20
1055.271997100702
 30
0.0
 11
199.3974048678973
 21
1059.474497100702
 31
0.0
 70
    32
  3
DUAL-DIM
 13
170.0474048678973
 23
1039.157732403153
 33
0.0
 14
228.7474048678972
 24
907.6577324031527
 34
0.0
1001
ACAD
1000
DSTYLE
1002
{
1070
   287
1070
     5
1070
   279
1070
     2
1002
}
  0
DIMENSION
  5
3A51
  8
DIMENSIONS
  6
BYBLOCK
  2
*D644
 10
590.5474048678972
 20
1055.271997100702
 30
0.0
 11
409.6474048678972
 21
1059.474497100702
 31
0.0
 70
    32
  3
DUAL-DIM
 13
228.7474048678972
 23
907.6577324031527
 33
0.0
 14
590.5474048678972
 24
907.6577324031527
 34
0.0
1001
ACAD
1000
DSTYLE
1002
{
1070
   287
1070
     5
1070
   279
1070
     2
1002
}
  0
DIMENSION
  5
3A60
  8
DIMENSIONS
  6
BYBLOCK
  2
*D645
 10
890.5474048678972
 20
1055.271997100702
 30
0.0
 11
740.5474048678972
 21
1059.474497100702
 31
0.0
 70
    32
  3
DUAL-DIM
 13
590.5474048678972
 23
907.6577324031527
 33
0.0
 14
890.5474048678972
 24
907.6577324031527
 34
0.0
1001
ACAD
1000
DSTYLE
1002
{
1070
   287
1070
     5
1070
   279
1070
     2
1002
}
  0
DIMENSION
  5
3A6F
  8
DIMENSIONS
  6
BYBLOCK
  2
*D646
 10
1040.547404867897
 20
1055.271997100702
 30
0.0
 11
965.5474048678971
 21
1059.474497100702
 31
0.0
 70
    32
  3
DUAL-DIM
 13
890.5474048678972
 23
907.6577324031527
 33
0.0
 14
1040.547404867897
 24
907.6577324031527
 34
0.0
1001
ACAD
1000
DSTYLE
1002
{
1070
   287
1070
     5
1070
   279
1070
     2
1002
}
  0
DIMENSION
  5
3A7E
  8
DIMENSIONS
  6
BYBLOCK
  2
*D647
 10
238.747404867897
 20
407.905911975807
 30
0.0
 11
204.3974048678972
 21
412.108411975807
 31
0.0
 70
    32
  3
DUAL-DIM
 13
170.0474048678973
 23
426.1577324031528
 33
0.0
 14
238.747404867897
 24
458.6577324031527
 34
0.0
1001
ACAD
1000
DSTYLE
1002
{
1070
   287
1070
     5
1070
   279
1070
     2
1002
}
  0
DIMENSION
  5
3A8D
  8
DIMENSIONS
  6
BYBLOCK
  2
*D648
 10
578.5474048678972
 20
407.905911975807
 30
0.0
 11
408.6474048678971
 21
412.108411975807
 31
0.0
 70
    32
  3
DUAL-DIM
 13
238.747404867897
 23
458.6577324031527
 33
0.0
 14
578.5474048678972
 24
458.6577324031528
 34
0.0
1001
ACAD
1000
DSTYLE
1002
{
1070
   287
1070
     5
1070
   279
1070
     2
1002
}
  0
DIMENSION
  5
3A9C
  8
DIMENSIONS
  6
BYBLOCK
  2
*D649
 10
902.5474048678972
 20
407.905911975807
 30
0.0
 11
740.5474048678972
 21
412.108411975807
 31
0.0
 70
    32
  3
DUAL-DIM
 13
578.5474048678972
 23
458.6577324031528
 33
0.0
 14
902.5474048678972
 24
458.6577324031527
 34
0.0
1001
ACAD
1000
DSTYLE
1002
{
1070
   287
1070
     5
1070
   279
1070
     2
1002
}
  0
DIMENSION
  5
3AAB
  8
DIMENSIONS
  6
BYBLOCK
  2
*D650
 10
1028.547404867897
 20
407.905911975807
 30
0.0
 11
965.5474048678971
 21
412.108411975807
 31
0.0
 70
    32
  3
DUAL-DIM
 13
902.5474048678972
 23
458.6577324031527
 33
0.0
 14
1028.547404867897
 24
458.6577324031528
 34
0.0
1001
ACAD
1000
DSTYLE
1002
{
1070
   287
1070
     5
1070
   279
1070
     2
1002
}
  0
DIMENSION
  5
3ABA
  8
DIMENSIONS
  6
BYBLOCK
  2
*D651
 10
1050.047404867897
 20
391.2230990049177
 30
0.0
 11
1006.387404867897
 21
391.2230990049177
 31
0.0
 70
   160
  3
DUAL-DIM
 13
1028.547404867897
 23
458.6577324031528
 33
0.0
 14
1050.047404867897
 24
426.1577324031527
 34
0.0
1001
ACAD
1000
DSTYLE
1002
{
1070
   287
1070
     3
1070
   279
1070
     0
1002
}
  0
DIMENSION
  5
3AC9
  8
DIMENSIONS
  6
BYBLOCK
  2
*D652
 10
896.5474014775344
 20
557.6513539753897
 30
0.0
 11
854.9049250080642
 21
557.6956229217434
 31
0.0
 70
   163
  1
<>
  3
DUAL-DIM
 15
884.5474082582599
 25
557.6641108309158
 35
0.0
 40
0.0
1001
ACAD
1000
DSTYLE
1002
{
1070
   287
1070
     3
1070
   279
1070
     0
1002
}
1001
ACAD_DSTYLE_DIMRADIAL_EXT0
1070
   387
1070
     1
1070
   388
1040
0.0
1070
   390
1040
6.283185307179586
  0
DIMENSION
  5
3AD8
  8
DIMENSIONS
  6
BYBLOCK
  2
*D653
 10
1050.047404867897
 20
1072.857771910541
 30
0.0
 11
610.0474048678972
 21
1077.060271910541
 31
0.0
 70
    32
  3
DUAL-DIM
 13
170.0474048678973
 23
1039.157732403153
 33
0.0
 14
1050.047404867897
 24
1039.157732403153
 34
0.0
1001
ACAD
1000
DSTYLE
1002
{
1070
   287
1070
     5
1070
   279
1070
     2
1002
}
  0
POLYLINE
  5
3AE7
  8
0
  6
BYBLOCK
 66
     1
 10
0.0
 20
0.0
 30
0.0
 70
     1
  0
VERTEX
  5
3B0C
  8
0
  6
BYBLOCK
 10
23.34975459886061
 20
319.3613287449927
 30
0.0
  0
VERTEX
  5
3B0D
  8
0
  6
BYBLOCK
 10
23.34975459886061
 20
1149.298690572062
 30
0.0
  0
VERTEX
  5
3B0E
  8
0
  6
BYBLOCK
 10
1146.721434327849
 20
1149.298690572062
 30
0.0
  0
VERTEX
  5
3B0F
  8
0
  6
BYBLOCK
 10
1146.721434327849
 20
319.3613287449927
 30
0.0
  0
SEQEND
  5
3B13
  8
0
  6
BYBLOCK
  0
VIEWPORT
  5
B1C
 67
     1
  8
0
 10
5.25
 20
3.5
 30
0.0
 40
12.6
 41
8.4
 68
     1
 69
     1
1001
ACAD
1000
MVIEW
1002
{
1070
    16
1010
0.0
1020
0.0
1030
0.0
1010
0.0
1020
0.0
1030
1.0
1040
0.0
1040
8.4
1040
5.25
1040
3.5
1040
50.0
1040
0.0
1040
0.0
1070
     0
1070
   100
1070
     0
1070
     3
1070
     0
1070
     0
1070
     0
1070
     0
1040
0.0
1040
0.0
1040
0.0
1040
0.5
1040
0.5
1040
0.0
1040
0.0
1070
     0
1002
{
1002
}
1002
}
  0
VIEWPORT
  5
B1D
 67
     1
  8
0
 10
5.25
 20
3.5
 30
0.0
 40
8.4
 41
5.600000000000001
 68
     2
 69
     2
1001
ACAD
1000
MVIEW
1002
{
1070
    16
1010
0.0
1020
0.0
1030
0.0
1010
0.0
1020
0.0
1030
1.0
1040
0.0
1040
278.6419840998563
1040
207.1268606538857
1040
36.27547653054833
1040
50.0
1040
0.0
1040
0.0
1070
     0
1070
   100
1070
     0
1070
     3
1070
     0
1070
     0
1070
     0
1070
     0
1040
0.0
1040
0.0
1040
0.0
1040
0.5
1040
0.5
1040
0.0
1040
0.0
1070
     0
1002
{
1002
}
1002
}
  0
ENDSEC
  0
EOF
