999
DXF file: 48053.dxf
999
Pro/ENGINEER 2018500 by Parametric Technology Corporation
  0
SECTION
  2
HEADER
  9
$ACADVER
  1
AC1032
  9
$DWGCODEPAGE
  3
ANSI_1252
  9
$EXTMAX
 10
297.0
 20
420.0
 30
0.0
  9
$EXTMIN
 10
0.0
 20
0.0
 30
0.0
  9
$LIMMIN
 10
0.0
 20
0.0
  9
$LIMMAX
 10
297.0
 20
420.0
  9
$VIEWCTR
 10
148.5
 20
210.0
  9
$VIEWSIZE
 40
420.0
  9
$CLAYER
  8
0
  9
$LTSCALE
 40
27.3777777778
  9
$CELTYPE
  6
BYLAYER
  9
$DIMSCALE
 40
1.0
  9
$DIMASZ
 40
2.5
  9
$DIMEXO
 40
0.0625
  9
$DIMDLI
 40
18.9155555556
  9
$DIMEXE
 40
1.0
  9
$DIMCEN
 40
4.48
  9
$DIMLFAC
 40
1.0
  9
$DIMBLK
  1
_FILLED
  9
$DIMALT
 70
1
  9
$DIMALTD
 70
1
  9
$DIMALTTD
 70
2
  9
$DIMALTF
 40
0.0393700787
  9
$DIMTXT
 40
3.5
  9
$DIMTOL
 70
0
  9
$DIMLIM
 70
0
  9
$DIMTFAC
 40
1.0
  9
$DIMGAP
 40
0.625
  9
$DIMDSEP
 70
46
  9
$AUNITS
 70
0
  9
$PDMODE
 70
3
  9
$PDSIZE
 40
0.3125
  9
$HANDSEED
  5
4BE
  9
$TILEMODE
 70
1
  9
$MEASUREMENT
 70
1
  9
$INSUNITS
 70
4
  0
ENDSEC
  0
SECTION
  2
CLASSES
  0
CLASS
  1
ACDBDICTIONARYWDFLT
  2
AcDbDictionaryWithDefault
  3
AutoCAD 2000
 90
0
 91
1
280
0
281
0
  0
CLASS
  1
ACDBPLACEHOLDER
  2
AcDbPlaceHolder
  3
AutoCAD 2000
 90
0
 91
1
280
0
281
0
  0
CLASS
  1
LAYOUT
  2
AcDbLayout
  3
AutoCAD 2000
 90
0
 91
0
280
0
281
0
  0
ENDSEC
  0
SECTION
  2
TABLES
  0
TABLE
  2
VPORT
  5
8
100
AcDbSymbolTable
 70
2
  0
VPORT
  5
1F4
100
AcDbSymbolTableRecord
100
AcDbViewportTableRecord
  2
*ACTIVE
 70
0
 10
0.0
 20
0.0
 11
1.0
 21
1.0
 12
148.5
 22
210.0
 13
0.0
 23
0.0
 14
1.0
 24
1.0
 15
0.0
 25
0.0
 16
0.0
 26
0.0
 36
1.0
 17
0.0
 27
0.0
 37
0.0
 40
420.0
 41
0.7071428571
 42
50.0
 43
0.0
 44
0.0
 50
0.0
 51
0.0
 71
0
 72
100
 73
1
 74
1
 75
0
 76
0
 77
0
 78
0
  0
ENDTAB
  0
TABLE
  2
LTYPE
  5
5
100
AcDbSymbolTable
 70
6
  0
LTYPE
  5
14
100
AcDbSymbolTableRecord
100
AcDbLinetypeTableRecord
  2
BYBLOCK
 70
0
  3

 72
65
 73
0
 40
0.0
  0
LTYPE
  5
15
100
AcDbSymbolTableRecord
100
AcDbLinetypeTableRecord
  2
BYLAYER
 70
0
  3

 72
65
 73
0
 40
0.0
  0
LTYPE
  5
16
100
AcDbSymbolTableRecord
100
AcDbLinetypeTableRecord
  2
CONTINUOUS
 70
64
  3
Solid line
 72
65
 73
0
 40
0.0
  0
LTYPE
  5
1F5
100
AcDbSymbolTableRecord
100
AcDbLinetypeTableRecord
  2
CENTER
 70
64
  3
____ _ ____ _ ____ _ ____ _ ____ _ ____ _ ____
 72
65
 73
4
 40
0.6
 49
0.375
 74
0
 49
-0.075
 74
0
 49
0.075
 74
0
 49
-0.075
 74
0
  0
LTYPE
  5
1F6
100
AcDbSymbolTableRecord
100
AcDbLinetypeTableRecord
  2
HIDDEN
 70
64
  3
- - - - - - - - - - - - - - - - - - - -
 72
65
 73
2
 40
0.2
 49
0.1
 74
0
 49
-0.1
 74
0
  0
LTYPE
  5
1F7
100
AcDbSymbolTableRecord
100
AcDbLinetypeTableRecord
  2
PHANTOM
 70
64
  3
_____ _ _ _____ _ _ _____ _ _ _____
 72
65
 73
6
 40
0.8
 49
0.45
 74
0
 49
-0.05
 74
0
 49
0.1
 74
0
 49
-0.05
 74
0
 49
0.1
 74
0
 49
-0.05
 74
0
  0
LTYPE
  5
1F8
100
AcDbSymbolTableRecord
100
AcDbLinetypeTableRecord
  2
DOT
 70
64
  3
. . . . . . . . . . . . . . . . . . . .
 72
65
 73
2
 40
0.2
 49
0.1
 74
0
 49
-0.1
 74
0
  0
LTYPE
  5
1F9
100
AcDbSymbolTableRecord
100
AcDbLinetypeTableRecord
  2
DASHED
 70
64
  3
- - - - - - - - - - - - - - - - - - - -
 72
65
 73
2
 40
0.2
 49
0.1
 74
0
 49
-0.1
 74
0
  0
ENDTAB
  0
TABLE
  2
LAYER
  5
2
100
AcDbSymbolTable
 70
36
  0
LAYER
  5
10
100
AcDbSymbolTableRecord
100
AcDbLayerTableRecord
  2
0
 70
0
 62
7
  6
CONTINUOUS
370
-3
390
F
  0
LAYER
  5
1FA
100
AcDbSymbolTableRecord
100
AcDbLayerTableRecord
  2
DEFAULT_1
 70
0
 62
7
  6
CENTER
370
-3
390
F
  0
LAYER
  5
1FB
100
AcDbSymbolTableRecord
100
AcDbLayerTableRecord
  2
DEFAULT_2
 70
0
 62
8
  6
HIDDEN
370
-3
390
F
  0
LAYER
  5
1FC
100
AcDbSymbolTableRecord
100
AcDbLayerTableRecord
  2
DEFAULT_3
 70
0
 62
7
  6
PHANTOM
370
-3
390
F
  0
LAYER
  5
1FD
100
AcDbSymbolTableRecord
100
AcDbLayerTableRecord
  2
01_ALL_DTM_PLN
 70
0
 62
7
  6
CONTINUOUS
370
-3
390
F
  0
LAYER
  5
1FE
100
AcDbSymbolTableRecord
100
AcDbLayerTableRecord
  2
01__ASM_ALL_DTM_PLN
 70
0
 62
7
  6
CONTINUOUS
370
-3
390
F
  0
LAYER
  5
1FF
100
AcDbSymbolTableRecord
100
AcDbLayerTableRecord
  2
01__ASM_DEF_DTM_PLN
 70
0
 62
7
  6
CONTINUOUS
370
-3
390
F
  0
LAYER
  5
200
100
AcDbSymbolTableRecord
100
AcDbLayerTableRecord
  2
01___PRT_ALL_DTM_PLN
 70
0
 62
7
  6
CONTINUOUS
370
-3
390
F
  0
LAYER
  5
201
100
AcDbSymbolTableRecord
100
AcDbLayerTableRecord
  2
01___PRT_DEF_DTM_PLN
 70
0
 62
7
  6
CONTINUOUS
370
-3
390
F
  0
LAYER
  5
202
100
AcDbSymbolTableRecord
100
AcDbLayerTableRecord
  2
02_ALL_AXES
 70
0
 62
7
  6
CONTINUOUS
370
-3
390
F
  0
LAYER
  5
203
100
AcDbSymbolTableRecord
100
AcDbLayerTableRecord
  2
02__ASM_ALL_AXES
 70
0
 62
7
  6
CONTINUOUS
370
-3
390
F
  0
LAYER
  5
204
100
AcDbSymbolTableRecord
100
AcDbLayerTableRecord
  2
02___PRT_ALL_AXES
 70
0
 62
7
  6
CONTINUOUS
370
-3
390
F
  0
LAYER
  5
205
100
AcDbSymbolTableRecord
100
AcDbLayerTableRecord
  2
03_ALL_CURVES
 70
0
 62
7
  6
CONTINUOUS
370
-3
390
F
  0
LAYER
  5
206
100
AcDbSymbolTableRecord
100
AcDbLayerTableRecord
  2
03__ASM_ALL_CURVES
 70
0
 62
7
  6
CONTINUOUS
370
-3
390
F
  0
LAYER
  5
207
100
AcDbSymbolTableRecord
100
AcDbLayerTableRecord
  2
03___PRT_ALL_CURVES
 70
0
 62
7
  6
CONTINUOUS
370
-3
390
F
  0
LAYER
  5
208
100
AcDbSymbolTableRecord
100
AcDbLayerTableRecord
  2
04_ALL_DTM_PNT
 70
0
 62
7
  6
CONTINUOUS
370
-3
390
F
  0
LAYER
  5
209
100
AcDbSymbolTableRecord
100
AcDbLayerTableRecord
  2
04__ASM_ALL_DTM_PNT
 70
0
 62
7
  6
CONTINUOUS
370
-3
390
F
  0
LAYER
  5
20A
100
AcDbSymbolTableRecord
100
AcDbLayerTableRecord
  2
04___PRT_ALL_DTM_PNT
 70
0
 62
7
  6
CONTINUOUS
370
-3
390
F
  0
LAYER
  5
20B
100
AcDbSymbolTableRecord
100
AcDbLayerTableRecord
  2
05_ALL_DTM_CSYS
 70
0
 62
7
  6
CONTINUOUS
370
-3
390
F
  0
LAYER
  5
20C
100
AcDbSymbolTableRecord
100
AcDbLayerTableRecord
  2
05__ASM_ALL_DTM_CSYS
 70
0
 62
7
  6
CONTINUOUS
370
-3
390
F
  0
LAYER
  5
20D
100
AcDbSymbolTableRecord
100
AcDbLayerTableRecord
  2
05__ASM_DEF_DTM_CSYS
 70
0
 62
7
  6
CONTINUOUS
370
-3
390
F
  0
LAYER
  5
20E
100
AcDbSymbolTableRecord
100
AcDbLayerTableRecord
  2
05___PRT_ALL_DTM_CSYS
 70
0
 62
7
  6
CONTINUOUS
370
-3
390
F
  0
LAYER
  5
20F
100
AcDbSymbolTableRecord
100
AcDbLayerTableRecord
  2
05___PRT_DEF_DTM_CSYS
 70
0
 62
7
  6
CONTINUOUS
370
-3
390
F
  0
LAYER
  5
210
100
AcDbSymbolTableRecord
100
AcDbLayerTableRecord
  2
06_ALL_SURFS
 70
0
 62
7
  6
CONTINUOUS
370
-3
390
F
  0
LAYER
  5
211
100
AcDbSymbolTableRecord
100
AcDbLayerTableRecord
  2
06__ASM_ALL_SURFS
 70
0
 62
7
  6
CONTINUOUS
370
-3
390
F
  0
LAYER
  5
212
100
AcDbSymbolTableRecord
100
AcDbLayerTableRecord
  2
06___PRT_ALL_SURFS
 70
0
 62
7
  6
CONTINUOUS
370
-3
390
F
  0
LAYER
  5
213
100
AcDbSymbolTableRecord
100
AcDbLayerTableRecord
  2
07__ASM_ALL_SKELETONS
 70
0
 62
7
  6
CONTINUOUS
370
-3
390
F
  0
LAYER
  5
214
100
AcDbSymbolTableRecord
100
AcDbLayerTableRecord
  2
3
 70
0
 62
7
  6
CONTINUOUS
370
-3
390
F
  0
LAYER
  5
215
100
AcDbSymbolTableRecord
100
AcDbLayerTableRecord
  2
CLOSED_SHELL
 70
0
 62
7
  6
CONTINUOUS
370
-3
390
F
  0
LAYER
  5
216
100
AcDbSymbolTableRecord
100
AcDbLayerTableRecord
  2
HIDE-FOR-DRAWING
 70
0
 62
7
  6
CONTINUOUS
370
-3
390
F
  0
LAYER
  5
217
100
AcDbSymbolTableRecord
100
AcDbLayerTableRecord
  2
HIDEFORDWG
 70
0
 62
7
  6
CONTINUOUS
370
-3
390
F
  0
LAYER
  5
218
100
AcDbSymbolTableRecord
100
AcDbLayerTableRecord
  2
XSEC_DATUMS
 70
0
 62
7
  6
CONTINUOUS
370
-3
390
F
  0
ENDTAB
  0
TABLE
  2
STYLE
  5
3
100
AcDbSymbolTable
 70
1
  0
STYLE
  5
11
100
AcDbSymbolTableRecord
100
AcDbTextStyleTableRecord
  2
STANDARD
 70
0
 40
0.0
 41
1.0
 50
0.0
 71
0
 42
0.2
  3
arial.ttf
  4

  0
STYLE
  5
219
100
AcDbSymbolTableRecord
100
AcDbTextStyleTableRecord
  2
TEXTSTYLE_1
 70
0
 40
0.0
 41
0.8
 50
0.0
 71
0
 42
0.2
  3
gdt
  4

  0
ENDTAB
  0
TABLE
  2
VIEW
  5
6
100
AcDbSymbolTable
 70
0
  0
ENDTAB
  0
TABLE
  2
UCS
  5
7
100
AcDbSymbolTable
 70
0
  0
ENDTAB
  0
TABLE
  2
APPID
  5
9
100
AcDbSymbolTable
 70
1
  0
APPID
  5
21A
100
AcDbSymbolTableRecord
100
AcDbRegAppTableRecord
  2
ACAD
 70
0
  0
ENDTAB
  0
TABLE
  2
BLOCK_RECORD
  5
1
100
AcDbSymbolTable
 70
0
  0
BLOCK_RECORD
  5
21B
100
AcDbSymbolTableRecord
100
AcDbBlockTableRecord
  2
*Model_Space
  0
BLOCK_RECORD
  5
21C
100
AcDbSymbolTableRecord
100
AcDbBlockTableRecord
  2
*Paper_Space
  0
BLOCK_RECORD
  5
21D
100
AcDbSymbolTableRecord
100
AcDbBlockTableRecord
  2
_FILLED
  0
BLOCK_RECORD
  5
21E
100
AcDbSymbolTableRecord
100
AcDbBlockTableRecord
  2
*D0
  0
BLOCK_RECORD
  5
21F
100
AcDbSymbolTableRecord
100
AcDbBlockTableRecord
  2
*D1
  0
BLOCK_RECORD
  5
220
100
AcDbSymbolTableRecord
100
AcDbBlockTableRecord
  2
*D2
  0
BLOCK_RECORD
  5
221
100
AcDbSymbolTableRecord
100
AcDbBlockTableRecord
  2
*D3
  0
BLOCK_RECORD
  5
222
100
AcDbSymbolTableRecord
100
AcDbBlockTableRecord
  2
*D4
  0
BLOCK_RECORD
  5
223
100
AcDbSymbolTableRecord
100
AcDbBlockTableRecord
  2
*D5
  0
BLOCK_RECORD
  5
224
100
AcDbSymbolTableRecord
100
AcDbBlockTableRecord
  2
*D6
  0
BLOCK_RECORD
  5
225
100
AcDbSymbolTableRecord
100
AcDbBlockTableRecord
  2
*D7
  0
BLOCK_RECORD
  5
226
100
AcDbSymbolTableRecord
100
AcDbBlockTableRecord
  2
*D8
  0
BLOCK_RECORD
  5
227
100
AcDbSymbolTableRecord
100
AcDbBlockTableRecord
  2
*D9
  0
ENDTAB
  0
TABLE
  2
DIMSTYLE
  5
A
100
AcDbSymbolTable
 70
1
100
AcDbDimStyleTable
 71
0
  0
DIMSTYLE
105
228
100
AcDbSymbolTableRecord
100
AcDbDimStyleTableRecord
  2
STANDARD
 70
0
  3

  4

 40
1.0
 41
2.5
 42
0.0625
 43
0.38
 44
1.0
 45
0.0
 46
0.0
 47
0.01
 48
0.01
140
3.5
141
0.09
142
0.0
143
0.0393700787
144
1.0
145
0.0
146
1.0
147
0.625
 71
0.0
 72
0.0
 73
0
 74
0
 75
0
 76
0
 77
1
 78
8
 79
2
170
1
171
1
172
0
173
0
174
0
175
0
176
0
177
0
178
5
270
2
179
2
271
2
272
2
273
2
274
2
275
0
280
0
281
0
282
0
283
1
284
8
285
0
286
0
287
3
288
0
340
11
278
46
341
21D
342
21D
343
21D
344
21D
  0
DIMSTYLE
105
229
100
AcDbSymbolTableRecord
100
AcDbDimStyleTableRecord
  2
DIMSTYLE_1
 70
0
  3

  4

 40
1.0
 41
2.5
 42
0.0625
 43
0.38
 44
1.0
 45
0.0
 46
0.0
 47
0.0
 48
0.0
140
3.5
141
0.09
142
0.0
143
0.0393700787
144
1.0
145
0.0
146
1.0
147
0.875
 71
0.0
 72
0.0
 73
0
 74
0
 75
0
 76
0
 77
1
 78
8
 79
2
170
1
171
2
172
0
173
0
174
0
175
0
176
0
177
0
178
5
270
2
179
2
271
2
272
2
273
2
274
2
275
0
280
0
281
0
282
0
283
1
284
8
285
0
286
0
287
3
288
0
340
11
278
46
341
21D
342
21D
343
21D
344
21D
  0
DIMSTYLE
105
22A
100
AcDbSymbolTableRecord
100
AcDbDimStyleTableRecord
  2
DIMSTYLE_2
 70
0
  3
<>
  4

 40
1.0
 41
2.5
 42
0.0625
 43
0.38
 44
1.0
 45
0.0
 46
0.0
 47
0.0
 48
0.0
140
3.5
141
0.09
142
0.0
143
0.0393700787
144
1.0
145
0.0
146
1.0
147
0.625
 71
0.0
 72
0.0
 73
0
 74
0
 75
0
 76
0
 77
1
 78
8
 79
2
170
1
171
2
172
0
173
0
174
0
175
0
176
0
177
0
178
5
270
2
179
2
271
2
272
2
273
2
274
2
275
0
280
0
281
0
282
0
283
1
284
8
285
0
286
0
287
3
288
1
340
11
278
46
289
1
341
21D
342
21D
343
21D
344
21D
  0
ENDTAB
  0
ENDSEC
  0
SECTION
  2
BLOCKS
  0
BLOCK
  5
20
100
AcDbEntity
  8
0
100
AcDbBlockBegin
  2
*Model_Space
 70
0
 10
0.0
 20
0.0
 30
0.0
  3
*Model_Space
  1

  0
ENDBLK
  5
21
100
AcDbEntity
  8
0
100
AcDbBlockEnd
  0
BLOCK
  5
1C
100
AcDbEntity
  8
0
100
AcDbBlockBegin
  2
*Paper_Space
 70
0
 10
0.0
 20
0.0
 30
0.0
  3
*Paper_Space
  1

  0
ENDBLK
  5
1D
100
AcDbEntity
  8
0
100
AcDbBlockEnd
  0
BLOCK
  5
22B
100
AcDbEntity
  8
0
100
AcDbBlockBegin
  2
_FILLED
 70
64
 10
0.0
 20
0.0
  3
_FILLED
  1

  0
SOLID
  5
22C
100
AcDbEntity
  8
0
  6
BYBLOCK
 62
0
100
AcDbTrace
 10
0.0
 20
0.0
 11
-1.0
 21
0.2
 12
-1.0
 22
-0.2
 13
-1.0
 23
-0.2
  0
ENDBLK
  5
22D
100
AcDbEntity
  8
0
  6
BYBLOCK
 62
0
100
AcDbBlockEnd
  0
BLOCK
  5
22E
100
AcDbEntity
  8
0
100
AcDbBlockBegin
 62
2
  6
CONTINUOUS
  2
*D0
 70
65
 10
0.0
 20
0.0
  3
*D0
  1

  0
MTEXT
  5
22F
100
AcDbEntity
  8
0
100
AcDbMText
 62
5
  6
CONTINUOUS
  7
STANDARD
 71
2
 72
1
 10
144.3712348885
 20
359.5380132036
 30
0.0
 11
1.0
 21
0.0
 31
0.0
 73
2
 44
0.9
  1
170\P[6.69]
 40
3.5
 41
12.217472119
  0
LINE
  5
230
100
AcDbEntity
  8
0
100
AcDbLine
 62
2
  6
CONTINUOUS
 10
231.4009746654
 20
334.7056595732
 11
231.4009746654
 21
356.1630132036
  0
LINE
  5
231
100
AcDbEntity
  8
0
100
AcDbLine
 62
2
  6
CONTINUOUS
 10
61.4009746654
 20
334.7056595732
 11
61.4009746654
 21
356.1630132036
  0
LINE
  5
232
100
AcDbEntity
  8
0
100
AcDbLine
 62
2
  6
CONTINUOUS
 10
231.4009746654
 20
355.1630132036
 11
146.4009746654
 21
355.1630132036
  0
LINE
  5
233
100
AcDbEntity
  8
0
100
AcDbLine
 62
2
  6
CONTINUOUS
 10
61.4009746654
 20
355.1630132036
 11
146.4009746654
 21
355.1630132036
  0
INSERT
  5
234
100
AcDbEntity
  8
0
100
AcDbBlockReference
 62
2
  6
CONTINUOUS
  2
_FILLED
 10
231.4009746654
 20
355.1630132036
 41
2.5
 42
2.5
 43
2.5
  0
INSERT
  5
235
100
AcDbEntity
  8
0
100
AcDbBlockReference
 62
2
  6
CONTINUOUS
  2
_FILLED
 10
61.4009746654
 20
355.1630132036
 41
2.5
 42
2.5
 43
2.5
 50
180.0
  0
ENDBLK
  5
236
100
AcDbEntity
  8
0
  6
BYBLOCK
 62
0
100
AcDbBlockEnd
  0
BLOCK
  5
237
100
AcDbEntity
  8
0
100
AcDbBlockBegin
 62
2
  6
CONTINUOUS
  2
*D1
 70
65
 10
0.0
 20
0.0
  3
*D1
  1

  0
MTEXT
  5
238
100
AcDbEntity
  8
0
100
AcDbMText
 62
5
  6
CONTINUOUS
  7
STANDARD
 71
2
 72
1
 10
254.0121864114
 20
211.6134197962
 30
0.0
 11
0.0
 21
1.0
 31
0.0
 73
2
 44
0.9
  1
230\P[9.06]
 40
3.5
 41
12.217472119
  0
LINE
  5
239
100
AcDbEntity
  8
0
100
AcDbLine
 62
2
  6
CONTINUOUS
 10
236.9350203738
 20
328.6431595732
 11
259.3871864114
 21
328.6431595732
  0
LINE
  5
23A
100
AcDbEntity
  8
0
100
AcDbLine
 62
2
  6
CONTINUOUS
 10
237.3596044482
 20
98.6431595732
 11
259.3871864114
 21
98.6431595732
  0
LINE
  5
23B
100
AcDbEntity
  8
0
100
AcDbLine
 62
2
  6
CONTINUOUS
 10
258.3871864114
 20
328.6431595732
 11
258.3871864114
 21
213.6431595732
  0
LINE
  5
23C
100
AcDbEntity
  8
0
100
AcDbLine
 62
2
  6
CONTINUOUS
 10
258.3871864114
 20
98.6431595732
 11
258.3871864114
 21
213.6431595732
  0
INSERT
  5
23D
100
AcDbEntity
  8
0
100
AcDbBlockReference
 62
2
  6
CONTINUOUS
  2
_FILLED
 10
258.3871864114
 20
328.6431595732
 41
2.5
 42
2.5
 43
2.5
 50
90.0
  0
INSERT
  5
23E
100
AcDbEntity
  8
0
100
AcDbBlockReference
 62
2
  6
CONTINUOUS
  2
_FILLED
 10
258.3871864114
 20
98.6431595732
 41
2.5
 42
2.5
 43
2.5
 50
270.0
  0
ENDBLK
  5
23F
100
AcDbEntity
  8
0
  6
BYBLOCK
 62
0
100
AcDbBlockEnd
  0
BLOCK
  5
240
100
AcDbEntity
  8
0
100
AcDbBlockBegin
 62
2
  6
CONTINUOUS
  2
*D2
 70
65
 10
0.0
 20
0.0
  3
*D2
  1

  0
MTEXT
  5
241
100
AcDbEntity
  8
0
100
AcDbMText
 62
5
  6
CONTINUOUS
  7
TEXTSTYLE_1
 71
3
 72
1
 10
214.8954473965
 20
93.033484298
 30
0.0
 11
1.0
 21
0.0
 31
0.0
 73
2
 44
0.9
  1
{\fgdt;n}\fArial;8\P[.32]
 40
3.5
 41
9.4981412639
  0
LINE
  5
242
100
AcDbEntity
  8
0
100
AcDbLine
 62
2
  6
CONTINUOUS
 10
229.4108707766
 20
95.1733632518
 11
225.6742578055
 21
88.658484298
  0
LINE
  5
243
100
AcDbEntity
  8
0
100
AcDbLine
 62
2
  6
CONTINUOUS
 10
225.6742578055
 20
88.658484298
 11
223.4242578055
 21
88.658484298
  0
LINE
  5
244
100
AcDbEntity
  8
0
100
AcDbLine
 62
2
  6
CONTINUOUS
 10
223.4242578055
 20
88.658484298
 11
206.6344498749
 21
88.658484298
  0
INSERT
  5
245
100
AcDbEntity
  8
0
100
AcDbBlockReference
 62
2
  6
CONTINUOUS
  2
_FILLED
 10
229.4108707766
 20
95.1733632518
 41
2.5
 42
2.5
 43
2.5
 50
60.1635458216
  0
ENDBLK
  5
246
100
AcDbEntity
  8
0
  6
BYBLOCK
 62
0
100
AcDbBlockEnd
  0
BLOCK
  5
247
100
AcDbEntity
  8
0
100
AcDbBlockBegin
 62
2
  6
CONTINUOUS
  2
*D3
 70
65
 10
0.0
 20
0.0
  3
*D3
  1

  0
MTEXT
  5
248
100
AcDbEntity
  8
0
100
AcDbMText
 62
5
  6
CONTINUOUS
  7
STANDARD
 71
2
 72
1
 10
144.3712348885
 20
344.5492113567
 30
0.0
 11
1.0
 21
0.0
 31
0.0
 73
2
 44
0.9
  1
160\P[6.30]
 40
3.5
 41
12.217472119
  0
LINE
  5
249
100
AcDbEntity
  8
0
100
AcDbLine
 62
2
  6
CONTINUOUS
 10
226.4009746654
 20
318.7056595732
 11
226.4009746654
 21
341.1742113567
  0
LINE
  5
24A
100
AcDbEntity
  8
0
100
AcDbLine
 62
2
  6
CONTINUOUS
 10
66.4009746654
 20
318.7056595732
 11
66.4009746654
 21
341.1742113567
  0
LINE
  5
24B
100
AcDbEntity
  8
0
100
AcDbLine
 62
2
  6
CONTINUOUS
 10
226.4009746654
 20
340.1742113567
 11
146.4009746654
 21
340.1742113567
  0
LINE
  5
24C
100
AcDbEntity
  8
0
100
AcDbLine
 62
2
  6
CONTINUOUS
 10
66.4009746654
 20
340.1742113567
 11
146.4009746654
 21
340.1742113567
  0
INSERT
  5
24D
100
AcDbEntity
  8
0
100
AcDbBlockReference
 62
2
  6
CONTINUOUS
  2
_FILLED
 10
226.4009746654
 20
340.1742113567
 41
2.5
 42
2.5
 43
2.5
  0
INSERT
  5
24E
100
AcDbEntity
  8
0
100
AcDbBlockReference
 62
2
  6
CONTINUOUS
  2
_FILLED
 10
66.4009746654
 20
340.1742113567
 41
2.5
 42
2.5
 43
2.5
 50
180.0
  0
ENDBLK
  5
24F
100
AcDbEntity
  8
0
  6
BYBLOCK
 62
0
100
AcDbBlockEnd
  0
BLOCK
  5
250
100
AcDbEntity
  8
0
100
AcDbBlockBegin
 62
2
  6
CONTINUOUS
  2
*D4
 70
65
 10
0.0
 20
0.0
  3
*D4
  1

  0
MTEXT
  5
251
100
AcDbEntity
  8
0
100
AcDbMText
 62
5
  6
CONTINUOUS
  7
STANDARD
 71
2
 72
1
 10
239.5412487941
 20
211.6134197962
 30
0.0
 11
0.0
 21
1.0
 31
0.0
 73
2
 44
0.9
  1
210\P[8.27]
 40
3.5
 41
12.217472119
  0
LINE
  5
252
100
AcDbEntity
  8
0
100
AcDbLine
 62
2
  6
CONTINUOUS
 10
226.4634746654
 20
108.6431595732
 11
244.9162487941
 21
108.6431595732
  0
LINE
  5
253
100
AcDbEntity
  8
0
100
AcDbLine
 62
2
  6
CONTINUOUS
 10
226.4634746654
 20
318.6431595732
 11
244.9162487941
 21
318.6431595732
  0
LINE
  5
254
100
AcDbEntity
  8
0
100
AcDbLine
 62
2
  6
CONTINUOUS
 10
243.9162487941
 20
108.6431595732
 11
243.9162487941
 21
213.6431595732
  0
LINE
  5
255
100
AcDbEntity
  8
0
100
AcDbLine
 62
2
  6
CONTINUOUS
 10
243.9162487941
 20
318.6431595732
 11
243.9162487941
 21
213.6431595732
  0
INSERT
  5
256
100
AcDbEntity
  8
0
100
AcDbBlockReference
 62
2
  6
CONTINUOUS
  2
_FILLED
 10
243.9162487941
 20
108.6431595732
 41
2.5
 42
2.5
 43
2.5
 50
270.0
  0
INSERT
  5
257
100
AcDbEntity
  8
0
100
AcDbBlockReference
 62
2
  6
CONTINUOUS
  2
_FILLED
 10
243.9162487941
 20
318.6431595732
 41
2.5
 42
2.5
 43
2.5
 50
90.0
  0
ENDBLK
  5
258
100
AcDbEntity
  8
0
  6
BYBLOCK
 62
0
100
AcDbBlockEnd
  0
BLOCK
  5
259
100
AcDbEntity
  8
0
100
AcDbBlockBegin
 62
2
  6
CONTINUOUS
  2
*D5
 70
65
 10
0.0
 20
0.0
  3
*D5
  1

  0
MTEXT
  5
25A
100
AcDbEntity
  8
0
100
AcDbMText
 62
5
  6
CONTINUOUS
  7
STANDARD
 71
2
 72
1
 10
818.7657277934
 20
395.5095683555
 30
0.0
 11
1.0
 21
0.0
 31
0.0
 73
2
 44
0.9
  1
196\P[7.72]
 40
3.5
 41
12.217472119
  0
LINE
  5
25B
100
AcDbEntity
  8
0
100
AcDbLine
 62
2
  6
CONTINUOUS
 10
722.7954675703
 20
338.308760185
 11
722.7954675703
 21
392.1345683555
  0
LINE
  5
25C
100
AcDbEntity
  8
0
100
AcDbLine
 62
2
  6
CONTINUOUS
 10
918.7954675703
 20
338.308760185
 11
918.7954675703
 21
392.1345683555
  0
LINE
  5
25D
100
AcDbEntity
  8
0
100
AcDbLine
 62
2
  6
CONTINUOUS
 10
722.7954675703
 20
391.1345683555
 11
820.7954675703
 21
391.1345683555
  0
LINE
  5
25E
100
AcDbEntity
  8
0
100
AcDbLine
 62
2
  6
CONTINUOUS
 10
918.7954675703
 20
391.1345683555
 11
820.7954675703
 21
391.1345683555
  0
INSERT
  5
25F
100
AcDbEntity
  8
0
100
AcDbBlockReference
 62
2
  6
CONTINUOUS
  2
_FILLED
 10
722.7954675703
 20
391.1345683555
 41
2.5
 42
2.5
 43
2.5
 50
180.0
  0
INSERT
  5
260
100
AcDbEntity
  8
0
100
AcDbBlockReference
 62
2
  6
CONTINUOUS
  2
_FILLED
 10
918.7954675703
 20
391.1345683555
 41
2.5
 42
2.5
 43
2.5
  0
ENDBLK
  5
261
100
AcDbEntity
  8
0
  6
BYBLOCK
 62
0
100
AcDbBlockEnd
  0
BLOCK
  5
262
100
AcDbEntity
  8
0
100
AcDbBlockBegin
 62
2
  6
CONTINUOUS
  2
*D6
 70
65
 10
0.0
 20
0.0
  3
*D6
  1

  0
MTEXT
  5
263
100
AcDbEntity
  8
0
100
AcDbMText
 62
5
  6
CONTINUOUS
  7
STANDARD
 71
2
 72
1
 10
818.7657277934
 20
375.9121334579
 30
0.0
 11
1.0
 21
0.0
 31
0.0
 73
2
 44
0.9
  1
181\P[7.13]
 40
3.5
 41
12.217472119
  0
LINE
  5
264
100
AcDbEntity
  8
0
100
AcDbLine
 62
2
  6
CONTINUOUS
 10
911.2954675703
 20
351.308760185
 11
911.2954675703
 21
372.5371334579
  0
LINE
  5
265
100
AcDbEntity
  8
0
100
AcDbLine
 62
2
  6
CONTINUOUS
 10
730.2954675703
 20
351.308760185
 11
730.2954675703
 21
372.5371334579
  0
LINE
  5
266
100
AcDbEntity
  8
0
100
AcDbLine
 62
2
  6
CONTINUOUS
 10
911.2954675703
 20
371.5371334579
 11
820.7954675703
 21
371.5371334579
  0
LINE
  5
267
100
AcDbEntity
  8
0
100
AcDbLine
 62
2
  6
CONTINUOUS
 10
730.2954675703
 20
371.5371334579
 11
820.7954675703
 21
371.5371334579
  0
INSERT
  5
268
100
AcDbEntity
  8
0
100
AcDbBlockReference
 62
2
  6
CONTINUOUS
  2
_FILLED
 10
911.2954675703
 20
371.5371334579
 41
2.5
 42
2.5
 43
2.5
  0
INSERT
  5
269
100
AcDbEntity
  8
0
100
AcDbBlockReference
 62
2
  6
CONTINUOUS
  2
_FILLED
 10
730.2954675703
 20
371.5371334579
 41
2.5
 42
2.5
 43
2.5
 50
180.0
  0
ENDBLK
  5
26A
100
AcDbEntity
  8
0
  6
BYBLOCK
 62
0
100
AcDbBlockEnd
  0
BLOCK
  5
26B
100
AcDbEntity
  8
0
100
AcDbBlockBegin
 62
2
  6
CONTINUOUS
  2
*D7
 70
65
 10
0.0
 20
0.0
  3
*D7
  1

  0
MTEXT
  5
26C
100
AcDbEntity
  8
0
100
AcDbMText
 62
5
  6
CONTINUOUS
  7
STANDARD
 71
2
 72
1
 10
954.3360502953
 20
188.8568549805
 30
0.0
 11
0.0
 21
1.0
 31
0.0
 73
2
 44
0.9
  1
318\P[12.52]
 40
3.5
 41
14.936802974
  0
LINE
  5
26D
100
AcDbEntity
  8
0
100
AcDbLine
 62
2
  6
CONTINUOUS
 10
918.9227299491
 20
33.246260185
 11
959.7110502953
 21
33.246260185
  0
LINE
  5
26E
100
AcDbEntity
  8
0
100
AcDbLine
 62
2
  6
CONTINUOUS
 10
911.3579675703
 20
351.246260185
 11
959.7110502953
 21
351.246260185
  0
LINE
  5
26F
100
AcDbEntity
  8
0
100
AcDbLine
 62
2
  6
CONTINUOUS
 10
958.7110502953
 20
33.246260185
 11
958.7110502953
 21
192.246260185
  0
LINE
  5
270
100
AcDbEntity
  8
0
100
AcDbLine
 62
2
  6
CONTINUOUS
 10
958.7110502953
 20
351.246260185
 11
958.7110502953
 21
192.246260185
  0
INSERT
  5
271
100
AcDbEntity
  8
0
100
AcDbBlockReference
 62
2
  6
CONTINUOUS
  2
_FILLED
 10
958.7110502953
 20
33.246260185
 41
2.5
 42
2.5
 43
2.5
 50
270.0
  0
INSERT
  5
272
100
AcDbEntity
  8
0
100
AcDbBlockReference
 62
2
  6
CONTINUOUS
  2
_FILLED
 10
958.7110502953
 20
351.246260185
 41
2.5
 42
2.5
 43
2.5
 50
90.0
  0
ENDBLK
  5
273
100
AcDbEntity
  8
0
  6
BYBLOCK
 62
0
100
AcDbBlockEnd
  0
BLOCK
  5
274
100
AcDbEntity
  8
0
100
AcDbBlockBegin
 62
2
  6
CONTINUOUS
  2
*D8
 70
65
 10
0.0
 20
0.0
  3
*D8
  1

  0
MTEXT
  5
275
100
AcDbEntity
  8
0
100
AcDbMText
 62
5
  6
CONTINUOUS
  7
STANDARD
 71
2
 72
1
 10
935.2296452431
 20
188.8568549805
 30
0.0
 11
0.0
 21
1.0
 31
0.0
 73
2
 44
0.9
  1
280\P[11.02]
 40
3.5
 41
14.936802974
  0
LINE
  5
276
100
AcDbEntity
  8
0
100
AcDbLine
 62
2
  6
CONTINUOUS
 10
924.8579675703
 20
332.246260185
 11
940.6046452431
 21
332.246260185
  0
LINE
  5
277
100
AcDbEntity
  8
0
100
AcDbLine
 62
2
  6
CONTINUOUS
 10
924.8579675703
 20
52.246260185
 11
940.6046452431
 21
52.246260185
  0
LINE
  5
278
100
AcDbEntity
  8
0
100
AcDbLine
 62
2
  6
CONTINUOUS
 10
939.6046452431
 20
332.246260185
 11
939.6046452431
 21
192.246260185
  0
LINE
  5
279
100
AcDbEntity
  8
0
100
AcDbLine
 62
2
  6
CONTINUOUS
 10
939.6046452431
 20
52.246260185
 11
939.6046452431
 21
192.246260185
  0
INSERT
  5
27A
100
AcDbEntity
  8
0
100
AcDbBlockReference
 62
2
  6
CONTINUOUS
  2
_FILLED
 10
939.6046452431
 20
332.246260185
 41
2.5
 42
2.5
 43
2.5
 50
90.0
  0
INSERT
  5
27B
100
AcDbEntity
  8
0
100
AcDbBlockReference
 62
2
  6
CONTINUOUS
  2
_FILLED
 10
939.6046452431
 20
52.246260185
 41
2.5
 42
2.5
 43
2.5
 50
270.0
  0
ENDBLK
  5
27C
100
AcDbEntity
  8
0
  6
BYBLOCK
 62
0
100
AcDbBlockEnd
  0
BLOCK
  5
27D
100
AcDbEntity
  8
0
100
AcDbBlockBegin
 62
2
  6
CONTINUOUS
  2
*D9
 70
65
 10
0.0
 20
0.0
  3
*D9
  1

  0
MTEXT
  5
27E
100
AcDbEntity
  8
0
100
AcDbMText
 62
5
  6
CONTINUOUS
  7
TEXTSTYLE_1
 71
3
 72
1
 10
903.2371345496
 20
38.0490777963
 30
0.0
 11
1.0
 21
0.0
 31
0.0
 73
2
 44
0.9
  1
{\fgdt;n}\fArial;8\P[.32]
 40
3.5
 41
9.4981412639
  0
LINE
  5
27F
100
AcDbEntity
  8
0
100
AcDbLine
 62
2
  6
CONTINUOUS
 10
917.7985563523
 20
48.3724806322
 11
914.0159449585
 21
33.6740777963
  0
LINE
  5
280
100
AcDbEntity
  8
0
100
AcDbLine
 62
2
  6
CONTINUOUS
 10
914.0159449585
 20
33.6740777963
 11
911.7659449585
 21
33.6740777963
  0
LINE
  5
281
100
AcDbEntity
  8
0
100
AcDbLine
 62
2
  6
CONTINUOUS
 10
911.7659449585
 20
33.6740777963
 11
894.9761370279
 21
33.6740777963
  0
INSERT
  5
282
100
AcDbEntity
  8
0
100
AcDbBlockReference
 62
2
  6
CONTINUOUS
  2
_FILLED
 10
917.7985563523
 20
48.3724806322
 41
2.5
 42
2.5
 43
2.5
 50
75.5681776505
  0
ENDBLK
  5
283
100
AcDbEntity
  8
0
  6
BYBLOCK
 62
0
100
AcDbBlockEnd
  0
ENDSEC
  0
SECTION
  2
ENTITIES
  0
DIMENSION
  5
284
100
AcDbEntity
  8
0
100
AcDbDimension
 62
2
  6
CONTINUOUS
  2
*D0
 10
61.4009746654
 20
355.1630132036
 11
146.4009746654
 21
355.1630132036
 70
160
 71
2
 72
2
 41
0.9
 42
170.0
  1
<>\P[]
  3
DIMSTYLE_1
100
AcDbAlignedDimension
 13
231.4009746654
 23
334.6431595732
 14
61.4009746654
 24
334.6431595732
 50
180.0
100
AcDbRotatedDimension
  0
DIMENSION
  5
285
100
AcDbEntity
  8
0
100
AcDbDimension
 62
2
  6
CONTINUOUS
  2
*D1
 10
258.3871864114
 20
98.6431595732
 11
258.3871864114
 21
213.6431595732
 70
160
 71
2
 72
2
 41
0.9
 42
230.0
  1
<>\P[]
  3
DIMSTYLE_1
100
AcDbAlignedDimension
 13
236.8725203738
 23
328.6431595732
 14
237.2971044482
 24
98.6431595732
 50
270.0
100
AcDbRotatedDimension
  0
DIMENSION
  5
286
100
AcDbEntity
  8
0
100
AcDbDimension
 62
2
  6
CONTINUOUS
  2
*D2
 10
229.4108707766
 20
95.1733632518
 11
214.5918538402
 21
88.658484298
 70
163
 71
3
 72
2
 41
0.9
 42
8.0
  1
%%c<>\P[]
  3
DIMSTYLE_2
100
AcDbDiametricDimension
 15
233.3910785543
 25
102.1129558945
1001
ACAD
1000
DSTYLE
1002
{
1070
73
1070
1
1070
74
1070
1
1002
}
  0
DIMENSION
  5
287
100
AcDbEntity
  8
0
100
AcDbDimension
 62
2
  6
CONTINUOUS
  2
*D3
 10
66.4009746654
 20
340.1742113567
 11
146.4009746654
 21
340.1742113567
 70
160
 71
2
 72
2
 41
0.9
 42
160.0
  1
<>\P[]
  3
DIMSTYLE_1
100
AcDbAlignedDimension
 13
226.4009746654
 23
318.6431595732
 14
66.4009746654
 24
318.6431595732
 50
180.0
100
AcDbRotatedDimension
  0
DIMENSION
  5
288
100
AcDbEntity
  8
0
100
AcDbDimension
 62
2
  6
CONTINUOUS
  2
*D4
 10
243.9162487941
 20
318.6431595732
 11
243.9162487941
 21
213.6431595732
 70
160
 71
2
 72
2
 41
0.9
 42
210.0
  1
<>\P[]
  3
DIMSTYLE_1
100
AcDbAlignedDimension
 13
226.4009746654
 23
108.6431595732
 14
226.4009746654
 24
318.6431595732
 50
90.0
100
AcDbRotatedDimension
  0
DIMENSION
  5
289
100
AcDbEntity
  8
0
100
AcDbDimension
 62
2
  6
CONTINUOUS
  2
*D5
 10
918.7954675703
 20
391.1345683555
 11
820.7954675703
 21
391.1345683555
 70
160
 71
2
 72
2
 41
0.9
 42
196.0
  1
<>\P[]
  3
DIMSTYLE_1
100
AcDbAlignedDimension
 13
722.7954675703
 23
338.246260185
 14
918.7954675703
 24
338.246260185
100
AcDbRotatedDimension
  0
DIMENSION
  5
28A
100
AcDbEntity
  8
0
100
AcDbDimension
 62
2
  6
CONTINUOUS
  2
*D6
 10
730.2954675703
 20
371.5371334579
 11
820.7954675703
 21
371.5371334579
 70
160
 71
2
 72
2
 41
0.9
 42
181.0
  1
<>\P[]
  3
DIMSTYLE_1
100
AcDbAlignedDimension
 13
911.2954675703
 23
351.246260185
 14
730.2954675703
 24
351.246260185
 50
180.0
100
AcDbRotatedDimension
  0
DIMENSION
  5
28B
100
AcDbEntity
  8
0
100
AcDbDimension
 62
2
  6
CONTINUOUS
  2
*D7
 10
958.7110502953
 20
351.246260185
 11
958.7110502953
 21
192.246260185
 70
160
 71
2
 72
2
 41
0.9
 42
318.0
  1
<>\P[]
  3
DIMSTYLE_1
100
AcDbAlignedDimension
 13
918.8602299491
 23
33.246260185
 14
911.2954675703
 24
351.246260185
 50
90.0
100
AcDbRotatedDimension
  0
DIMENSION
  5
28C
100
AcDbEntity
  8
0
100
AcDbDimension
 62
2
  6
CONTINUOUS
  2
*D8
 10
939.6046452431
 20
52.246260185
 11
939.6046452431
 21
192.246260185
 70
160
 71
2
 72
2
 41
0.9
 42
280.0
  1
<>\P[]
  3
DIMSTYLE_1
100
AcDbAlignedDimension
 13
924.7954675703
 23
332.246260185
 14
924.7954675703
 24
52.246260185
 50
270.0
100
AcDbRotatedDimension
  0
DIMENSION
  5
28D
100
AcDbEntity
  8
0
100
AcDbDimension
 62
2
  6
CONTINUOUS
  2
*D9
 10
917.7985563523
 20
48.3724806322
 11
902.9335409932
 21
33.6740777963
 70
163
 71
3
 72
2
 41
0.9
 42
8.0
  1
%%c<>\P[]
  3
DIMSTYLE_2
100
AcDbDiametricDimension
 15
919.7923787883
 25
56.1200397377
1001
ACAD
1000
DSTYLE
1002
{
1070
73
1070
1
1070
74
1070
1
1002
}
  0
LINE
  5
28E
100
AcDbEntity
  8
0
100
AcDbLine
 62
7
  6
CONTINUOUS
 10
0.0
 20
0.0
 11
297.0
 21
0.0
  0
LINE
  5
28F
100
AcDbEntity
  8
0
100
AcDbLine
 62
7
  6
CONTINUOUS
 10
0.0
 20
0.0
 11
0.0
 21
420.0
  0
LINE
  5
290
100
AcDbEntity
  8
0
100
AcDbLine
 62
7
  6
CONTINUOUS
 10
297.0
 20
0.0
 11
297.0
 21
420.0
  0
LINE
  5
291
100
AcDbEntity
  8
0
100
AcDbLine
 62
7
  6
CONTINUOUS
 10
0.0
 20
420.0
 11
297.0
 21
420.0
  0
LINE
  5
292
100
AcDbEntity
  8
02___PRT_ALL_AXES
100
AcDbLine
 62
7
  6
CENTER
 10
231.4009746654
 20
98.6431595732
 11
225.4009746654
 21
98.6431595732
  0
LINE
  5
293
100
AcDbEntity
  8
02___PRT_ALL_AXES
100
AcDbLine
 62
7
  6
CENTER
 10
61.4009746654
 20
98.6431595732
 11
55.4009746654
 21
98.6431595732
  0
LINE
  5
294
100
AcDbEntity
  8
02___PRT_ALL_AXES
100
AcDbLine
 62
7
  6
CENTER
 10
61.4009746654
 20
98.6431595732
 11
67.4009746654
 21
98.6431595732
  0
LINE
  5
295
100
AcDbEntity
  8
02___PRT_ALL_AXES
100
AcDbLine
 62
7
  6
CENTER
 10
231.4009746654
 20
98.6431595732
 11
237.4009746654
 21
98.6431595732
  0
LINE
  5
296
100
AcDbEntity
  8
03___PRT_ALL_CURVES
100
AcDbLine
 62
4
  6
CONTINUOUS
 10
107.996719156
 20
304.6848222662
 11
110.1243784769
 21
306.7681595732
  0
LINE
  5
297
100
AcDbEntity
  8
03___PRT_ALL_CURVES
100
AcDbLine
 62
4
  6
CONTINUOUS
 10
112.783954118
 20
304.1639968802
 11
111.1882081373
 21
303.6431595732
  0
LINE
  5
298
100
AcDbEntity
  8
0
100
AcDbLine
 62
7
  6
CONTINUOUS
 10
66.4009746654
 20
108.6431595732
 11
226.4009746654
 21
108.6431595732
  0
LINE
  5
299
100
AcDbEntity
  8
02___PRT_ALL_AXES
100
AcDbLine
 62
7
  6
CENTER
 10
61.4009746654
 20
328.6431595732
 11
61.4009746654
 21
322.6431595732
  0
LINE
  5
29A
100
AcDbEntity
  8
02___PRT_ALL_AXES
100
AcDbLine
 62
7
  6
CENTER
 10
61.4009746654
 20
98.6431595732
 11
61.4009746654
 21
92.6431595732
  0
LINE
  5
29B
100
AcDbEntity
  8
02___PRT_ALL_AXES
100
AcDbLine
 62
7
  6
CENTER
 10
61.4009746654
 20
98.6431595732
 11
61.4009746654
 21
104.6431595732
  0
LINE
  5
29C
100
AcDbEntity
  8
02___PRT_ALL_AXES
100
AcDbLine
 62
7
  6
CENTER
 10
61.4009746654
 20
328.6431595732
 11
61.4009746654
 21
334.6431595732
  0
LINE
  5
29D
100
AcDbEntity
  8
03___PRT_ALL_CURVES
100
AcDbLine
 62
4
  6
CONTINUOUS
 10
111.1882081373
 20
303.6431595732
 11
110.1243784769
 21
302.0806595732
  0
LINE
  5
29E
100
AcDbEntity
  8
03___PRT_ALL_CURVES
100
AcDbLine
 62
4
  6
CONTINUOUS
 10
125.0179959579
 20
290.6223222662
 11
126.6137404485
 21
291.6639968802
  0
LINE
  5
29F
100
AcDbEntity
  8
03___PRT_ALL_CURVES
100
AcDbLine
 62
4
  6
CONTINUOUS
 10
164.0605488165
 20
118.6431595732
 11
161.4009746654
 21
118.6431595732
  0
LINE
  5
2A0
100
AcDbEntity
  8
03___PRT_ALL_CURVES
100
AcDbLine
 62
4
  6
CONTINUOUS
 10
186.4009746654
 20
126.9764931549
 11
164.0605488165
 21
126.9764931549
  0
LINE
  5
2A1
100
AcDbEntity
  8
0
100
AcDbLine
 62
7
  6
CONTINUOUS
 10
66.4009746654
 20
318.6431595732
 11
66.4009746654
 21
108.6431595732
  0
LINE
  5
2A2
100
AcDbEntity
  8
03___PRT_ALL_CURVES
100
AcDbLine
 62
4
  6
CONTINUOUS
 10
106.9328894956
 20
302.6014968802
 11
107.996719156
 21
304.6848222662
  0
LINE
  5
2A3
100
AcDbEntity
  8
03___PRT_ALL_CURVES
100
AcDbLine
 62
4
  6
CONTINUOUS
 10
129.8052299885
 20
290.6223222662
 11
127.6775704814
 21
288.5389968802
  0
LINE
  5
2A4
100
AcDbEntity
  8
03___PRT_ALL_CURVES
100
AcDbLine
 62
4
  6
CONTINUOUS
 10
106.4009746654
 20
266.6639968802
 11
127.6775704814
 21
279.6848222662
  0
LINE
  5
2A5
100
AcDbEntity
  8
03___PRT_ALL_CURVES
100
AcDbLine
 62
4
  6
CONTINUOUS
 10
127.6775704814
 20
288.5389968802
 11
125.5499107881
 21
287.4973222662
  0
LINE
  5
2A6
100
AcDbEntity
  8
03___PRT_ALL_CURVES
100
AcDbLine
 62
4
  6
CONTINUOUS
 10
131.4009746654
 20
128.6431595732
 11
106.4009746654
 21
128.6431595732
  0
LINE
  5
2A7
100
AcDbEntity
  8
03___PRT_ALL_CURVES
100
AcDbLine
 62
4
  6
CONTINUOUS
 10
164.0605488165
 20
130.1014931549
 11
186.4009746654
 21
130.1014931549
  0
LINE
  5
2A8
100
AcDbEntity
  8
03___PRT_ALL_CURVES
100
AcDbLine
 62
4
  6
CONTINUOUS
 10
111.7201229675
 20
131.7681595732
 11
131.4009746654
 21
131.7681595732
  0
LINE
  5
2A9
100
AcDbEntity
  8
03___PRT_ALL_CURVES
100
AcDbLine
 62
4
  6
CONTINUOUS
 10
161.4009746654
 20
138.4348267366
 11
164.0605488165
 21
138.4348267366
  0
LINE
  5
2AA
100
AcDbEntity
  8
03___PRT_ALL_CURVES
100
AcDbLine
 62
4
  6
CONTINUOUS
 10
128.7414001419
 20
141.1431595732
 11
106.4009746654
 21
148.9556595732
  0
LINE
  5
2AB
100
AcDbEntity
  8
03___PRT_ALL_CURVES
100
AcDbLine
 62
4
  6
CONTINUOUS
 10
106.4009746654
 20
299.9973222662
 11
106.9328894956
 21
302.6014968802
  0
LINE
  5
2AC
100
AcDbEntity
  8
03___PRT_ALL_CURVES
100
AcDbLine
 62
4
  6
CONTINUOUS
 10
110.1243784769
 20
302.0806595732
 11
109.5924636467
 21
299.9973222662
  0
LINE
  5
2AD
100
AcDbEntity
  8
03___PRT_ALL_CURVES
100
AcDbLine
 62
4
  6
CONTINUOUS
 10
126.6137404485
 20
291.6639968802
 11
127.6775704814
 21
293.2264968802
  0
LINE
  5
2AE
100
AcDbEntity
  8
03___PRT_ALL_CURVES
100
AcDbLine
 62
4
  6
CONTINUOUS
 10
131.4009746654
 20
278.1223222662
 11
109.5924636467
 21
265.1014968802
  0
LINE
  5
2AF
100
AcDbEntity
  8
03___PRT_ALL_CURVES
100
AcDbLine
 62
4
  6
CONTINUOUS
 10
186.4009746654
 20
142.6014924098
 11
161.4009746654
 21
142.6014924098
  0
LINE
  5
2B0
100
AcDbEntity
  8
03___PRT_ALL_CURVES
100
AcDbLine
 62
4
  6
CONTINUOUS
 10
164.5924636467
 20
145.7264938999
 11
171.5073579295
 21
145.7264938999
  0
LINE
  5
2B1
100
AcDbEntity
  8
03___PRT_ALL_CURVES
100
AcDbLine
 62
4
  6
CONTINUOUS
 10
174.6988469107
 20
145.7264938999
 11
183.2094853116
 21
145.7264938999
  0
LINE
  5
2B2
100
AcDbEntity
  8
03___PRT_ALL_CURVES
100
AcDbLine
 62
4
  6
CONTINUOUS
 10
131.4009746654
 20
150.5181595732
 11
111.7201229675
 21
150.5181595732
  0
LINE
  5
2B3
100
AcDbEntity
  8
03___PRT_ALL_CURVES
100
AcDbLine
 62
4
  6
CONTINUOUS
 10
111.7201229675
 20
150.5181595732
 11
131.4009746654
 21
143.2264924098
  0
LINE
  5
2B4
100
AcDbEntity
  8
03___PRT_ALL_CURVES
100
AcDbLine
 62
4
  6
CONTINUOUS
 10
112.2520377977
 20
158.3306595732
 11
110.1243784769
 21
159.3723252464
  0
LINE
  5
2B5
100
AcDbEntity
  8
03___PRT_ALL_CURVES
100
AcDbLine
 62
4
  6
CONTINUOUS
 10
112.783954118
 20
161.4556595732
 11
111.1882081373
 21
162.4973252464
  0
LINE
  5
2B6
100
AcDbEntity
  8
03___PRT_ALL_CURVES
100
AcDbLine
 62
4
  6
CONTINUOUS
 10
110.1243784769
 20
159.3723252464
 11
107.996719156
 21
161.4556595732
  0
LINE
  5
2B7
100
AcDbEntity
  8
03___PRT_ALL_CURVES
100
AcDbLine
 62
4
  6
CONTINUOUS
 10
130.8690597886
 20
292.7056595732
 11
129.8052299885
 21
290.6223222662
  0
LINE
  5
2B8
100
AcDbEntity
  8
03___PRT_ALL_CURVES
100
AcDbLine
 62
4
  6
CONTINUOUS
 10
106.4009746654
 20
153.6431595732
 11
131.4009746654
 21
153.6431595732
  0
LINE
  5
2B9
100
AcDbEntity
  8
03___PRT_ALL_CURVES
100
AcDbLine
 62
4
  6
CONTINUOUS
 10
122.890336637
 20
157.8098252464
 11
114.9116134389
 21
157.8098252464
  0
LINE
  5
2BA
100
AcDbEntity
  8
03___PRT_ALL_CURVES
100
AcDbLine
 62
4
  6
CONTINUOUS
 10
171.5073579295
 20
159.2681595732
 11
174.6988469107
 21
159.2681595732
  0
LINE
  5
2BB
100
AcDbEntity
  8
03___PRT_ALL_CURVES
100
AcDbLine
 62
4
  6
CONTINUOUS
 10
122.890336637
 20
160.9348252464
 11
114.9116134389
 21
160.9348252464
  0
LINE
  5
2BC
100
AcDbEntity
  8
03___PRT_ALL_CURVES
100
AcDbLine
 62
4
  6
CONTINUOUS
 10
161.4009746654
 20
161.3514938999
 11
164.5924636467
 21
161.3514938999
  0
LINE
  5
2BD
100
AcDbEntity
  8
03___PRT_ALL_CURVES
100
AcDbLine
 62
4
  6
CONTINUOUS
 10
183.2094853116
 20
161.3514938999
 11
186.4009746654
 21
161.3514938999
  0
LINE
  5
2BE
100
AcDbEntity
  8
03___PRT_ALL_CURVES
100
AcDbLine
 62
4
  6
CONTINUOUS
 10
114.9116134389
 20
157.8098252464
 11
112.2520377977
 21
158.3306595732
  0
LINE
  5
2BF
100
AcDbEntity
  8
03___PRT_ALL_CURVES
100
AcDbLine
 62
4
  6
CONTINUOUS
 10
114.9116134389
 20
160.9348252464
 11
112.783954118
 21
161.4556595732
  0
LINE
  5
2C0
100
AcDbEntity
  8
03___PRT_ALL_CURVES
100
AcDbLine
 62
4
  6
CONTINUOUS
 10
111.1882081373
 20
162.4973252464
 11
110.1243784769
 21
164.0598252464
  0
LINE
  5
2C1
100
AcDbEntity
  8
03___PRT_ALL_CURVES
100
AcDbLine
 62
4
  6
CONTINUOUS
 10
107.996719156
 20
161.4556595732
 11
106.9328894956
 21
163.5389938999
  0
LINE
  5
2C2
100
AcDbEntity
  8
03___PRT_ALL_CURVES
100
AcDbLine
 62
4
  6
CONTINUOUS
 10
110.1243784769
 20
164.0598252464
 11
109.5924636467
 21
166.1431595732
  0
LINE
  5
2C3
100
AcDbEntity
  8
03___PRT_ALL_CURVES
100
AcDbLine
 62
4
  6
CONTINUOUS
 10
106.9328894956
 20
163.5389938999
 11
106.4009746654
 21
166.1431595732
  0
LINE
  5
2C4
100
AcDbEntity
  8
03___PRT_ALL_CURVES
100
AcDbLine
 62
4
  6
CONTINUOUS
 10
106.4009746654
 20
201.5598282267
 11
106.4009746654
 21
198.4348282267
  0
LINE
  5
2C5
100
AcDbEntity
  8
03___PRT_ALL_CURVES
100
AcDbLine
 62
4
  6
CONTINUOUS
 10
106.4009746654
 20
185.9348282267
 11
106.4009746654
 21
182.8098282267
  0
LINE
  5
2C6
100
AcDbEntity
  8
03___PRT_ALL_CURVES
100
AcDbLine
 62
4
  6
CONTINUOUS
 10
106.4009746654
 20
128.6431595732
 11
106.4009746654
 21
133.3306595732
  0
LINE
  5
2C7
100
AcDbEntity
  8
03___PRT_ALL_CURVES
100
AcDbLine
 62
4
  6
CONTINUOUS
 10
106.4009746654
 20
148.9556595732
 11
106.4009746654
 21
153.6431595732
  0
LINE
  5
2C8
100
AcDbEntity
  8
03___PRT_ALL_CURVES
100
AcDbLine
 62
4
  6
CONTINUOUS
 10
106.4009746654
 20
166.1431595732
 11
106.4009746654
 21
170.3098252464
  0
LINE
  5
2C9
100
AcDbEntity
  8
03___PRT_ALL_CURVES
100
AcDbLine
 62
4
  6
CONTINUOUS
 10
106.4009746654
 20
205.7264909197
 11
106.4009746654
 21
210.4139909197
  0
LINE
  5
2CA
100
AcDbEntity
  8
03___PRT_ALL_CURVES
100
AcDbLine
 62
4
  6
CONTINUOUS
 10
106.4009746654
 20
223.4348282267
 11
106.4009746654
 21
226.5598282267
  0
LINE
  5
2CB
100
AcDbEntity
  8
03___PRT_ALL_CURVES
100
AcDbLine
 62
4
  6
CONTINUOUS
 10
106.4009746654
 20
230.7264968802
 11
106.4009746654
 21
250.5181595732
  0
LINE
  5
2CC
100
AcDbEntity
  8
03___PRT_ALL_CURVES
100
AcDbLine
 62
4
  6
CONTINUOUS
 10
106.4009746654
 20
254.6848222662
 11
106.4009746654
 21
257.8098222662
  0
LINE
  5
2CD
100
AcDbEntity
  8
03___PRT_ALL_CURVES
100
AcDbLine
 62
4
  6
CONTINUOUS
 10
106.4009746654
 20
261.9764968802
 11
106.4009746654
 21
266.6639968802
  0
LINE
  5
2CE
100
AcDbEntity
  8
03___PRT_ALL_CURVES
100
AcDbLine
 62
4
  6
CONTINUOUS
 10
106.4009746654
 20
279.6848222662
 11
106.4009746654
 21
282.8098222662
  0
LINE
  5
2CF
100
AcDbEntity
  8
03___PRT_ALL_CURVES
100
AcDbLine
 62
4
  6
CONTINUOUS
 10
106.4009746654
 20
295.3098222662
 11
106.4009746654
 21
299.9973222662
  0
LINE
  5
2D0
100
AcDbEntity
  8
03___PRT_ALL_CURVES
100
AcDbLine
 62
4
  6
CONTINUOUS
 10
109.0605488165
 20
250.5181595732
 11
109.0605488165
 21
242.1848222662
  0
LINE
  5
2D1
100
AcDbEntity
  8
03___PRT_ALL_CURVES
100
AcDbLine
 62
4
  6
CONTINUOUS
 10
109.0605488165
 20
239.0598222662
 11
109.0605488165
 21
230.7264968802
  0
LINE
  5
2D2
100
AcDbEntity
  8
03___PRT_ALL_CURVES
100
AcDbLine
 62
4
  6
CONTINUOUS
 10
109.5924636467
 20
299.9973222662
 11
109.5924636467
 21
295.3098222662
  0
LINE
  5
2D3
100
AcDbEntity
  8
03___PRT_ALL_CURVES
100
AcDbLine
 62
4
  6
CONTINUOUS
 10
109.5924636467
 20
166.1431595732
 11
109.5924636467
 21
170.3098252464
  0
LINE
  5
2D4
100
AcDbEntity
  8
03___PRT_ALL_CURVES
100
AcDbLine
 62
4
  6
CONTINUOUS
 10
112.783954118
 20
307.2889968802
 11
112.783954118
 21
304.1639968802
  0
LINE
  5
2D5
100
AcDbEntity
  8
03___PRT_ALL_CURVES
100
AcDbLine
 62
4
  6
CONTINUOUS
 10
127.6775704814
 20
293.2264968802
 11
128.2094853116
 21
295.3098222662
  0
LINE
  5
2D6
100
AcDbEntity
  8
03___PRT_ALL_CURVES
100
AcDbLine
 62
4
  6
CONTINUOUS
 10
161.4009746654
 20
253.5389968802
 11
186.4009746654
 21
261.8723222662
  0
LINE
  5
2D7
100
AcDbEntity
  8
03___PRT_ALL_CURVES
100
AcDbLine
 62
4
  6
CONTINUOUS
 10
163.5286339863
 20
251.4556595732
 11
177.890336637
 21
256.1431595732
  0
LINE
  5
2D8
100
AcDbEntity
  8
03___PRT_ALL_CURVES
100
AcDbLine
 62
4
  6
CONTINUOUS
 10
186.4009746654
 20
258.7473222662
 11
180.0179959579
 21
256.6639968802
  0
LINE
  5
2D9
100
AcDbEntity
  8
03___PRT_ALL_CURVES
100
AcDbLine
 62
4
  6
CONTINUOUS
 10
125.0179959579
 20
161.4556595732
 11
122.890336637
 21
160.9348252464
  0
LINE
  5
2DA
100
AcDbEntity
  8
03___PRT_ALL_CURVES
100
AcDbLine
 62
4
  6
CONTINUOUS
 10
125.5499107881
 20
158.3306595732
 11
122.890336637
 21
157.8098252464
  0
LINE
  5
2DB
100
AcDbEntity
  8
03___PRT_ALL_CURVES
100
AcDbLine
 62
4
  6
CONTINUOUS
 10
186.4009746654
 20
165.5181595732
 11
161.4009746654
 21
165.5181595732
  0
LINE
  5
2DC
100
AcDbEntity
  8
03___PRT_ALL_CURVES
100
AcDbLine
 62
4
  6
CONTINUOUS
 10
166.7201229675
 20
168.6431595732
 11
186.4009746654
 21
168.6431595732
  0
LINE
  5
2DD
100
AcDbEntity
  8
03___PRT_ALL_CURVES
100
AcDbLine
 62
4
  6
CONTINUOUS
 10
122.890336637
 20
175.5181595732
 11
125.0179959579
 21
174.9973252464
  0
LINE
  5
2DE
100
AcDbEntity
  8
03___PRT_ALL_CURVES
100
AcDbLine
 62
4
  6
CONTINUOUS
 10
125.5499107881
 20
178.1223252464
 11
127.6775704814
 21
177.0806595732
  0
LINE
  5
2DF
100
AcDbEntity
  8
03___PRT_ALL_CURVES
100
AcDbLine
 62
4
  6
CONTINUOUS
 10
125.0179959579
 20
174.9973252464
 11
126.6137404485
 21
173.9556595732
  0
LINE
  5
2E0
100
AcDbEntity
  8
03___PRT_ALL_CURVES
100
AcDbLine
 62
4
  6
CONTINUOUS
 10
127.6775704814
 20
177.0806595732
 11
129.8052299885
 21
174.9973252464
  0
LINE
  5
2E1
100
AcDbEntity
  8
03___PRT_ALL_CURVES
100
AcDbLine
 62
4
  6
CONTINUOUS
 10
126.6137404485
 20
173.9556595732
 11
127.6775704814
 21
172.3931595732
  0
LINE
  5
2E2
100
AcDbEntity
  8
03___PRT_ALL_CURVES
100
AcDbLine
 62
4
  6
CONTINUOUS
 10
117.5711875899
 20
299.4764968802
 11
117.5711875899
 21
307.2889968802
  0
LINE
  5
2E3
100
AcDbEntity
  8
03___PRT_ALL_CURVES
100
AcDbLine
 62
4
  6
CONTINUOUS
 10
120.7626765711
 20
304.1639968802
 11
120.7626765711
 21
299.4764968802
  0
LINE
  5
2E4
100
AcDbEntity
  8
03___PRT_ALL_CURVES
100
AcDbLine
 62
4
  6
CONTINUOUS
 10
131.4009746654
 20
295.3098222662
 11
130.8690597886
 21
292.7056595732
  0
LINE
  5
2E5
100
AcDbEntity
  8
03___PRT_ALL_CURVES
100
AcDbLine
 62
4
  6
CONTINUOUS
 10
106.4009746654
 20
170.3098252464
 11
106.9328894956
 21
172.9139938999
  0
LINE
  5
2E6
100
AcDbEntity
  8
03___PRT_ALL_CURVES
100
AcDbLine
 62
4
  6
CONTINUOUS
 10
109.5924636467
 20
170.3098252464
 11
110.1243784769
 21
172.3931595732
  0
LINE
  5
2E7
100
AcDbEntity
  8
03___PRT_ALL_CURVES
100
AcDbLine
 62
4
  6
CONTINUOUS
 10
106.4009746654
 20
210.4139909197
 11
127.6775704814
 21
223.4348282267
  0
LINE
  5
2E8
100
AcDbEntity
  8
03___PRT_ALL_CURVES
100
AcDbLine
 62
4
  6
CONTINUOUS
 10
112.783954118
 20
174.9973252464
 11
114.9116134389
 21
175.5181595732
  0
LINE
  5
2E9
100
AcDbEntity
  8
03___PRT_ALL_CURVES
100
AcDbLine
 62
4
  6
CONTINUOUS
 10
112.2520377977
 20
178.1223252464
 11
114.9116134389
 21
178.6431595732
  0
LINE
  5
2EA
100
AcDbEntity
  8
03___PRT_ALL_CURVES
100
AcDbLine
 62
4
  6
CONTINUOUS
 10
114.9116134389
 20
175.5181595732
 11
122.890336637
 21
175.5181595732
  0
LINE
  5
2EB
100
AcDbEntity
  8
03___PRT_ALL_CURVES
100
AcDbLine
 62
4
  6
CONTINUOUS
 10
114.9116134389
 20
178.6431595732
 11
122.890336637
 21
178.6431595732
  0
LINE
  5
2EC
100
AcDbEntity
  8
03___PRT_ALL_CURVES
100
AcDbLine
 62
4
  6
CONTINUOUS
 10
106.4009746654
 20
182.8098282267
 11
122.890336637
 21
182.8098282267
  0
LINE
  5
2ED
100
AcDbEntity
  8
03___PRT_ALL_CURVES
100
AcDbLine
 62
4
  6
CONTINUOUS
 10
122.890336637
 20
185.9348282267
 11
106.4009746654
 21
185.9348282267
  0
LINE
  5
2EE
100
AcDbEntity
  8
03___PRT_ALL_CURVES
100
AcDbLine
 62
4
  6
CONTINUOUS
 10
122.890336637
 20
178.6431595732
 11
125.5499107881
 21
178.1223252464
  0
LINE
  5
2EF
100
AcDbEntity
  8
03___PRT_ALL_CURVES
100
AcDbLine
 62
4
  6
CONTINUOUS
 10
126.6137404485
 20
196.8723282267
 11
127.6775704814
 21
195.3098282267
  0
LINE
  5
2F0
100
AcDbEntity
  8
03___PRT_ALL_CURVES
100
AcDbLine
 62
4
  6
CONTINUOUS
 10
129.8052299885
 20
174.9973252464
 11
130.8690597886
 21
172.9139938999
  0
LINE
  5
2F1
100
AcDbEntity
  8
03___PRT_ALL_CURVES
100
AcDbLine
 62
4
  6
CONTINUOUS
 10
127.6775704814
 20
172.3931595732
 11
128.2094853116
 21
170.3098252464
  0
LINE
  5
2F2
100
AcDbEntity
  8
03___PRT_ALL_CURVES
100
AcDbLine
 62
4
  6
CONTINUOUS
 10
127.6775704814
 20
195.3098282267
 11
128.2094853116
 21
193.2264909197
  0
LINE
  5
2F3
100
AcDbEntity
  8
03___PRT_ALL_CURVES
100
AcDbLine
 62
4
  6
CONTINUOUS
 10
130.8690597886
 20
172.9139938999
 11
131.4009746654
 21
170.3098252464
  0
LINE
  5
2F4
100
AcDbEntity
  8
03___PRT_ALL_CURVES
100
AcDbLine
 62
4
  6
CONTINUOUS
 10
106.9328894956
 20
292.7056595732
 11
106.4009746654
 21
295.3098222662
  0
LINE
  5
2F5
100
AcDbEntity
  8
03___PRT_ALL_CURVES
100
AcDbLine
 62
4
  6
CONTINUOUS
 10
128.2094853116
 20
193.2264909197
 11
128.2094853116
 21
191.1431595732
  0
LINE
  5
2F6
100
AcDbEntity
  8
03___PRT_ALL_CURVES
100
AcDbLine
 62
4
  6
CONTINUOUS
 10
128.2094853116
 20
170.3098252464
 11
128.2094853116
 21
166.1431595732
  0
LINE
  5
2F7
100
AcDbEntity
  8
03___PRT_ALL_CURVES
100
AcDbLine
 62
4
  6
CONTINUOUS
 10
128.2094853116
 20
295.3098222662
 11
128.2094853116
 21
299.9973222662
  0
LINE
  5
2F8
100
AcDbEntity
  8
03___PRT_ALL_CURVES
100
AcDbLine
 62
4
  6
CONTINUOUS
 10
131.4009746654
 20
299.9973222662
 11
131.4009746654
 21
295.3098222662
  0
LINE
  5
2F9
100
AcDbEntity
  8
03___PRT_ALL_CURVES
100
AcDbLine
 62
4
  6
CONTINUOUS
 10
131.4009746654
 20
282.8098222662
 11
131.4009746654
 21
278.1223222662
  0
LINE
  5
2FA
100
AcDbEntity
  8
03___PRT_ALL_CURVES
100
AcDbLine
 62
4
  6
CONTINUOUS
 10
131.4009746654
 20
265.1014968802
 11
131.4009746654
 21
261.9764968802
  0
LINE
  5
2FB
100
AcDbEntity
  8
03___PRT_ALL_CURVES
100
AcDbLine
 62
4
  6
CONTINUOUS
 10
131.4009746654
 20
257.8098222662
 11
131.4009746654
 21
254.6848222662
  0
LINE
  5
2FC
100
AcDbEntity
  8
03___PRT_ALL_CURVES
100
AcDbLine
 62
4
  6
CONTINUOUS
 10
131.4009746654
 20
242.1848222662
 11
131.4009746654
 21
239.0598222662
  0
LINE
  5
2FD
100
AcDbEntity
  8
03___PRT_ALL_CURVES
100
AcDbLine
 62
4
  6
CONTINUOUS
 10
131.4009746654
 20
226.5598282267
 11
131.4009746654
 21
221.8723282267
  0
LINE
  5
2FE
100
AcDbEntity
  8
03___PRT_ALL_CURVES
100
AcDbLine
 62
4
  6
CONTINUOUS
 10
131.4009746654
 20
208.8514909197
 11
131.4009746654
 21
205.7264909197
  0
LINE
  5
2FF
100
AcDbEntity
  8
03___PRT_ALL_CURVES
100
AcDbLine
 62
4
  6
CONTINUOUS
 10
131.4009746654
 20
170.3098252464
 11
131.4009746654
 21
166.1431595732
  0
LINE
  5
300
100
AcDbEntity
  8
03___PRT_ALL_CURVES
100
AcDbLine
 62
4
  6
CONTINUOUS
 10
131.4009746654
 20
153.6431595732
 11
131.4009746654
 21
150.5181595732
  0
LINE
  5
301
100
AcDbEntity
  8
03___PRT_ALL_CURVES
100
AcDbLine
 62
4
  6
CONTINUOUS
 10
131.4009746654
 20
143.2264924098
 11
131.4009746654
 21
139.0598259915
  0
LINE
  5
302
100
AcDbEntity
  8
03___PRT_ALL_CURVES
100
AcDbLine
 62
4
  6
CONTINUOUS
 10
131.4009746654
 20
131.7681595732
 11
131.4009746654
 21
128.6431595732
  0
LINE
  5
303
100
AcDbEntity
  8
03___PRT_ALL_CURVES
100
AcDbLine
 62
4
  6
CONTINUOUS
 10
131.4009746654
 20
191.1431595732
 11
131.4009746654
 21
193.2264909197
  0
LINE
  5
304
100
AcDbEntity
  8
03___PRT_ALL_CURVES
100
AcDbLine
 62
4
  6
CONTINUOUS
 10
130.8690597886
 20
188.5389909197
 11
131.4009746654
 21
191.1431595732
  0
LINE
  5
305
100
AcDbEntity
  8
03___PRT_ALL_CURVES
100
AcDbLine
 62
4
  6
CONTINUOUS
 10
128.2094853116
 20
191.1431595732
 11
127.6775704814
 21
189.0598282267
  0
LINE
  5
306
100
AcDbEntity
  8
03___PRT_ALL_CURVES
100
AcDbLine
 62
4
  6
CONTINUOUS
 10
106.9328894956
 20
172.9139938999
 11
107.996719156
 21
174.9973252464
  0
LINE
  5
307
100
AcDbEntity
  8
03___PRT_ALL_CURVES
100
AcDbLine
 62
4
  6
CONTINUOUS
 10
110.1243784769
 20
172.3931595732
 11
111.1882081373
 21
173.9556595732
  0
LINE
  5
308
100
AcDbEntity
  8
03___PRT_ALL_CURVES
100
AcDbLine
 62
4
  6
CONTINUOUS
 10
131.4009746654
 20
221.8723282267
 11
109.5924636467
 21
208.8514909197
  0
LINE
  5
309
100
AcDbEntity
  8
03___PRT_ALL_CURVES
100
AcDbLine
 62
4
  6
CONTINUOUS
 10
125.0179959579
 20
186.4556595732
 11
122.890336637
 21
185.9348282267
  0
LINE
  5
30A
100
AcDbEntity
  8
03___PRT_ALL_CURVES
100
AcDbLine
 62
4
  6
CONTINUOUS
 10
122.890336637
 20
182.8098282267
 11
125.5499107881
 21
183.3306595732
  0
LINE
  5
30B
100
AcDbEntity
  8
03___PRT_ALL_CURVES
100
AcDbLine
 62
4
  6
CONTINUOUS
 10
186.4009746654
 20
187.3931595732
 11
166.7201229675
 21
187.3931595732
  0
LINE
  5
30C
100
AcDbEntity
  8
03___PRT_ALL_CURVES
100
AcDbLine
 62
4
  6
CONTINUOUS
 10
161.4009746654
 20
190.5181595732
 11
186.4009746654
 21
190.5181595732
  0
LINE
  5
30D
100
AcDbEntity
  8
03___PRT_ALL_CURVES
100
AcDbLine
 62
4
  6
CONTINUOUS
 10
186.4009746654
 20
194.6848282267
 11
161.4009746654
 21
194.6848282267
  0
LINE
  5
30E
100
AcDbEntity
  8
03___PRT_ALL_CURVES
100
AcDbLine
 62
4
  6
CONTINUOUS
 10
164.0605488165
 20
197.8098282267
 11
172.0392727597
 21
197.8098282267
  0
LINE
  5
30F
100
AcDbEntity
  8
03___PRT_ALL_CURVES
100
AcDbLine
 62
4
  6
CONTINUOUS
 10
175.2307617409
 20
197.8098282267
 11
186.4009746654
 21
197.8098282267
  0
LINE
  5
310
100
AcDbEntity
  8
03___PRT_ALL_CURVES
100
AcDbLine
 62
4
  6
CONTINUOUS
 10
125.5499107881
 20
201.0389909197
 11
122.890336637
 21
201.5598282267
  0
LINE
  5
311
100
AcDbEntity
  8
03___PRT_ALL_CURVES
100
AcDbLine
 62
4
  6
CONTINUOUS
 10
122.890336637
 20
198.4348282267
 11
125.0179959579
 21
197.9139909197
  0
LINE
  5
312
100
AcDbEntity
  8
03___PRT_ALL_CURVES
100
AcDbLine
 62
4
  6
CONTINUOUS
 10
183.7414001419
 20
178.0181595732
 11
161.4009746654
 21
185.8306595732
  0
LINE
  5
313
100
AcDbEntity
  8
03___PRT_ALL_CURVES
100
AcDbLine
 62
4
  6
CONTINUOUS
 10
166.7201229675
 20
187.3931595732
 11
186.4009746654
 21
180.1014909197
  0
LINE
  5
314
100
AcDbEntity
  8
03___PRT_ALL_CURVES
100
AcDbLine
 62
4
  6
CONTINUOUS
 10
127.6775704814
 20
199.9973282267
 11
125.5499107881
 21
201.0389909197
  0
LINE
  5
315
100
AcDbEntity
  8
03___PRT_ALL_CURVES
100
AcDbLine
 62
4
  6
CONTINUOUS
 10
125.0179959579
 20
197.9139909197
 11
126.6137404485
 21
196.8723282267
  0
LINE
  5
316
100
AcDbEntity
  8
03___PRT_ALL_CURVES
100
AcDbLine
 62
4
  6
CONTINUOUS
 10
129.8052299885
 20
197.9139909197
 11
127.6775704814
 21
199.9973282267
  0
LINE
  5
317
100
AcDbEntity
  8
03___PRT_ALL_CURVES
100
AcDbLine
 62
4
  6
CONTINUOUS
 10
130.8690597886
 20
195.8306595732
 11
129.8052299885
 21
197.9139909197
  0
LINE
  5
318
100
AcDbEntity
  8
03___PRT_ALL_CURVES
100
AcDbLine
 62
4
  6
CONTINUOUS
 10
109.5924636467
 20
295.3098222662
 11
110.1243784769
 21
293.2264968802
  0
LINE
  5
319
100
AcDbEntity
  8
03___PRT_ALL_CURVES
100
AcDbLine
 62
4
  6
CONTINUOUS
 10
131.4009746654
 20
193.2264909197
 11
130.8690597886
 21
195.8306595732
  0
LINE
  5
31A
100
AcDbEntity
  8
03___PRT_ALL_CURVES
100
AcDbLine
 62
4
  6
CONTINUOUS
 10
131.4009746654
 20
166.1431595732
 11
130.8690597886
 21
163.5389938999
  0
LINE
  5
31B
100
AcDbEntity
  8
03___PRT_ALL_CURVES
100
AcDbLine
 62
4
  6
CONTINUOUS
 10
128.2094853116
 20
166.1431595732
 11
127.6775704814
 21
164.0598252464
  0
LINE
  5
31C
100
AcDbEntity
  8
03___PRT_ALL_CURVES
100
AcDbLine
 62
4
  6
CONTINUOUS
 10
129.8052299885
 20
186.4556595732
 11
130.8690597886
 21
188.5389909197
  0
LINE
  5
31D
100
AcDbEntity
  8
03___PRT_ALL_CURVES
100
AcDbLine
 62
4
  6
CONTINUOUS
 10
127.6775704814
 20
189.0598282267
 11
126.6137404485
 21
187.4973282267
  0
LINE
  5
31E
100
AcDbEntity
  8
03___PRT_ALL_CURVES
100
AcDbLine
 62
4
  6
CONTINUOUS
 10
107.996719156
 20
174.9973252464
 11
110.1243784769
 21
177.0806595732
  0
LINE
  5
31F
100
AcDbEntity
  8
03___PRT_ALL_CURVES
100
AcDbLine
 62
4
  6
CONTINUOUS
 10
165.6562933071
 20
213.4348282267
 11
167.2520377977
 21
213.9556595732
  0
LINE
  5
320
100
AcDbEntity
  8
03___PRT_ALL_CURVES
100
AcDbLine
 62
4
  6
CONTINUOUS
 10
106.4009746654
 20
198.4348282267
 11
122.890336637
 21
198.4348282267
  0
LINE
  5
321
100
AcDbEntity
  8
03___PRT_ALL_CURVES
100
AcDbLine
 62
4
  6
CONTINUOUS
 10
122.890336637
 20
201.5598282267
 11
106.4009746654
 21
201.5598282267
  0
LINE
  5
322
100
AcDbEntity
  8
03___PRT_ALL_CURVES
100
AcDbLine
 62
4
  6
CONTINUOUS
 10
131.4009746654
 20
205.7264909197
 11
106.4009746654
 21
205.7264909197
  0
LINE
  5
323
100
AcDbEntity
  8
03___PRT_ALL_CURVES
100
AcDbLine
 62
4
  6
CONTINUOUS
 10
109.5924636467
 20
208.8514909197
 11
131.4009746654
 21
208.8514909197
  0
LINE
  5
324
100
AcDbEntity
  8
03___PRT_ALL_CURVES
100
AcDbLine
 62
4
  6
CONTINUOUS
 10
130.8690597886
 20
163.5389938999
 11
129.8052299885
 21
161.4556595732
  0
LINE
  5
325
100
AcDbEntity
  8
03___PRT_ALL_CURVES
100
AcDbLine
 62
4
  6
CONTINUOUS
 10
127.6775704814
 20
164.0598252464
 11
126.6137404485
 21
162.4973252464
  0
LINE
  5
326
100
AcDbEntity
  8
03___PRT_ALL_CURVES
100
AcDbLine
 62
4
  6
CONTINUOUS
 10
161.9328894956
 20
209.7889909197
 11
163.5286339863
 21
211.8723282267
  0
LINE
  5
327
100
AcDbEntity
  8
03___PRT_ALL_CURVES
100
AcDbLine
 62
4
  6
CONTINUOUS
 10
127.6775704814
 20
184.3723282267
 11
129.8052299885
 21
186.4556595732
  0
LINE
  5
328
100
AcDbEntity
  8
03___PRT_ALL_CURVES
100
AcDbLine
 62
4
  6
CONTINUOUS
 10
165.6562933071
 20
210.3098282267
 11
164.5924636467
 21
209.2681595732
  0
LINE
  5
329
100
AcDbEntity
  8
03___PRT_ALL_CURVES
100
AcDbLine
 62
4
  6
CONTINUOUS
 10
163.5286339863
 20
211.8723282267
 11
165.6562933071
 21
213.4348282267
  0
LINE
  5
32A
100
AcDbEntity
  8
03___PRT_ALL_CURVES
100
AcDbLine
 62
4
  6
CONTINUOUS
 10
126.6137404485
 20
187.4973282267
 11
125.0179959579
 21
186.4556595732
  0
LINE
  5
32B
100
AcDbEntity
  8
03___PRT_ALL_CURVES
100
AcDbLine
 62
4
  6
CONTINUOUS
 10
111.1882081373
 20
173.9556595732
 11
112.783954118
 21
174.9973252464
  0
LINE
  5
32C
100
AcDbEntity
  8
03___PRT_ALL_CURVES
100
AcDbLine
 62
4
  6
CONTINUOUS
 10
110.1243784769
 20
177.0806595732
 11
112.2520377977
 21
178.1223252464
  0
LINE
  5
32D
100
AcDbEntity
  8
03___PRT_ALL_CURVES
100
AcDbLine
 62
4
  6
CONTINUOUS
 10
125.5499107881
 20
183.3306595732
 11
127.6775704814
 21
184.3723282267
  0
LINE
  5
32E
100
AcDbEntity
  8
03___PRT_ALL_CURVES
100
AcDbLine
 62
4
  6
CONTINUOUS
 10
167.2520377977
 20
210.8306595732
 11
165.6562933071
 21
210.3098282267
  0
LINE
  5
32F
100
AcDbEntity
  8
03___PRT_ALL_CURVES
100
AcDbLine
 62
4
  6
CONTINUOUS
 10
168.8477837784
 20
210.8306595732
 11
167.2520377977
 21
210.8306595732
  0
LINE
  5
330
100
AcDbEntity
  8
03___PRT_ALL_CURVES
100
AcDbLine
 62
4
  6
CONTINUOUS
 10
167.2520377977
 20
213.9556595732
 11
169.3796986087
 21
213.9556595732
  0
LINE
  5
331
100
AcDbEntity
  8
03___PRT_ALL_CURVES
100
AcDbLine
 62
4
  6
CONTINUOUS
 10
186.4009746654
 20
218.1223282267
 11
161.4009746654
 21
218.1223282267
  0
LINE
  5
332
100
AcDbEntity
  8
03___PRT_ALL_CURVES
100
AcDbLine
 62
4
  6
CONTINUOUS
 10
161.4009746654
 20
221.2473222662
 11
183.2094853116
 21
221.2473222662
  0
LINE
  5
333
100
AcDbEntity
  8
03___PRT_ALL_CURVES
100
AcDbLine
 62
4
  6
CONTINUOUS
 10
170.4435282691
 20
210.3098282267
 11
168.8477837784
 21
210.8306595732
  0
LINE
  5
334
100
AcDbEntity
  8
03___PRT_ALL_CURVES
100
AcDbLine
 62
4
  6
CONTINUOUS
 10
169.3796986087
 20
213.9556595732
 11
170.9754430993
 21
213.4348282267
  0
LINE
  5
335
100
AcDbEntity
  8
03___PRT_ALL_CURVES
100
AcDbLine
 62
4
  6
CONTINUOUS
 10
107.996719156
 20
290.6223222662
 11
106.9328894956
 21
292.7056595732
  0
LINE
  5
336
100
AcDbEntity
  8
03___PRT_ALL_CURVES
100
AcDbLine
 62
4
  6
CONTINUOUS
 10
128.2094853116
 20
299.9973222662
 11
127.6775704814
 21
302.0806595732
  0
LINE
  5
337
100
AcDbEntity
  8
03___PRT_ALL_CURVES
100
AcDbLine
 62
4
  6
CONTINUOUS
 10
130.8690597886
 20
302.6014968802
 11
131.4009746654
 21
299.9973222662
  0
LINE
  5
338
100
AcDbEntity
  8
03___PRT_ALL_CURVES
100
AcDbLine
 62
4
  6
CONTINUOUS
 10
161.4009746654
 20
118.6431595732
 11
161.4009746654
 21
138.4348267366
  0
LINE
  5
339
100
AcDbEntity
  8
03___PRT_ALL_CURVES
100
AcDbLine
 62
4
  6
CONTINUOUS
 10
161.4009746654
 20
142.6014924098
 11
161.4009746654
 21
161.3514938999
  0
LINE
  5
33A
100
AcDbEntity
  8
03___PRT_ALL_CURVES
100
AcDbLine
 62
4
  6
CONTINUOUS
 10
161.4009746654
 20
165.5181595732
 11
161.4009746654
 21
170.2056595732
  0
LINE
  5
33B
100
AcDbEntity
  8
03___PRT_ALL_CURVES
100
AcDbLine
 62
4
  6
CONTINUOUS
 10
161.4009746654
 20
185.8306595732
 11
161.4009746654
 21
190.5181595732
  0
LINE
  5
33C
100
AcDbEntity
  8
03___PRT_ALL_CURVES
100
AcDbLine
 62
4
  6
CONTINUOUS
 10
161.4009746654
 20
194.6848282267
 11
161.4009746654
 21
207.1848282267
  0
LINE
  5
33D
100
AcDbEntity
  8
03___PRT_ALL_CURVES
100
AcDbLine
 62
4
  6
CONTINUOUS
 10
161.4009746654
 20
218.1223282267
 11
161.4009746654
 21
221.2473222662
  0
LINE
  5
33E
100
AcDbEntity
  8
03___PRT_ALL_CURVES
100
AcDbLine
 62
4
  6
CONTINUOUS
 10
161.4009746654
 20
249.3723222662
 11
161.4009746654
 21
253.5389968802
  0
LINE
  5
33F
100
AcDbEntity
  8
03___PRT_ALL_CURVES
100
AcDbLine
 62
4
  6
CONTINUOUS
 10
161.4009746654
 20
266.0389968802
 11
161.4009746654
 21
285.8306595732
  0
LINE
  5
340
100
AcDbEntity
  8
03___PRT_ALL_CURVES
100
AcDbLine
 62
4
  6
CONTINUOUS
 10
161.4009746654
 20
289.9973222662
 11
161.4009746654
 21
308.7473222662
  0
LINE
  5
341
100
AcDbEntity
  8
03___PRT_ALL_CURVES
100
AcDbLine
 62
4
  6
CONTINUOUS
 10
164.0605488165
 20
285.8306595732
 11
164.0605488165
 21
277.4973222662
  0
LINE
  5
342
100
AcDbEntity
  8
03___PRT_ALL_CURVES
100
AcDbLine
 62
4
  6
CONTINUOUS
 10
164.0605488165
 20
274.3723222662
 11
164.0605488165
 21
266.0389968802
  0
LINE
  5
343
100
AcDbEntity
  8
03___PRT_ALL_CURVES
100
AcDbLine
 62
4
  6
CONTINUOUS
 10
164.0605488165
 20
207.7056595732
 11
164.0605488165
 21
197.8098282267
  0
LINE
  5
344
100
AcDbEntity
  8
03___PRT_ALL_CURVES
100
AcDbLine
 62
4
  6
CONTINUOUS
 10
164.0605488165
 20
138.4348267366
 11
164.0605488165
 21
130.1014931549
  0
LINE
  5
345
100
AcDbEntity
  8
03___PRT_ALL_CURVES
100
AcDbLine
 62
4
  6
CONTINUOUS
 10
164.0605488165
 20
126.9764931549
 11
164.0605488165
 21
118.6431595732
  0
LINE
  5
346
100
AcDbEntity
  8
03___PRT_ALL_CURVES
100
AcDbLine
 62
4
  6
CONTINUOUS
 10
164.5924636467
 20
308.7473222662
 11
164.5924636467
 21
293.1223222662
  0
LINE
  5
347
100
AcDbEntity
  8
03___PRT_ALL_CURVES
100
AcDbLine
 62
4
  6
CONTINUOUS
 10
164.5924636467
 20
161.3514938999
 11
164.5924636467
 21
145.7264938999
  0
LINE
  5
348
100
AcDbEntity
  8
03___PRT_ALL_CURVES
100
AcDbLine
 62
4
  6
CONTINUOUS
 10
171.5073579295
 20
145.7264938999
 11
171.5073579295
 21
159.2681595732
  0
LINE
  5
349
100
AcDbEntity
  8
03___PRT_ALL_CURVES
100
AcDbLine
 62
4
  6
CONTINUOUS
 10
171.5073579295
 20
293.1223222662
 11
171.5073579295
 21
306.6639968802
  0
LINE
  5
34A
100
AcDbEntity
  8
03___PRT_ALL_CURVES
100
AcDbLine
 62
4
  6
CONTINUOUS
 10
172.0392727597
 20
197.8098282267
 11
172.0392727597
 21
207.7056595732
  0
LINE
  5
34B
100
AcDbEntity
  8
03___PRT_ALL_CURVES
100
AcDbLine
 62
4
  6
CONTINUOUS
 10
161.4009746654
 20
207.1848282267
 11
161.9328894956
 21
209.7889909197
  0
LINE
  5
34C
100
AcDbEntity
  8
03___PRT_ALL_CURVES
100
AcDbLine
 62
4
  6
CONTINUOUS
 10
164.5924636467
 20
209.2681595732
 11
164.0605488165
 21
207.7056595732
  0
LINE
  5
34D
100
AcDbEntity
  8
03___PRT_ALL_CURVES
100
AcDbLine
 62
4
  6
CONTINUOUS
 10
129.8052299885
 20
161.4556595732
 11
127.6775704814
 21
159.3723252464
  0
LINE
  5
34E
100
AcDbEntity
  8
03___PRT_ALL_CURVES
100
AcDbLine
 62
4
  6
CONTINUOUS
 10
127.6775704814
 20
223.4348282267
 11
106.4009746654
 21
223.4348282267
  0
LINE
  5
34F
100
AcDbEntity
  8
03___PRT_ALL_CURVES
100
AcDbLine
 62
4
  6
CONTINUOUS
 10
106.4009746654
 20
226.5598282267
 11
131.4009746654
 21
226.5598282267
  0
LINE
  5
350
100
AcDbEntity
  8
03___PRT_ALL_CURVES
100
AcDbLine
 62
4
  6
CONTINUOUS
 10
109.0605488165
 20
230.7264968802
 11
106.4009746654
 21
230.7264968802
  0
LINE
  5
351
100
AcDbEntity
  8
03___PRT_ALL_CURVES
100
AcDbLine
 62
4
  6
CONTINUOUS
 10
170.9754430993
 20
213.4348282267
 11
173.1031024201
 21
211.8723282267
  0
LINE
  5
352
100
AcDbEntity
  8
03___PRT_ALL_CURVES
100
AcDbLine
 62
4
  6
CONTINUOUS
 10
171.5073579295
 20
209.2681595732
 11
170.4435282691
 21
210.3098282267
  0
LINE
  5
353
100
AcDbEntity
  8
03___PRT_ALL_CURVES
100
AcDbLine
 62
4
  6
CONTINUOUS
 10
173.1031024201
 20
211.8723282267
 11
174.6988469107
 21
209.7889909197
  0
LINE
  5
354
100
AcDbEntity
  8
03___PRT_ALL_CURVES
100
AcDbLine
 62
4
  6
CONTINUOUS
 10
110.1243784769
 20
293.2264968802
 11
111.1882081373
 21
291.6639968802
  0
LINE
  5
355
100
AcDbEntity
  8
03___PRT_ALL_CURVES
100
AcDbLine
 62
4
  6
CONTINUOUS
 10
172.0392727597
 20
207.7056595732
 11
171.5073579295
 21
209.2681595732
  0
LINE
  5
356
100
AcDbEntity
  8
03___PRT_ALL_CURVES
100
AcDbLine
 62
4
  6
CONTINUOUS
 10
174.6988469107
 20
306.6639968802
 11
174.6988469107
 21
293.1223222662
  0
LINE
  5
357
100
AcDbEntity
  8
03___PRT_ALL_CURVES
100
AcDbLine
 62
4
  6
CONTINUOUS
 10
174.6988469107
 20
159.2681595732
 11
174.6988469107
 21
145.7264938999
  0
LINE
  5
358
100
AcDbEntity
  8
03___PRT_ALL_CURVES
100
AcDbLine
 62
4
  6
CONTINUOUS
 10
175.2307617409
 20
207.1848282267
 11
175.2307617409
 21
197.8098282267
  0
LINE
  5
359
100
AcDbEntity
  8
03___PRT_ALL_CURVES
100
AcDbLine
 62
4
  6
CONTINUOUS
 10
177.890336637
 20
256.1431595732
 11
177.890336637
 21
246.7681595732
  0
LINE
  5
35A
100
AcDbEntity
  8
03___PRT_ALL_CURVES
100
AcDbLine
 62
4
  6
CONTINUOUS
 10
180.0179959579
 20
256.6639968802
 11
180.0179959579
 21
246.2473222662
  0
LINE
  5
35B
100
AcDbEntity
  8
03___PRT_ALL_CURVES
100
AcDbLine
 62
4
  6
CONTINUOUS
 10
183.2094853116
 20
145.7264938999
 11
183.2094853116
 21
161.3514938999
  0
LINE
  5
35C
100
AcDbEntity
  8
03___PRT_ALL_CURVES
100
AcDbLine
 62
4
  6
CONTINUOUS
 10
183.2094853116
 20
221.2473222662
 11
183.2094853116
 21
236.8723222662
  0
LINE
  5
35D
100
AcDbEntity
  8
03___PRT_ALL_CURVES
100
AcDbLine
 62
4
  6
CONTINUOUS
 10
183.2094853116
 20
293.1223222662
 11
183.2094853116
 21
308.7473222662
  0
LINE
  5
35E
100
AcDbEntity
  8
03___PRT_ALL_CURVES
100
AcDbLine
 62
4
  6
CONTINUOUS
 10
126.6137404485
 20
162.4973252464
 11
125.0179959579
 21
161.4556595732
  0
LINE
  5
35F
100
AcDbEntity
  8
03___PRT_ALL_CURVES
100
AcDbLine
 62
4
  6
CONTINUOUS
 10
127.6775704814
 20
159.3723252464
 11
125.5499107881
 21
158.3306595732
  0
LINE
  5
360
100
AcDbEntity
  8
03___PRT_ALL_CURVES
100
AcDbLine
 62
4
  6
CONTINUOUS
 10
183.2094853116
 20
236.8723222662
 11
186.4009746654
 21
236.8723222662
  0
LINE
  5
361
100
AcDbEntity
  8
03___PRT_ALL_CURVES
100
AcDbLine
 62
4
  6
CONTINUOUS
 10
131.4009746654
 20
239.0598222662
 11
109.0605488165
 21
239.0598222662
  0
LINE
  5
362
100
AcDbEntity
  8
03___PRT_ALL_CURVES
100
AcDbLine
 62
4
  6
CONTINUOUS
 10
109.0605488165
 20
242.1848222662
 11
131.4009746654
 21
242.1848222662
  0
LINE
  5
363
100
AcDbEntity
  8
03___PRT_ALL_CURVES
100
AcDbLine
 62
4
  6
CONTINUOUS
 10
110.1243784769
 20
288.5389968802
 11
107.996719156
 21
290.6223222662
  0
LINE
  5
364
100
AcDbEntity
  8
03___PRT_ALL_CURVES
100
AcDbLine
 62
4
  6
CONTINUOUS
 10
127.6775704814
 20
302.0806595732
 11
126.6137404485
 21
303.6431595732
  0
LINE
  5
365
100
AcDbEntity
  8
03___PRT_ALL_CURVES
100
AcDbLine
 62
4
  6
CONTINUOUS
 10
129.8052299885
 20
304.6848222662
 11
130.8690597886
 21
302.6014968802
  0
LINE
  5
366
100
AcDbEntity
  8
03___PRT_ALL_CURVES
100
AcDbLine
 62
4
  6
CONTINUOUS
 10
174.6988469107
 20
209.7889909197
 11
175.2307617409
 21
207.1848282267
  0
LINE
  5
367
100
AcDbEntity
  8
03___PRT_ALL_CURVES
100
AcDbLine
 62
4
  6
CONTINUOUS
 10
186.4009746654
 20
308.7473222662
 11
186.4009746654
 21
289.9973222662
  0
LINE
  5
368
100
AcDbEntity
  8
03___PRT_ALL_CURVES
100
AcDbLine
 62
4
  6
CONTINUOUS
 10
186.4009746654
 20
277.4973222662
 11
186.4009746654
 21
274.3723222662
  0
LINE
  5
369
100
AcDbEntity
  8
03___PRT_ALL_CURVES
100
AcDbLine
 62
4
  6
CONTINUOUS
 10
186.4009746654
 20
261.8723222662
 11
186.4009746654
 21
258.7473222662
  0
LINE
  5
36A
100
AcDbEntity
  8
03___PRT_ALL_CURVES
100
AcDbLine
 62
4
  6
CONTINUOUS
 10
186.4009746654
 20
244.1639968802
 11
186.4009746654
 21
241.0389968802
  0
LINE
  5
36B
100
AcDbEntity
  8
03___PRT_ALL_CURVES
100
AcDbLine
 62
4
  6
CONTINUOUS
 10
186.4009746654
 20
236.8723222662
 11
186.4009746654
 21
218.1223282267
  0
LINE
  5
36C
100
AcDbEntity
  8
03___PRT_ALL_CURVES
100
AcDbLine
 62
4
  6
CONTINUOUS
 10
186.4009746654
 20
197.8098282267
 11
186.4009746654
 21
194.6848282267
  0
LINE
  5
36D
100
AcDbEntity
  8
03___PRT_ALL_CURVES
100
AcDbLine
 62
4
  6
CONTINUOUS
 10
186.4009746654
 20
190.5181595732
 11
186.4009746654
 21
187.3931595732
  0
LINE
  5
36E
100
AcDbEntity
  8
03___PRT_ALL_CURVES
100
AcDbLine
 62
4
  6
CONTINUOUS
 10
186.4009746654
 20
180.1014909197
 11
186.4009746654
 21
175.9348282267
  0
LINE
  5
36F
100
AcDbEntity
  8
03___PRT_ALL_CURVES
100
AcDbLine
 62
4
  6
CONTINUOUS
 10
186.4009746654
 20
168.6431595732
 11
186.4009746654
 21
165.5181595732
  0
LINE
  5
370
100
AcDbEntity
  8
03___PRT_ALL_CURVES
100
AcDbLine
 62
4
  6
CONTINUOUS
 10
186.4009746654
 20
161.3514938999
 11
186.4009746654
 21
142.6014924098
  0
LINE
  5
371
100
AcDbEntity
  8
03___PRT_ALL_CURVES
100
AcDbLine
 62
4
  6
CONTINUOUS
 10
186.4009746654
 20
130.1014931549
 11
186.4009746654
 21
126.9764931549
  0
LINE
  5
372
100
AcDbEntity
  8
03___PRT_ALL_CURVES
100
AcDbLine
 62
4
  6
CONTINUOUS
 10
186.4009746654
 20
175.9348282267
 11
166.7201229675
 21
168.6431595732
  0
LINE
  5
373
100
AcDbEntity
  8
03___PRT_ALL_CURVES
100
AcDbLine
 62
4
  6
CONTINUOUS
 10
161.4009746654
 20
170.2056595732
 11
183.7414001419
 21
178.0181595732
  0
LINE
  5
374
100
AcDbEntity
  8
03___PRT_ALL_CURVES
100
AcDbLine
 62
4
  6
CONTINUOUS
 10
106.4009746654
 20
250.5181595732
 11
109.0605488165
 21
250.5181595732
  0
LINE
  5
375
100
AcDbEntity
  8
03___PRT_ALL_CURVES
100
AcDbLine
 62
4
  6
CONTINUOUS
 10
131.4009746654
 20
254.6848222662
 11
106.4009746654
 21
254.6848222662
  0
LINE
  5
376
100
AcDbEntity
  8
03___PRT_ALL_CURVES
100
AcDbLine
 62
4
  6
CONTINUOUS
 10
177.890336637
 20
246.7681595732
 11
163.5286339863
 21
251.4556595732
  0
LINE
  5
377
100
AcDbEntity
  8
03___PRT_ALL_CURVES
100
AcDbLine
 62
4
  6
CONTINUOUS
 10
180.0179959579
 20
246.2473222662
 11
186.4009746654
 21
244.1639968802
  0
LINE
  5
378
100
AcDbEntity
  8
03___PRT_ALL_CURVES
100
AcDbLine
 62
4
  6
CONTINUOUS
 10
186.4009746654
 20
241.0389968802
 11
161.4009746654
 21
249.3723222662
  0
LINE
  5
379
100
AcDbEntity
  8
03___PRT_ALL_CURVES
100
AcDbLine
 62
4
  6
CONTINUOUS
 10
131.4009746654
 20
139.0598259915
 11
111.7201229675
 21
131.7681595732
  0
LINE
  5
37A
100
AcDbEntity
  8
03___PRT_ALL_CURVES
100
AcDbLine
 62
4
  6
CONTINUOUS
 10
106.4009746654
 20
133.3306595732
 11
128.7414001419
 21
141.1431595732
  0
LINE
  5
37B
100
AcDbEntity
  8
03___PRT_ALL_CURVES
100
AcDbLine
 62
4
  6
CONTINUOUS
 10
106.4009746654
 20
257.8098222662
 11
131.4009746654
 21
257.8098222662
  0
LINE
  5
37C
100
AcDbEntity
  8
03___PRT_ALL_CURVES
100
AcDbLine
 62
4
  6
CONTINUOUS
 10
131.4009746654
 20
261.9764968802
 11
106.4009746654
 21
261.9764968802
  0
LINE
  5
37D
100
AcDbEntity
  8
03___PRT_ALL_CURVES
100
AcDbLine
 62
4
  6
CONTINUOUS
 10
109.5924636467
 20
265.1014968802
 11
131.4009746654
 21
265.1014968802
  0
LINE
  5
37E
100
AcDbEntity
  8
03___PRT_ALL_CURVES
100
AcDbLine
 62
4
  6
CONTINUOUS
 10
164.0605488165
 20
266.0389968802
 11
161.4009746654
 21
266.0389968802
  0
LINE
  5
37F
100
AcDbEntity
  8
03___PRT_ALL_CURVES
100
AcDbLine
 62
4
  6
CONTINUOUS
 10
112.2520377977
 20
287.4973222662
 11
110.1243784769
 21
288.5389968802
  0
LINE
  5
380
100
AcDbEntity
  8
03___PRT_ALL_CURVES
100
AcDbLine
 62
4
  6
CONTINUOUS
 10
111.1882081373
 20
291.6639968802
 11
112.783954118
 21
290.6223222662
  0
LINE
  5
381
100
AcDbEntity
  8
03___PRT_ALL_CURVES
100
AcDbLine
 62
4
  6
CONTINUOUS
 10
127.6775704814
 20
306.7681595732
 11
129.8052299885
 21
304.6848222662
  0
LINE
  5
382
100
AcDbEntity
  8
03___PRT_ALL_CURVES
100
AcDbLine
 62
4
  6
CONTINUOUS
 10
186.4009746654
 20
274.3723222662
 11
164.0605488165
 21
274.3723222662
  0
LINE
  5
383
100
AcDbEntity
  8
03___PRT_ALL_CURVES
100
AcDbLine
 62
4
  6
CONTINUOUS
 10
164.0605488165
 20
277.4973222662
 11
186.4009746654
 21
277.4973222662
  0
LINE
  5
384
100
AcDbEntity
  8
03___PRT_ALL_CURVES
100
AcDbLine
 62
4
  6
CONTINUOUS
 10
127.6775704814
 20
279.6848222662
 11
106.4009746654
 21
279.6848222662
  0
LINE
  5
385
100
AcDbEntity
  8
03___PRT_ALL_CURVES
100
AcDbLine
 62
4
  6
CONTINUOUS
 10
114.9116134389
 20
286.9764968802
 11
112.2520377977
 21
287.4973222662
  0
LINE
  5
386
100
AcDbEntity
  8
03___PRT_ALL_CURVES
100
AcDbLine
 62
4
  6
CONTINUOUS
 10
112.783954118
 20
290.6223222662
 11
114.9116134389
 21
290.1014968802
  0
LINE
  5
387
100
AcDbEntity
  8
0
100
AcDbLine
 62
7
  6
CONTINUOUS
 10
226.4009746654
 20
108.6431595732
 11
226.4009746654
 21
318.6431595732
  0
LINE
  5
388
100
AcDbEntity
  8
02___PRT_ALL_AXES
100
AcDbLine
 62
7
  6
CENTER
 10
231.4009746654
 20
328.6431595732
 11
231.4009746654
 21
322.6431595732
  0
LINE
  5
389
100
AcDbEntity
  8
02___PRT_ALL_AXES
100
AcDbLine
 62
7
  6
CENTER
 10
231.4009746654
 20
98.6431595732
 11
231.4009746654
 21
92.6431595732
  0
LINE
  5
38A
100
AcDbEntity
  8
02___PRT_ALL_AXES
100
AcDbLine
 62
7
  6
CENTER
 10
231.4009746654
 20
98.6431595732
 11
231.4009746654
 21
104.6431595732
  0
LINE
  5
38B
100
AcDbEntity
  8
02___PRT_ALL_AXES
100
AcDbLine
 62
7
  6
CENTER
 10
231.4009746654
 20
328.6431595732
 11
231.4009746654
 21
334.6431595732
  0
LINE
  5
38C
100
AcDbEntity
  8
03___PRT_ALL_CURVES
100
AcDbLine
 62
4
  6
CONTINUOUS
 10
125.5499107881
 20
287.4973222662
 11
122.890336637
 21
286.9764968802
  0
LINE
  5
38D
100
AcDbEntity
  8
03___PRT_ALL_CURVES
100
AcDbLine
 62
4
  6
CONTINUOUS
 10
106.4009746654
 20
282.8098222662
 11
131.4009746654
 21
282.8098222662
  0
LINE
  5
38E
100
AcDbEntity
  8
03___PRT_ALL_CURVES
100
AcDbLine
 62
4
  6
CONTINUOUS
 10
161.4009746654
 20
285.8306595732
 11
164.0605488165
 21
285.8306595732
  0
LINE
  5
38F
100
AcDbEntity
  8
03___PRT_ALL_CURVES
100
AcDbLine
 62
4
  6
CONTINUOUS
 10
122.890336637
 20
286.9764968802
 11
114.9116134389
 21
286.9764968802
  0
LINE
  5
390
100
AcDbEntity
  8
03___PRT_ALL_CURVES
100
AcDbLine
 62
4
  6
CONTINUOUS
 10
186.4009746654
 20
289.9973222662
 11
161.4009746654
 21
289.9973222662
  0
LINE
  5
391
100
AcDbEntity
  8
03___PRT_ALL_CURVES
100
AcDbLine
 62
4
  6
CONTINUOUS
 10
114.9116134389
 20
290.1014968802
 11
122.890336637
 21
290.1014968802
  0
LINE
  5
392
100
AcDbEntity
  8
03___PRT_ALL_CURVES
100
AcDbLine
 62
4
  6
CONTINUOUS
 10
126.6137404485
 20
303.6431595732
 11
125.0179959579
 21
304.1639968802
  0
LINE
  5
393
100
AcDbEntity
  8
03___PRT_ALL_CURVES
100
AcDbLine
 62
4
  6
CONTINUOUS
 10
122.890336637
 20
290.1014968802
 11
125.0179959579
 21
290.6223222662
  0
LINE
  5
394
100
AcDbEntity
  8
03___PRT_ALL_CURVES
100
AcDbLine
 62
4
  6
CONTINUOUS
 10
164.5924636467
 20
293.1223222662
 11
171.5073579295
 21
293.1223222662
  0
LINE
  5
395
100
AcDbEntity
  8
03___PRT_ALL_CURVES
100
AcDbLine
 62
4
  6
CONTINUOUS
 10
174.6988469107
 20
293.1223222662
 11
183.2094853116
 21
293.1223222662
  0
LINE
  5
396
100
AcDbEntity
  8
03___PRT_ALL_CURVES
100
AcDbLine
 62
4
  6
CONTINUOUS
 10
120.7626765711
 20
299.4764968802
 11
117.5711875899
 21
299.4764968802
  0
LINE
  5
397
100
AcDbEntity
  8
03___PRT_ALL_CURVES
100
AcDbLine
 62
4
  6
CONTINUOUS
 10
125.0179959579
 20
304.1639968802
 11
120.7626765711
 21
304.1639968802
  0
LINE
  5
398
100
AcDbEntity
  8
03___PRT_ALL_CURVES
100
AcDbLine
 62
4
  6
CONTINUOUS
 10
125.5499107881
 20
307.2889968802
 11
127.6775704814
 21
306.7681595732
  0
LINE
  5
399
100
AcDbEntity
  8
03___PRT_ALL_CURVES
100
AcDbLine
 62
4
  6
CONTINUOUS
 10
110.1243784769
 20
306.7681595732
 11
112.783954118
 21
307.2889968802
  0
LINE
  5
39A
100
AcDbEntity
  8
03___PRT_ALL_CURVES
100
AcDbLine
 62
4
  6
CONTINUOUS
 10
171.5073579295
 20
306.6639968802
 11
174.6988469107
 21
306.6639968802
  0
LINE
  5
39B
100
AcDbEntity
  8
03___PRT_ALL_CURVES
100
AcDbLine
 62
4
  6
CONTINUOUS
 10
117.5711875899
 20
307.2889968802
 11
125.5499107881
 21
307.2889968802
  0
LINE
  5
39C
100
AcDbEntity
  8
03___PRT_ALL_CURVES
100
AcDbLine
 62
4
  6
CONTINUOUS
 10
161.4009746654
 20
308.7473222662
 11
164.5924636467
 21
308.7473222662
  0
LINE
  5
39D
100
AcDbEntity
  8
03___PRT_ALL_CURVES
100
AcDbLine
 62
4
  6
CONTINUOUS
 10
183.2094853116
 20
308.7473222662
 11
186.4009746654
 21
308.7473222662
  0
LINE
  5
39E
100
AcDbEntity
  8
0
100
AcDbLine
 62
7
  6
CONTINUOUS
 10
226.4009746654
 20
318.6431595732
 11
66.4009746654
 21
318.6431595732
  0
LINE
  5
39F
100
AcDbEntity
  8
02___PRT_ALL_AXES
100
AcDbLine
 62
7
  6
CENTER
 10
231.4009746654
 20
328.6431595732
 11
225.4009746654
 21
328.6431595732
  0
LINE
  5
3A0
100
AcDbEntity
  8
02___PRT_ALL_AXES
100
AcDbLine
 62
7
  6
CENTER
 10
61.4009746654
 20
328.6431595732
 11
55.4009746654
 21
328.6431595732
  0
LINE
  5
3A1
100
AcDbEntity
  8
02___PRT_ALL_AXES
100
AcDbLine
 62
7
  6
CENTER
 10
61.4009746654
 20
328.6431595732
 11
67.4009746654
 21
328.6431595732
  0
LINE
  5
3A2
100
AcDbEntity
  8
02___PRT_ALL_AXES
100
AcDbLine
 62
7
  6
CENTER
 10
231.4009746654
 20
328.6431595732
 11
237.4009746654
 21
328.6431595732
  0
LINE
  5
3A3
100
AcDbEntity
  8
0
100
AcDbLine
 62
7
  6
CONTINUOUS
 10
730.2954675703
 20
33.246260185
 11
911.2954675703
 21
33.246260185
  0
LINE
  5
3A4
100
AcDbEntity
  8
02___PRT_ALL_AXES
100
AcDbLine
 62
7
  6
CENTER
 10
918.7954675703
 20
52.246260185
 11
912.7954675703
 21
52.246260185
  0
LINE
  5
3A5
100
AcDbEntity
  8
02___PRT_ALL_AXES
100
AcDbLine
 62
7
  6
CENTER
 10
722.7954675703
 20
52.246260185
 11
716.7954675703
 21
52.246260185
  0
LINE
  5
3A6
100
AcDbEntity
  8
02___PRT_ALL_AXES
100
AcDbLine
 62
7
  6
CENTER
 10
722.7954675703
 20
52.246260185
 11
728.7954675703
 21
52.246260185
  0
LINE
  5
3A7
100
AcDbEntity
  8
02___PRT_ALL_AXES
100
AcDbLine
 62
7
  6
CENTER
 10
918.7954675703
 20
52.246260185
 11
924.7954675703
 21
52.246260185
  0
LINE
  5
3A8
100
AcDbEntity
  8
02___PRT_ALL_AXES
100
AcDbLine
 62
7
  6
CENTER
 10
722.7954675703
 20
332.246260185
 11
722.7954675703
 21
326.246260185
  0
LINE
  5
3A9
100
AcDbEntity
  8
02___PRT_ALL_AXES
100
AcDbLine
 62
7
  6
CENTER
 10
722.7954675703
 20
52.246260185
 11
722.7954675703
 21
46.246260185
  0
LINE
  5
3AA
100
AcDbEntity
  8
02___PRT_ALL_AXES
100
AcDbLine
 62
7
  6
CENTER
 10
722.7954675703
 20
52.246260185
 11
722.7954675703
 21
58.246260185
  0
LINE
  5
3AB
100
AcDbEntity
  8
02___PRT_ALL_AXES
100
AcDbLine
 62
7
  6
CENTER
 10
722.7954675703
 20
332.246260185
 11
722.7954675703
 21
338.246260185
  0
LINE
  5
3AC
100
AcDbEntity
  8
0
100
AcDbLine
 62
7
  6
CONTINUOUS
 10
730.2954675703
 20
351.246260185
 11
730.2954675703
 21
33.246260185
  0
LINE
  5
3AD
100
AcDbEntity
  8
03___PRT_ALL_CURVES
100
AcDbLine
 62
4
  6
CONTINUOUS
 10
782.3912120609
 20
283.287922878
 11
784.5188713818
 21
285.371260185
  0
LINE
  5
3AE
100
AcDbEntity
  8
03___PRT_ALL_CURVES
100
AcDbLine
 62
4
  6
CONTINUOUS
 10
787.1784470229
 20
282.767097492
 11
785.5827010422
 21
282.246260185
  0
LINE
  5
3AF
100
AcDbEntity
  8
03___PRT_ALL_CURVES
100
AcDbLine
 62
4
  6
CONTINUOUS
 10
838.4550417213
 20
97.246260185
 11
835.7954675703
 21
97.246260185
  0
LINE
  5
3B0
100
AcDbEntity
  8
03___PRT_ALL_CURVES
100
AcDbLine
 62
4
  6
CONTINUOUS
 10
860.7954675703
 20
105.5795937667
 11
838.4550417213
 21
105.5795937667
  0
LINE
  5
3B1
100
AcDbEntity
  8
03___PRT_ALL_CURVES
100
AcDbLine
 62
4
  6
CONTINUOUS
 10
805.7954675703
 20
107.246260185
 11
780.7954675703
 21
107.246260185
  0
LINE
  5
3B2
100
AcDbEntity
  8
03___PRT_ALL_CURVES
100
AcDbLine
 62
4
  6
CONTINUOUS
 10
838.4550417213
 20
108.7045937667
 11
860.7954675703
 21
108.7045937667
  0
LINE
  5
3B3
100
AcDbEntity
  8
03___PRT_ALL_CURVES
100
AcDbLine
 62
4
  6
CONTINUOUS
 10
781.3273824005
 20
281.204597492
 11
782.3912120609
 21
283.287922878
  0
LINE
  5
3B4
100
AcDbEntity
  8
03___PRT_ALL_CURVES
100
AcDbLine
 62
4
  6
CONTINUOUS
 10
785.5827010422
 20
282.246260185
 11
784.5188713818
 21
280.683760185
  0
LINE
  5
3B5
100
AcDbEntity
  8
03___PRT_ALL_CURVES
100
AcDbLine
 62
4
  6
CONTINUOUS
 10
786.1146158724
 20
110.371260185
 11
805.7954675703
 21
110.371260185
  0
LINE
  5
3B6
100
AcDbEntity
  8
03___PRT_ALL_CURVES
100
AcDbLine
 62
4
  6
CONTINUOUS
 10
835.7954675703
 20
117.0379273483
 11
838.4550417213
 21
117.0379273483
  0
LINE
  5
3B7
100
AcDbEntity
  8
03___PRT_ALL_CURVES
100
AcDbLine
 62
4
  6
CONTINUOUS
 10
860.7954675703
 20
121.2045930216
 11
835.7954675703
 21
121.2045930216
  0
LINE
  5
3B8
100
AcDbEntity
  8
03___PRT_ALL_CURVES
100
AcDbLine
 62
4
  6
CONTINUOUS
 10
803.1358930467
 20
119.746260185
 11
780.7954675703
 21
127.558760185
  0
LINE
  5
3B9
100
AcDbEntity
  8
03___PRT_ALL_CURVES
100
AcDbLine
 62
4
  6
CONTINUOUS
 10
786.1146158724
 20
129.121260185
 11
805.7954675703
 21
121.8295930216
  0
LINE
  5
3BA
100
AcDbEntity
  8
03___PRT_ALL_CURVES
100
AcDbLine
 62
4
  6
CONTINUOUS
 10
801.0082333534
 20
270.267097492
 11
802.0720633863
 21
271.829597492
  0
LINE
  5
3BB
100
AcDbEntity
  8
03___PRT_ALL_CURVES
100
AcDbLine
 62
4
  6
CONTINUOUS
 10
804.1997228934
 20
269.225422878
 11
802.0720633863
 21
267.142097492
  0
LINE
  5
3BC
100
AcDbEntity
  8
03___PRT_ALL_CURVES
100
AcDbLine
 62
4
  6
CONTINUOUS
 10
799.4124888628
 20
269.225422878
 11
801.0082333534
 21
270.267097492
  0
LINE
  5
3BD
100
AcDbEntity
  8
03___PRT_ALL_CURVES
100
AcDbLine
 62
4
  6
CONTINUOUS
 10
780.7954675703
 20
245.267097492
 11
802.0720633863
 21
258.287922878
  0
LINE
  5
3BE
100
AcDbEntity
  8
03___PRT_ALL_CURVES
100
AcDbLine
 62
4
  6
CONTINUOUS
 10
805.7954675703
 20
256.725422878
 11
783.9869565516
 21
243.704597492
  0
LINE
  5
3BF
100
AcDbEntity
  8
03___PRT_ALL_CURVES
100
AcDbLine
 62
4
  6
CONTINUOUS
 10
802.0720633863
 20
267.142097492
 11
799.944403693
 21
266.100422878
  0
LINE
  5
3C0
100
AcDbEntity
  8
03___PRT_ALL_CURVES
100
AcDbLine
 62
4
  6
CONTINUOUS
 10
838.9869565516
 20
124.3295945117
 11
845.9018508344
 21
124.3295945117
  0
LINE
  5
3C1
100
AcDbEntity
  8
03___PRT_ALL_CURVES
100
AcDbLine
 62
4
  6
CONTINUOUS
 10
849.0933398156
 20
124.3295945117
 11
857.6039782165
 21
124.3295945117
  0
LINE
  5
3C2
100
AcDbEntity
  8
03___PRT_ALL_CURVES
100
AcDbLine
 62
4
  6
CONTINUOUS
 10
805.7954675703
 20
129.121260185
 11
786.1146158724
 21
129.121260185
  0
LINE
  5
3C3
100
AcDbEntity
  8
03___PRT_ALL_CURVES
100
AcDbLine
 62
4
  6
CONTINUOUS
 10
780.7954675703
 20
132.246260185
 11
805.7954675703
 21
132.246260185
  0
LINE
  5
3C4
100
AcDbEntity
  8
03___PRT_ALL_CURVES
100
AcDbLine
 62
4
  6
CONTINUOUS
 10
797.2848295419
 20
136.4129258582
 11
789.3061063437
 21
136.4129258582
  0
LINE
  5
3C5
100
AcDbEntity
  8
03___PRT_ALL_CURVES
100
AcDbLine
 62
4
  6
CONTINUOUS
 10
845.9018508344
 20
137.871260185
 11
849.0933398156
 21
137.871260185
  0
LINE
  5
3C6
100
AcDbEntity
  8
03___PRT_ALL_CURVES
100
AcDbLine
 62
4
  6
CONTINUOUS
 10
789.3061063437
 20
136.4129258582
 11
786.6465307026
 21
136.933760185
  0
LINE
  5
3C7
100
AcDbEntity
  8
03___PRT_ALL_CURVES
100
AcDbLine
 62
4
  6
CONTINUOUS
 10
789.3061063437
 20
139.5379258582
 11
787.1784470229
 21
140.058760185
  0
LINE
  5
3C8
100
AcDbEntity
  8
03___PRT_ALL_CURVES
100
AcDbLine
 62
4
  6
CONTINUOUS
 10
786.6465307026
 20
136.933760185
 11
784.5188713818
 21
137.9754258582
  0
LINE
  5
3C9
100
AcDbEntity
  8
03___PRT_ALL_CURVES
100
AcDbLine
 62
4
  6
CONTINUOUS
 10
787.1784470229
 20
140.058760185
 11
785.5827010422
 21
141.1004258582
  0
LINE
  5
3CA
100
AcDbEntity
  8
03___PRT_ALL_CURVES
100
AcDbLine
 62
4
  6
CONTINUOUS
 10
784.5188713818
 20
137.9754258582
 11
782.3912120609
 21
140.058760185
  0
LINE
  5
3CB
100
AcDbEntity
  8
03___PRT_ALL_CURVES
100
AcDbLine
 62
4
  6
CONTINUOUS
 10
785.5827010422
 20
141.1004258582
 11
784.5188713818
 21
142.6629258582
  0
LINE
  5
3CC
100
AcDbEntity
  8
03___PRT_ALL_CURVES
100
AcDbLine
 62
4
  6
CONTINUOUS
 10
782.3912120609
 20
140.058760185
 11
781.3273824005
 21
142.1420945117
  0
LINE
  5
3CD
100
AcDbEntity
  8
03___PRT_ALL_CURVES
100
AcDbLine
 62
4
  6
CONTINUOUS
 10
780.7954675703
 20
278.600422878
 11
781.3273824005
 21
281.204597492
  0
LINE
  5
3CE
100
AcDbEntity
  8
03___PRT_ALL_CURVES
100
AcDbLine
 62
4
  6
CONTINUOUS
 10
784.5188713818
 20
280.683760185
 11
783.9869565516
 21
278.600422878
  0
LINE
  5
3CF
100
AcDbEntity
  8
03___PRT_ALL_CURVES
100
AcDbLine
 62
4
  6
CONTINUOUS
 10
805.2635526935
 20
271.308760185
 11
804.1997228934
 21
269.225422878
  0
LINE
  5
3D0
100
AcDbEntity
  8
03___PRT_ALL_CURVES
100
AcDbLine
 62
4
  6
CONTINUOUS
 10
799.4124888628
 20
140.058760185
 11
797.2848295419
 21
139.5379258582
  0
LINE
  5
3D1
100
AcDbEntity
  8
03___PRT_ALL_CURVES
100
AcDbLine
 62
4
  6
CONTINUOUS
 10
799.944403693
 20
136.933760185
 11
797.2848295419
 21
136.4129258582
  0
LINE
  5
3D2
100
AcDbEntity
  8
03___PRT_ALL_CURVES
100
AcDbLine
 62
4
  6
CONTINUOUS
 10
797.2848295419
 20
139.5379258582
 11
789.3061063437
 21
139.5379258582
  0
LINE
  5
3D3
100
AcDbEntity
  8
03___PRT_ALL_CURVES
100
AcDbLine
 62
4
  6
CONTINUOUS
 10
835.7954675703
 20
139.9545945117
 11
838.9869565516
 21
139.9545945117
  0
LINE
  5
3D4
100
AcDbEntity
  8
03___PRT_ALL_CURVES
100
AcDbLine
 62
4
  6
CONTINUOUS
 10
857.6039782165
 20
139.9545945117
 11
860.7954675703
 21
139.9545945117
  0
LINE
  5
3D5
100
AcDbEntity
  8
03___PRT_ALL_CURVES
100
AcDbLine
 62
4
  6
CONTINUOUS
 10
860.7954675703
 20
144.121260185
 11
835.7954675703
 21
144.121260185
  0
LINE
  5
3D6
100
AcDbEntity
  8
03___PRT_ALL_CURVES
100
AcDbLine
 62
4
  6
CONTINUOUS
 10
841.1146158724
 20
147.246260185
 11
860.7954675703
 21
147.246260185
  0
LINE
  5
3D7
100
AcDbEntity
  8
03___PRT_ALL_CURVES
100
AcDbLine
 62
4
  6
CONTINUOUS
 10
797.2848295419
 20
157.246260185
 11
799.944403693
 21
156.7254258582
  0
LINE
  5
3D8
100
AcDbEntity
  8
03___PRT_ALL_CURVES
100
AcDbLine
 62
4
  6
CONTINUOUS
 10
797.2848295419
 20
154.121260185
 11
799.4124888628
 21
153.6004258582
  0
LINE
  5
3D9
100
AcDbEntity
  8
03___PRT_ALL_CURVES
100
AcDbLine
 62
4
  6
CONTINUOUS
 10
799.944403693
 20
156.7254258582
 11
802.0720633863
 21
155.683760185
  0
LINE
  5
3DA
100
AcDbEntity
  8
03___PRT_ALL_CURVES
100
AcDbLine
 62
4
  6
CONTINUOUS
 10
799.4124888628
 20
153.6004258582
 11
801.0082333534
 21
152.558760185
  0
LINE
  5
3DB
100
AcDbEntity
  8
03___PRT_ALL_CURVES
100
AcDbLine
 62
4
  6
CONTINUOUS
 10
802.0720633863
 20
155.683760185
 11
804.1997228934
 21
153.6004258582
  0
LINE
  5
3DC
100
AcDbEntity
  8
03___PRT_ALL_CURVES
100
AcDbLine
 62
4
  6
CONTINUOUS
 10
784.5188713818
 20
142.6629258582
 11
783.9869565516
 21
144.746260185
  0
LINE
  5
3DD
100
AcDbEntity
  8
03___PRT_ALL_CURVES
100
AcDbLine
 62
4
  6
CONTINUOUS
 10
781.3273824005
 20
142.1420945117
 11
780.7954675703
 21
144.746260185
  0
LINE
  5
3DE
100
AcDbEntity
  8
03___PRT_ALL_CURVES
100
AcDbLine
 62
4
  6
CONTINUOUS
 10
780.7954675703
 20
180.1629288385
 11
780.7954675703
 21
177.0379288385
  0
LINE
  5
3DF
100
AcDbEntity
  8
03___PRT_ALL_CURVES
100
AcDbLine
 62
4
  6
CONTINUOUS
 10
780.7954675703
 20
164.5379288385
 11
780.7954675703
 21
161.4129288385
  0
LINE
  5
3E0
100
AcDbEntity
  8
03___PRT_ALL_CURVES
100
AcDbLine
 62
4
  6
CONTINUOUS
 10
780.7954675703
 20
107.246260185
 11
780.7954675703
 21
111.933760185
  0
LINE
  5
3E1
100
AcDbEntity
  8
03___PRT_ALL_CURVES
100
AcDbLine
 62
4
  6
CONTINUOUS
 10
780.7954675703
 20
127.558760185
 11
780.7954675703
 21
132.246260185
  0
LINE
  5
3E2
100
AcDbEntity
  8
03___PRT_ALL_CURVES
100
AcDbLine
 62
4
  6
CONTINUOUS
 10
780.7954675703
 20
144.746260185
 11
780.7954675703
 21
148.9129258582
  0
LINE
  5
3E3
100
AcDbEntity
  8
03___PRT_ALL_CURVES
100
AcDbLine
 62
4
  6
CONTINUOUS
 10
780.7954675703
 20
184.3295915315
 11
780.7954675703
 21
189.0170915315
  0
LINE
  5
3E4
100
AcDbEntity
  8
03___PRT_ALL_CURVES
100
AcDbLine
 62
4
  6
CONTINUOUS
 10
780.7954675703
 20
202.0379288385
 11
780.7954675703
 21
205.1629288385
  0
LINE
  5
3E5
100
AcDbEntity
  8
03___PRT_ALL_CURVES
100
AcDbLine
 62
4
  6
CONTINUOUS
 10
780.7954675703
 20
209.329597492
 11
780.7954675703
 21
229.121260185
  0
LINE
  5
3E6
100
AcDbEntity
  8
03___PRT_ALL_CURVES
100
AcDbLine
 62
4
  6
CONTINUOUS
 10
780.7954675703
 20
233.287922878
 11
780.7954675703
 21
236.412922878
  0
LINE
  5
3E7
100
AcDbEntity
  8
03___PRT_ALL_CURVES
100
AcDbLine
 62
4
  6
CONTINUOUS
 10
780.7954675703
 20
240.579597492
 11
780.7954675703
 21
245.267097492
  0
LINE
  5
3E8
100
AcDbEntity
  8
03___PRT_ALL_CURVES
100
AcDbLine
 62
4
  6
CONTINUOUS
 10
780.7954675703
 20
258.287922878
 11
780.7954675703
 21
261.412922878
  0
LINE
  5
3E9
100
AcDbEntity
  8
03___PRT_ALL_CURVES
100
AcDbLine
 62
4
  6
CONTINUOUS
 10
780.7954675703
 20
273.912922878
 11
780.7954675703
 21
278.600422878
  0
LINE
  5
3EA
100
AcDbEntity
  8
03___PRT_ALL_CURVES
100
AcDbLine
 62
4
  6
CONTINUOUS
 10
783.4550417213
 20
229.121260185
 11
783.4550417213
 21
220.787922878
  0
LINE
  5
3EB
100
AcDbEntity
  8
03___PRT_ALL_CURVES
100
AcDbLine
 62
4
  6
CONTINUOUS
 10
783.4550417213
 20
217.662922878
 11
783.4550417213
 21
209.329597492
  0
LINE
  5
3EC
100
AcDbEntity
  8
03___PRT_ALL_CURVES
100
AcDbLine
 62
4
  6
CONTINUOUS
 10
783.9869565516
 20
278.600422878
 11
783.9869565516
 21
273.912922878
  0
LINE
  5
3ED
100
AcDbEntity
  8
03___PRT_ALL_CURVES
100
AcDbLine
 62
4
  6
CONTINUOUS
 10
783.9869565516
 20
144.746260185
 11
783.9869565516
 21
148.9129258582
  0
LINE
  5
3EE
100
AcDbEntity
  8
03___PRT_ALL_CURVES
100
AcDbLine
 62
4
  6
CONTINUOUS
 10
787.1784470229
 20
285.892097492
 11
787.1784470229
 21
282.767097492
  0
LINE
  5
3EF
100
AcDbEntity
  8
03___PRT_ALL_CURVES
100
AcDbLine
 62
4
  6
CONTINUOUS
 10
791.9656804948
 20
278.079597492
 11
791.9656804948
 21
285.892097492
  0
LINE
  5
3F0
100
AcDbEntity
  8
03___PRT_ALL_CURVES
100
AcDbLine
 62
4
  6
CONTINUOUS
 10
805.7954675703
 20
273.912922878
 11
805.2635526935
 21
271.308760185
  0
LINE
  5
3F1
100
AcDbEntity
  8
03___PRT_ALL_CURVES
100
AcDbLine
 62
4
  6
CONTINUOUS
 10
780.7954675703
 20
148.9129258582
 11
781.3273824005
 21
151.5170945117
  0
LINE
  5
3F2
100
AcDbEntity
  8
03___PRT_ALL_CURVES
100
AcDbLine
 62
4
  6
CONTINUOUS
 10
802.0720633863
 20
271.829597492
 11
802.6039782165
 21
273.912922878
  0
LINE
  5
3F3
100
AcDbEntity
  8
03___PRT_ALL_CURVES
100
AcDbLine
 62
4
  6
CONTINUOUS
 10
835.7954675703
 20
232.142097492
 11
860.7954675703
 21
240.475422878
  0
LINE
  5
3F4
100
AcDbEntity
  8
03___PRT_ALL_CURVES
100
AcDbLine
 62
4
  6
CONTINUOUS
 10
787.1784470229
 20
153.6004258582
 11
789.3061063437
 21
154.121260185
  0
LINE
  5
3F5
100
AcDbEntity
  8
03___PRT_ALL_CURVES
100
AcDbLine
 62
4
  6
CONTINUOUS
 10
786.6465307026
 20
156.7254258582
 11
789.3061063437
 21
157.246260185
  0
LINE
  5
3F6
100
AcDbEntity
  8
03___PRT_ALL_CURVES
100
AcDbLine
 62
4
  6
CONTINUOUS
 10
797.2848295419
 20
161.4129288385
 11
799.944403693
 21
161.933760185
  0
LINE
  5
3F7
100
AcDbEntity
  8
03___PRT_ALL_CURVES
100
AcDbLine
 62
4
  6
CONTINUOUS
 10
789.3061063437
 20
154.121260185
 11
797.2848295419
 21
154.121260185
  0
LINE
  5
3F8
100
AcDbEntity
  8
03___PRT_ALL_CURVES
100
AcDbLine
 62
4
  6
CONTINUOUS
 10
789.3061063437
 20
157.246260185
 11
797.2848295419
 21
157.246260185
  0
LINE
  5
3F9
100
AcDbEntity
  8
03___PRT_ALL_CURVES
100
AcDbLine
 62
4
  6
CONTINUOUS
 10
780.7954675703
 20
161.4129288385
 11
797.2848295419
 21
161.4129288385
  0
LINE
  5
3FA
100
AcDbEntity
  8
03___PRT_ALL_CURVES
100
AcDbLine
 62
4
  6
CONTINUOUS
 10
797.2848295419
 20
164.5379288385
 11
780.7954675703
 21
164.5379288385
  0
LINE
  5
3FB
100
AcDbEntity
  8
03___PRT_ALL_CURVES
100
AcDbLine
 62
4
  6
CONTINUOUS
 10
860.7954675703
 20
165.996260185
 11
841.1146158724
 21
165.996260185
  0
LINE
  5
3FC
100
AcDbEntity
  8
03___PRT_ALL_CURVES
100
AcDbLine
 62
4
  6
CONTINUOUS
 10
799.4124888628
 20
176.5170915315
 11
801.0082333534
 21
175.4754288385
  0
LINE
  5
3FD
100
AcDbEntity
  8
03___PRT_ALL_CURVES
100
AcDbLine
 62
4
  6
CONTINUOUS
 10
801.0082333534
 20
152.558760185
 11
802.0720633863
 21
150.996260185
  0
LINE
  5
3FE
100
AcDbEntity
  8
03___PRT_ALL_CURVES
100
AcDbLine
 62
4
  6
CONTINUOUS
 10
801.0082333534
 20
175.4754288385
 11
802.0720633863
 21
173.9129288385
  0
LINE
  5
3FF
100
AcDbEntity
  8
03___PRT_ALL_CURVES
100
AcDbLine
 62
4
  6
CONTINUOUS
 10
804.1997228934
 20
153.6004258582
 11
805.2635526935
 21
151.5170945117
  0
LINE
  5
400
100
AcDbEntity
  8
03___PRT_ALL_CURVES
100
AcDbLine
 62
4
  6
CONTINUOUS
 10
802.0720633863
 20
150.996260185
 11
802.6039782165
 21
148.9129258582
  0
LINE
  5
401
100
AcDbEntity
  8
03___PRT_ALL_CURVES
100
AcDbLine
 62
4
  6
CONTINUOUS
 10
795.157169476
 20
282.767097492
 11
795.157169476
 21
278.079597492
  0
LINE
  5
402
100
AcDbEntity
  8
03___PRT_ALL_CURVES
100
AcDbLine
 62
4
  6
CONTINUOUS
 10
802.6039782165
 20
171.8295915315
 11
802.6039782165
 21
169.746260185
  0
LINE
  5
403
100
AcDbEntity
  8
03___PRT_ALL_CURVES
100
AcDbLine
 62
4
  6
CONTINUOUS
 10
802.6039782165
 20
148.9129258582
 11
802.6039782165
 21
144.746260185
  0
LINE
  5
404
100
AcDbEntity
  8
03___PRT_ALL_CURVES
100
AcDbLine
 62
4
  6
CONTINUOUS
 10
802.6039782165
 20
273.912922878
 11
802.6039782165
 21
278.600422878
  0
LINE
  5
405
100
AcDbEntity
  8
03___PRT_ALL_CURVES
100
AcDbLine
 62
4
  6
CONTINUOUS
 10
805.7954675703
 20
278.600422878
 11
805.7954675703
 21
273.912922878
  0
LINE
  5
406
100
AcDbEntity
  8
03___PRT_ALL_CURVES
100
AcDbLine
 62
4
  6
CONTINUOUS
 10
805.7954675703
 20
261.412922878
 11
805.7954675703
 21
256.725422878
  0
LINE
  5
407
100
AcDbEntity
  8
03___PRT_ALL_CURVES
100
AcDbLine
 62
4
  6
CONTINUOUS
 10
805.7954675703
 20
243.704597492
 11
805.7954675703
 21
240.579597492
  0
LINE
  5
408
100
AcDbEntity
  8
03___PRT_ALL_CURVES
100
AcDbLine
 62
4
  6
CONTINUOUS
 10
805.7954675703
 20
236.412922878
 11
805.7954675703
 21
233.287922878
  0
LINE
  5
409
100
AcDbEntity
  8
03___PRT_ALL_CURVES
100
AcDbLine
 62
4
  6
CONTINUOUS
 10
805.7954675703
 20
220.787922878
 11
805.7954675703
 21
217.662922878
  0
LINE
  5
40A
100
AcDbEntity
  8
03___PRT_ALL_CURVES
100
AcDbLine
 62
4
  6
CONTINUOUS
 10
805.7954675703
 20
205.1629288385
 11
805.7954675703
 21
200.4754288385
  0
LINE
  5
40B
100
AcDbEntity
  8
03___PRT_ALL_CURVES
100
AcDbLine
 62
4
  6
CONTINUOUS
 10
805.7954675703
 20
187.4545915315
 11
805.7954675703
 21
184.3295915315
  0
LINE
  5
40C
100
AcDbEntity
  8
03___PRT_ALL_CURVES
100
AcDbLine
 62
4
  6
CONTINUOUS
 10
805.7954675703
 20
148.9129258582
 11
805.7954675703
 21
144.746260185
  0
LINE
  5
40D
100
AcDbEntity
  8
03___PRT_ALL_CURVES
100
AcDbLine
 62
4
  6
CONTINUOUS
 10
805.7954675703
 20
132.246260185
 11
805.7954675703
 21
129.121260185
  0
LINE
  5
40E
100
AcDbEntity
  8
03___PRT_ALL_CURVES
100
AcDbLine
 62
4
  6
CONTINUOUS
 10
805.7954675703
 20
121.8295930216
 11
805.7954675703
 21
117.6629266033
  0
LINE
  5
40F
100
AcDbEntity
  8
03___PRT_ALL_CURVES
100
AcDbLine
 62
4
  6
CONTINUOUS
 10
805.7954675703
 20
110.371260185
 11
805.7954675703
 21
107.246260185
  0
LINE
  5
410
100
AcDbEntity
  8
03___PRT_ALL_CURVES
100
AcDbLine
 62
4
  6
CONTINUOUS
 10
805.7954675703
 20
169.746260185
 11
805.7954675703
 21
171.8295915315
  0
LINE
  5
411
100
AcDbEntity
  8
03___PRT_ALL_CURVES
100
AcDbLine
 62
4
  6
CONTINUOUS
 10
783.9869565516
 20
148.9129258582
 11
784.5188713818
 21
150.996260185
  0
LINE
  5
412
100
AcDbEntity
  8
03___PRT_ALL_CURVES
100
AcDbLine
 62
4
  6
CONTINUOUS
 10
781.3273824005
 20
151.5170945117
 11
782.3912120609
 21
153.6004258582
  0
LINE
  5
413
100
AcDbEntity
  8
03___PRT_ALL_CURVES
100
AcDbLine
 62
4
  6
CONTINUOUS
 10
780.7954675703
 20
189.0170915315
 11
802.0720633863
 21
202.0379288385
  0
LINE
  5
414
100
AcDbEntity
  8
03___PRT_ALL_CURVES
100
AcDbLine
 62
4
  6
CONTINUOUS
 10
837.9231268911
 20
230.058760185
 11
852.2848295419
 21
234.746260185
  0
LINE
  5
415
100
AcDbEntity
  8
03___PRT_ALL_CURVES
100
AcDbLine
 62
4
  6
CONTINUOUS
 10
860.7954675703
 20
237.350422878
 11
854.4124888628
 21
235.267097492
  0
LINE
  5
416
100
AcDbEntity
  8
03___PRT_ALL_CURVES
100
AcDbLine
 62
4
  6
CONTINUOUS
 10
799.4124888628
 20
165.058760185
 11
797.2848295419
 21
164.5379288385
  0
LINE
  5
417
100
AcDbEntity
  8
03___PRT_ALL_CURVES
100
AcDbLine
 62
4
  6
CONTINUOUS
 10
835.7954675703
 20
169.121260185
 11
860.7954675703
 21
169.121260185
  0
LINE
  5
418
100
AcDbEntity
  8
03___PRT_ALL_CURVES
100
AcDbLine
 62
4
  6
CONTINUOUS
 10
860.7954675703
 20
173.2879288385
 11
835.7954675703
 21
173.2879288385
  0
LINE
  5
419
100
AcDbEntity
  8
03___PRT_ALL_CURVES
100
AcDbLine
 62
4
  6
CONTINUOUS
 10
838.4550417213
 20
176.4129288385
 11
846.4337656646
 21
176.4129288385
  0
LINE
  5
41A
100
AcDbEntity
  8
03___PRT_ALL_CURVES
100
AcDbLine
 62
4
  6
CONTINUOUS
 10
849.6252546458
 20
176.4129288385
 11
860.7954675703
 21
176.4129288385
  0
LINE
  5
41B
100
AcDbEntity
  8
03___PRT_ALL_CURVES
100
AcDbLine
 62
4
  6
CONTINUOUS
 10
780.7954675703
 20
177.0379288385
 11
797.2848295419
 21
177.0379288385
  0
LINE
  5
41C
100
AcDbEntity
  8
03___PRT_ALL_CURVES
100
AcDbLine
 62
4
  6
CONTINUOUS
 10
797.2848295419
 20
180.1629288385
 11
780.7954675703
 21
180.1629288385
  0
LINE
  5
41D
100
AcDbEntity
  8
03___PRT_ALL_CURVES
100
AcDbLine
 62
4
  6
CONTINUOUS
 10
799.944403693
 20
179.6420915315
 11
797.2848295419
 21
180.1629288385
  0
LINE
  5
41E
100
AcDbEntity
  8
03___PRT_ALL_CURVES
100
AcDbLine
 62
4
  6
CONTINUOUS
 10
797.2848295419
 20
177.0379288385
 11
799.4124888628
 21
176.5170915315
  0
LINE
  5
41F
100
AcDbEntity
  8
03___PRT_ALL_CURVES
100
AcDbLine
 62
4
  6
CONTINUOUS
 10
858.1358930467
 20
156.621260185
 11
835.7954675703
 21
164.433760185
  0
LINE
  5
420
100
AcDbEntity
  8
03___PRT_ALL_CURVES
100
AcDbLine
 62
4
  6
CONTINUOUS
 10
841.1146158724
 20
165.996260185
 11
860.7954675703
 21
158.7045915315
  0
LINE
  5
421
100
AcDbEntity
  8
03___PRT_ALL_CURVES
100
AcDbLine
 62
4
  6
CONTINUOUS
 10
802.0720633863
 20
178.6004288385
 11
799.944403693
 21
179.6420915315
  0
LINE
  5
422
100
AcDbEntity
  8
03___PRT_ALL_CURVES
100
AcDbLine
 62
4
  6
CONTINUOUS
 10
804.1997228934
 20
176.5170915315
 11
802.0720633863
 21
178.6004288385
  0
LINE
  5
423
100
AcDbEntity
  8
03___PRT_ALL_CURVES
100
AcDbLine
 62
4
  6
CONTINUOUS
 10
805.2635526935
 20
174.433760185
 11
804.1997228934
 21
176.5170915315
  0
LINE
  5
424
100
AcDbEntity
  8
03___PRT_ALL_CURVES
100
AcDbLine
 62
4
  6
CONTINUOUS
 10
802.0720633863
 20
173.9129288385
 11
802.6039782165
 21
171.8295915315
  0
LINE
  5
425
100
AcDbEntity
  8
03___PRT_ALL_CURVES
100
AcDbLine
 62
4
  6
CONTINUOUS
 10
783.9869565516
 20
273.912922878
 11
784.5188713818
 21
271.829597492
  0
LINE
  5
426
100
AcDbEntity
  8
03___PRT_ALL_CURVES
100
AcDbLine
 62
4
  6
CONTINUOUS
 10
805.2635526935
 20
151.5170945117
 11
805.7954675703
 21
148.9129258582
  0
LINE
  5
427
100
AcDbEntity
  8
03___PRT_ALL_CURVES
100
AcDbLine
 62
4
  6
CONTINUOUS
 10
781.3273824005
 20
271.308760185
 11
780.7954675703
 21
273.912922878
  0
LINE
  5
428
100
AcDbEntity
  8
03___PRT_ALL_CURVES
100
AcDbLine
 62
4
  6
CONTINUOUS
 10
805.7954675703
 20
171.8295915315
 11
805.2635526935
 21
174.433760185
  0
LINE
  5
429
100
AcDbEntity
  8
03___PRT_ALL_CURVES
100
AcDbLine
 62
4
  6
CONTINUOUS
 10
805.2635526935
 20
167.1420915315
 11
805.7954675703
 21
169.746260185
  0
LINE
  5
42A
100
AcDbEntity
  8
03___PRT_ALL_CURVES
100
AcDbLine
 62
4
  6
CONTINUOUS
 10
805.7954675703
 20
144.746260185
 11
805.2635526935
 21
142.1420945117
  0
LINE
  5
42B
100
AcDbEntity
  8
03___PRT_ALL_CURVES
100
AcDbLine
 62
4
  6
CONTINUOUS
 10
802.6039782165
 20
169.746260185
 11
802.0720633863
 21
167.6629288385
  0
LINE
  5
42C
100
AcDbEntity
  8
03___PRT_ALL_CURVES
100
AcDbLine
 62
4
  6
CONTINUOUS
 10
802.6039782165
 20
144.746260185
 11
802.0720633863
 21
142.6629258582
  0
LINE
  5
42D
100
AcDbEntity
  8
03___PRT_ALL_CURVES
100
AcDbLine
 62
4
  6
CONTINUOUS
 10
804.1997228934
 20
165.058760185
 11
805.2635526935
 21
167.1420915315
  0
LINE
  5
42E
100
AcDbEntity
  8
03___PRT_ALL_CURVES
100
AcDbLine
 62
4
  6
CONTINUOUS
 10
784.5188713818
 20
150.996260185
 11
785.5827010422
 21
152.558760185
  0
LINE
  5
42F
100
AcDbEntity
  8
03___PRT_ALL_CURVES
100
AcDbLine
 62
4
  6
CONTINUOUS
 10
802.0720633863
 20
167.6629288385
 11
801.0082333534
 21
166.1004288385
  0
LINE
  5
430
100
AcDbEntity
  8
03___PRT_ALL_CURVES
100
AcDbLine
 62
4
  6
CONTINUOUS
 10
805.7954675703
 20
200.4754288385
 11
783.9869565516
 21
187.4545915315
  0
LINE
  5
431
100
AcDbEntity
  8
03___PRT_ALL_CURVES
100
AcDbLine
 62
4
  6
CONTINUOUS
 10
805.7954675703
 20
184.3295915315
 11
780.7954675703
 21
184.3295915315
  0
LINE
  5
432
100
AcDbEntity
  8
03___PRT_ALL_CURVES
100
AcDbLine
 62
4
  6
CONTINUOUS
 10
783.9869565516
 20
187.4545915315
 11
805.7954675703
 21
187.4545915315
  0
LINE
  5
433
100
AcDbEntity
  8
03___PRT_ALL_CURVES
100
AcDbLine
 62
4
  6
CONTINUOUS
 10
843.2422766833
 20
189.433760185
 11
841.6465307026
 21
189.433760185
  0
LINE
  5
434
100
AcDbEntity
  8
03___PRT_ALL_CURVES
100
AcDbLine
 62
4
  6
CONTINUOUS
 10
841.6465307026
 20
192.558760185
 11
843.7741915135
 21
192.558760185
  0
LINE
  5
435
100
AcDbEntity
  8
03___PRT_ALL_CURVES
100
AcDbLine
 62
4
  6
CONTINUOUS
 10
860.7954675703
 20
196.7254288385
 11
835.7954675703
 21
196.7254288385
  0
LINE
  5
436
100
AcDbEntity
  8
03___PRT_ALL_CURVES
100
AcDbLine
 62
4
  6
CONTINUOUS
 10
844.838021174
 20
188.9129288385
 11
843.2422766833
 21
189.433760185
  0
LINE
  5
437
100
AcDbEntity
  8
03___PRT_ALL_CURVES
100
AcDbLine
 62
4
  6
CONTINUOUS
 10
782.3912120609
 20
269.225422878
 11
781.3273824005
 21
271.308760185
  0
LINE
  5
438
100
AcDbEntity
  8
03___PRT_ALL_CURVES
100
AcDbLine
 62
4
  6
CONTINUOUS
 10
802.6039782165
 20
278.600422878
 11
802.0720633863
 21
280.683760185
  0
LINE
  5
439
100
AcDbEntity
  8
03___PRT_ALL_CURVES
100
AcDbLine
 62
4
  6
CONTINUOUS
 10
805.2635526935
 20
281.204597492
 11
805.7954675703
 21
278.600422878
  0
LINE
  5
43A
100
AcDbEntity
  8
03___PRT_ALL_CURVES
100
AcDbLine
 62
4
  6
CONTINUOUS
 10
835.7954675703
 20
97.246260185
 11
835.7954675703
 21
117.0379273483
  0
LINE
  5
43B
100
AcDbEntity
  8
03___PRT_ALL_CURVES
100
AcDbLine
 62
4
  6
CONTINUOUS
 10
835.7954675703
 20
121.2045930216
 11
835.7954675703
 21
139.9545945117
  0
LINE
  5
43C
100
AcDbEntity
  8
03___PRT_ALL_CURVES
100
AcDbLine
 62
4
  6
CONTINUOUS
 10
835.7954675703
 20
144.121260185
 11
835.7954675703
 21
148.808760185
  0
LINE
  5
43D
100
AcDbEntity
  8
03___PRT_ALL_CURVES
100
AcDbLine
 62
4
  6
CONTINUOUS
 10
835.7954675703
 20
164.433760185
 11
835.7954675703
 21
169.121260185
  0
LINE
  5
43E
100
AcDbEntity
  8
03___PRT_ALL_CURVES
100
AcDbLine
 62
4
  6
CONTINUOUS
 10
835.7954675703
 20
173.2879288385
 11
835.7954675703
 21
185.7879288385
  0
LINE
  5
43F
100
AcDbEntity
  8
03___PRT_ALL_CURVES
100
AcDbLine
 62
4
  6
CONTINUOUS
 10
835.7954675703
 20
196.7254288385
 11
835.7954675703
 21
199.850422878
  0
LINE
  5
440
100
AcDbEntity
  8
03___PRT_ALL_CURVES
100
AcDbLine
 62
4
  6
CONTINUOUS
 10
835.7954675703
 20
227.975422878
 11
835.7954675703
 21
232.142097492
  0
LINE
  5
441
100
AcDbEntity
  8
03___PRT_ALL_CURVES
100
AcDbLine
 62
4
  6
CONTINUOUS
 10
835.7954675703
 20
244.642097492
 11
835.7954675703
 21
264.433760185
  0
LINE
  5
442
100
AcDbEntity
  8
03___PRT_ALL_CURVES
100
AcDbLine
 62
4
  6
CONTINUOUS
 10
835.7954675703
 20
268.600422878
 11
835.7954675703
 21
287.350422878
  0
LINE
  5
443
100
AcDbEntity
  8
03___PRT_ALL_CURVES
100
AcDbLine
 62
4
  6
CONTINUOUS
 10
838.4550417213
 20
264.433760185
 11
838.4550417213
 21
256.100422878
  0
LINE
  5
444
100
AcDbEntity
  8
03___PRT_ALL_CURVES
100
AcDbLine
 62
4
  6
CONTINUOUS
 10
838.4550417213
 20
252.975422878
 11
838.4550417213
 21
244.642097492
  0
LINE
  5
445
100
AcDbEntity
  8
03___PRT_ALL_CURVES
100
AcDbLine
 62
4
  6
CONTINUOUS
 10
838.4550417213
 20
186.308760185
 11
838.4550417213
 21
176.4129288385
  0
LINE
  5
446
100
AcDbEntity
  8
03___PRT_ALL_CURVES
100
AcDbLine
 62
4
  6
CONTINUOUS
 10
838.4550417213
 20
117.0379273483
 11
838.4550417213
 21
108.7045937667
  0
LINE
  5
447
100
AcDbEntity
  8
03___PRT_ALL_CURVES
100
AcDbLine
 62
4
  6
CONTINUOUS
 10
838.4550417213
 20
105.5795937667
 11
838.4550417213
 21
97.246260185
  0
LINE
  5
448
100
AcDbEntity
  8
03___PRT_ALL_CURVES
100
AcDbLine
 62
4
  6
CONTINUOUS
 10
838.9869565516
 20
287.350422878
 11
838.9869565516
 21
271.725422878
  0
LINE
  5
449
100
AcDbEntity
  8
03___PRT_ALL_CURVES
100
AcDbLine
 62
4
  6
CONTINUOUS
 10
838.9869565516
 20
139.9545945117
 11
838.9869565516
 21
124.3295945117
  0
LINE
  5
44A
100
AcDbEntity
  8
03___PRT_ALL_CURVES
100
AcDbLine
 62
4
  6
CONTINUOUS
 10
835.7954675703
 20
185.7879288385
 11
836.3273824005
 21
188.3920915315
  0
LINE
  5
44B
100
AcDbEntity
  8
03___PRT_ALL_CURVES
100
AcDbLine
 62
4
  6
CONTINUOUS
 10
805.2635526935
 20
142.1420945117
 11
804.1997228934
 21
140.058760185
  0
LINE
  5
44C
100
AcDbEntity
  8
03___PRT_ALL_CURVES
100
AcDbLine
 62
4
  6
CONTINUOUS
 10
802.0720633863
 20
142.6629258582
 11
801.0082333534
 21
141.1004258582
  0
LINE
  5
44D
100
AcDbEntity
  8
03___PRT_ALL_CURVES
100
AcDbLine
 62
4
  6
CONTINUOUS
 10
836.3273824005
 20
188.3920915315
 11
837.9231268911
 21
190.4754288385
  0
LINE
  5
44E
100
AcDbEntity
  8
03___PRT_ALL_CURVES
100
AcDbLine
 62
4
  6
CONTINUOUS
 10
782.3912120609
 20
153.6004258582
 11
784.5188713818
 21
155.683760185
  0
LINE
  5
44F
100
AcDbEntity
  8
03___PRT_ALL_CURVES
100
AcDbLine
 62
4
  6
CONTINUOUS
 10
802.0720633863
 20
162.9754288385
 11
804.1997228934
 21
165.058760185
  0
LINE
  5
450
100
AcDbEntity
  8
03___PRT_ALL_CURVES
100
AcDbLine
 62
4
  6
CONTINUOUS
 10
837.9231268911
 20
190.4754288385
 11
840.050786212
 21
192.0379288385
  0
LINE
  5
451
100
AcDbEntity
  8
03___PRT_ALL_CURVES
100
AcDbLine
 62
4
  6
CONTINUOUS
 10
801.0082333534
 20
166.1004288385
 11
799.4124888628
 21
165.058760185
  0
LINE
  5
452
100
AcDbEntity
  8
03___PRT_ALL_CURVES
100
AcDbLine
 62
4
  6
CONTINUOUS
 10
840.050786212
 20
192.0379288385
 11
841.6465307026
 21
192.558760185
  0
LINE
  5
453
100
AcDbEntity
  8
03___PRT_ALL_CURVES
100
AcDbLine
 62
4
  6
CONTINUOUS
 10
841.6465307026
 20
189.433760185
 11
840.050786212
 21
188.9129288385
  0
LINE
  5
454
100
AcDbEntity
  8
03___PRT_ALL_CURVES
100
AcDbLine
 62
4
  6
CONTINUOUS
 10
835.7954675703
 20
199.850422878
 11
857.6039782165
 21
199.850422878
  0
LINE
  5
455
100
AcDbEntity
  8
03___PRT_ALL_CURVES
100
AcDbLine
 62
4
  6
CONTINUOUS
 10
802.0720633863
 20
202.0379288385
 11
780.7954675703
 21
202.0379288385
  0
LINE
  5
456
100
AcDbEntity
  8
03___PRT_ALL_CURVES
100
AcDbLine
 62
4
  6
CONTINUOUS
 10
780.7954675703
 20
205.1629288385
 11
805.7954675703
 21
205.1629288385
  0
LINE
  5
457
100
AcDbEntity
  8
03___PRT_ALL_CURVES
100
AcDbLine
 62
4
  6
CONTINUOUS
 10
783.4550417213
 20
209.329597492
 11
780.7954675703
 21
209.329597492
  0
LINE
  5
458
100
AcDbEntity
  8
03___PRT_ALL_CURVES
100
AcDbLine
 62
4
  6
CONTINUOUS
 10
843.7741915135
 20
192.558760185
 11
845.3699360042
 21
192.0379288385
  0
LINE
  5
459
100
AcDbEntity
  8
03___PRT_ALL_CURVES
100
AcDbLine
 62
4
  6
CONTINUOUS
 10
845.3699360042
 20
192.0379288385
 11
847.497595325
 21
190.4754288385
  0
LINE
  5
45A
100
AcDbEntity
  8
03___PRT_ALL_CURVES
100
AcDbLine
 62
4
  6
CONTINUOUS
 10
845.9018508344
 20
187.871260185
 11
844.838021174
 21
188.9129288385
  0
LINE
  5
45B
100
AcDbEntity
  8
03___PRT_ALL_CURVES
100
AcDbLine
 62
4
  6
CONTINUOUS
 10
847.497595325
 20
190.4754288385
 11
849.0933398156
 21
188.3920915315
  0
LINE
  5
45C
100
AcDbEntity
  8
03___PRT_ALL_CURVES
100
AcDbLine
 62
4
  6
CONTINUOUS
 10
784.5188713818
 20
271.829597492
 11
785.5827010422
 21
270.267097492
  0
LINE
  5
45D
100
AcDbEntity
  8
03___PRT_ALL_CURVES
100
AcDbLine
 62
4
  6
CONTINUOUS
 10
845.9018508344
 20
124.3295945117
 11
845.9018508344
 21
137.871260185
  0
LINE
  5
45E
100
AcDbEntity
  8
03___PRT_ALL_CURVES
100
AcDbLine
 62
4
  6
CONTINUOUS
 10
845.9018508344
 20
271.725422878
 11
845.9018508344
 21
285.267097492
  0
LINE
  5
45F
100
AcDbEntity
  8
03___PRT_ALL_CURVES
100
AcDbLine
 62
4
  6
CONTINUOUS
 10
846.4337656646
 20
176.4129288385
 11
846.4337656646
 21
186.308760185
  0
LINE
  5
460
100
AcDbEntity
  8
03___PRT_ALL_CURVES
100
AcDbLine
 62
4
  6
CONTINUOUS
 10
849.0933398156
 20
285.267097492
 11
849.0933398156
 21
271.725422878
  0
LINE
  5
461
100
AcDbEntity
  8
03___PRT_ALL_CURVES
100
AcDbLine
 62
4
  6
CONTINUOUS
 10
849.0933398156
 20
137.871260185
 11
849.0933398156
 21
124.3295945117
  0
LINE
  5
462
100
AcDbEntity
  8
03___PRT_ALL_CURVES
100
AcDbLine
 62
4
  6
CONTINUOUS
 10
849.6252546458
 20
185.7879288385
 11
849.6252546458
 21
176.4129288385
  0
LINE
  5
463
100
AcDbEntity
  8
03___PRT_ALL_CURVES
100
AcDbLine
 62
4
  6
CONTINUOUS
 10
852.2848295419
 20
234.746260185
 11
852.2848295419
 21
225.371260185
  0
LINE
  5
464
100
AcDbEntity
  8
03___PRT_ALL_CURVES
100
AcDbLine
 62
4
  6
CONTINUOUS
 10
854.4124888628
 20
235.267097492
 11
854.4124888628
 21
224.850422878
  0
LINE
  5
465
100
AcDbEntity
  8
03___PRT_ALL_CURVES
100
AcDbLine
 62
4
  6
CONTINUOUS
 10
838.9869565516
 20
187.871260185
 11
838.4550417213
 21
186.308760185
  0
LINE
  5
466
100
AcDbEntity
  8
03___PRT_ALL_CURVES
100
AcDbLine
 62
4
  6
CONTINUOUS
 10
840.050786212
 20
188.9129288385
 11
838.9869565516
 21
187.871260185
  0
LINE
  5
467
100
AcDbEntity
  8
03___PRT_ALL_CURVES
100
AcDbLine
 62
4
  6
CONTINUOUS
 10
804.1997228934
 20
140.058760185
 11
802.0720633863
 21
137.9754258582
  0
LINE
  5
468
100
AcDbEntity
  8
03___PRT_ALL_CURVES
100
AcDbLine
 62
4
  6
CONTINUOUS
 10
785.5827010422
 20
152.558760185
 11
787.1784470229
 21
153.6004258582
  0
LINE
  5
469
100
AcDbEntity
  8
03___PRT_ALL_CURVES
100
AcDbLine
 62
4
  6
CONTINUOUS
 10
784.5188713818
 20
155.683760185
 11
786.6465307026
 21
156.7254258582
  0
LINE
  5
46A
100
AcDbEntity
  8
03___PRT_ALL_CURVES
100
AcDbLine
 62
4
  6
CONTINUOUS
 10
799.944403693
 20
161.933760185
 11
802.0720633863
 21
162.9754288385
  0
LINE
  5
46B
100
AcDbEntity
  8
03___PRT_ALL_CURVES
100
AcDbLine
 62
4
  6
CONTINUOUS
 10
857.6039782165
 20
215.475422878
 11
860.7954675703
 21
215.475422878
  0
LINE
  5
46C
100
AcDbEntity
  8
03___PRT_ALL_CURVES
100
AcDbLine
 62
4
  6
CONTINUOUS
 10
805.7954675703
 20
217.662922878
 11
783.4550417213
 21
217.662922878
  0
LINE
  5
46D
100
AcDbEntity
  8
03___PRT_ALL_CURVES
100
AcDbLine
 62
4
  6
CONTINUOUS
 10
783.4550417213
 20
220.787922878
 11
805.7954675703
 21
220.787922878
  0
LINE
  5
46E
100
AcDbEntity
  8
03___PRT_ALL_CURVES
100
AcDbLine
 62
4
  6
CONTINUOUS
 10
780.7954675703
 20
229.121260185
 11
783.4550417213
 21
229.121260185
  0
LINE
  5
46F
100
AcDbEntity
  8
03___PRT_ALL_CURVES
100
AcDbLine
 62
4
  6
CONTINUOUS
 10
784.5188713818
 20
267.142097492
 11
782.3912120609
 21
269.225422878
  0
LINE
  5
470
100
AcDbEntity
  8
03___PRT_ALL_CURVES
100
AcDbLine
 62
4
  6
CONTINUOUS
 10
802.0720633863
 20
280.683760185
 11
801.0082333534
 21
282.246260185
  0
LINE
  5
471
100
AcDbEntity
  8
03___PRT_ALL_CURVES
100
AcDbLine
 62
4
  6
CONTINUOUS
 10
804.1997228934
 20
283.287922878
 11
805.2635526935
 21
281.204597492
  0
LINE
  5
472
100
AcDbEntity
  8
03___PRT_ALL_CURVES
100
AcDbLine
 62
4
  6
CONTINUOUS
 10
846.4337656646
 20
186.308760185
 11
845.9018508344
 21
187.871260185
  0
LINE
  5
473
100
AcDbEntity
  8
03___PRT_ALL_CURVES
100
AcDbLine
 62
4
  6
CONTINUOUS
 10
849.0933398156
 20
188.3920915315
 11
849.6252546458
 21
185.7879288385
  0
LINE
  5
474
100
AcDbEntity
  8
03___PRT_ALL_CURVES
100
AcDbLine
 62
4
  6
CONTINUOUS
 10
857.6039782165
 20
124.3295945117
 11
857.6039782165
 21
139.9545945117
  0
LINE
  5
475
100
AcDbEntity
  8
03___PRT_ALL_CURVES
100
AcDbLine
 62
4
  6
CONTINUOUS
 10
857.6039782165
 20
199.850422878
 11
857.6039782165
 21
215.475422878
  0
LINE
  5
476
100
AcDbEntity
  8
03___PRT_ALL_CURVES
100
AcDbLine
 62
4
  6
CONTINUOUS
 10
857.6039782165
 20
271.725422878
 11
857.6039782165
 21
287.350422878
  0
LINE
  5
477
100
AcDbEntity
  8
03___PRT_ALL_CURVES
100
AcDbLine
 62
4
  6
CONTINUOUS
 10
860.7954675703
 20
287.350422878
 11
860.7954675703
 21
268.600422878
  0
LINE
  5
478
100
AcDbEntity
  8
03___PRT_ALL_CURVES
100
AcDbLine
 62
4
  6
CONTINUOUS
 10
860.7954675703
 20
256.100422878
 11
860.7954675703
 21
252.975422878
  0
LINE
  5
479
100
AcDbEntity
  8
03___PRT_ALL_CURVES
100
AcDbLine
 62
4
  6
CONTINUOUS
 10
860.7954675703
 20
240.475422878
 11
860.7954675703
 21
237.350422878
  0
LINE
  5
47A
100
AcDbEntity
  8
03___PRT_ALL_CURVES
100
AcDbLine
 62
4
  6
CONTINUOUS
 10
860.7954675703
 20
222.767097492
 11
860.7954675703
 21
219.642097492
  0
LINE
  5
47B
100
AcDbEntity
  8
03___PRT_ALL_CURVES
100
AcDbLine
 62
4
  6
CONTINUOUS
 10
860.7954675703
 20
215.475422878
 11
860.7954675703
 21
196.7254288385
  0
LINE
  5
47C
100
AcDbEntity
  8
03___PRT_ALL_CURVES
100
AcDbLine
 62
4
  6
CONTINUOUS
 10
860.7954675703
 20
176.4129288385
 11
860.7954675703
 21
173.2879288385
  0
LINE
  5
47D
100
AcDbEntity
  8
03___PRT_ALL_CURVES
100
AcDbLine
 62
4
  6
CONTINUOUS
 10
860.7954675703
 20
169.121260185
 11
860.7954675703
 21
165.996260185
  0
LINE
  5
47E
100
AcDbEntity
  8
03___PRT_ALL_CURVES
100
AcDbLine
 62
4
  6
CONTINUOUS
 10
860.7954675703
 20
158.7045915315
 11
860.7954675703
 21
154.5379288385
  0
LINE
  5
47F
100
AcDbEntity
  8
03___PRT_ALL_CURVES
100
AcDbLine
 62
4
  6
CONTINUOUS
 10
860.7954675703
 20
147.246260185
 11
860.7954675703
 21
144.121260185
  0
LINE
  5
480
100
AcDbEntity
  8
03___PRT_ALL_CURVES
100
AcDbLine
 62
4
  6
CONTINUOUS
 10
860.7954675703
 20
139.9545945117
 11
860.7954675703
 21
121.2045930216
  0
LINE
  5
481
100
AcDbEntity
  8
03___PRT_ALL_CURVES
100
AcDbLine
 62
4
  6
CONTINUOUS
 10
860.7954675703
 20
108.7045937667
 11
860.7954675703
 21
105.5795937667
  0
LINE
  5
482
100
AcDbEntity
  8
03___PRT_ALL_CURVES
100
AcDbLine
 62
4
  6
CONTINUOUS
 10
801.0082333534
 20
141.1004258582
 11
799.4124888628
 21
140.058760185
  0
LINE
  5
483
100
AcDbEntity
  8
03___PRT_ALL_CURVES
100
AcDbLine
 62
4
  6
CONTINUOUS
 10
802.0720633863
 20
137.9754258582
 11
799.944403693
 21
136.933760185
  0
LINE
  5
484
100
AcDbEntity
  8
03___PRT_ALL_CURVES
100
AcDbLine
 62
4
  6
CONTINUOUS
 10
805.7954675703
 20
233.287922878
 11
780.7954675703
 21
233.287922878
  0
LINE
  5
485
100
AcDbEntity
  8
03___PRT_ALL_CURVES
100
AcDbLine
 62
4
  6
CONTINUOUS
 10
780.7954675703
 20
236.412922878
 11
805.7954675703
 21
236.412922878
  0
LINE
  5
486
100
AcDbEntity
  8
03___PRT_ALL_CURVES
100
AcDbLine
 62
4
  6
CONTINUOUS
 10
805.7954675703
 20
240.579597492
 11
780.7954675703
 21
240.579597492
  0
LINE
  5
487
100
AcDbEntity
  8
03___PRT_ALL_CURVES
100
AcDbLine
 62
4
  6
CONTINUOUS
 10
783.9869565516
 20
243.704597492
 11
805.7954675703
 21
243.704597492
  0
LINE
  5
488
100
AcDbEntity
  8
03___PRT_ALL_CURVES
100
AcDbLine
 62
4
  6
CONTINUOUS
 10
852.2848295419
 20
225.371260185
 11
837.9231268911
 21
230.058760185
  0
LINE
  5
489
100
AcDbEntity
  8
03___PRT_ALL_CURVES
100
AcDbLine
 62
4
  6
CONTINUOUS
 10
854.4124888628
 20
224.850422878
 11
860.7954675703
 21
222.767097492
  0
LINE
  5
48A
100
AcDbEntity
  8
03___PRT_ALL_CURVES
100
AcDbLine
 62
4
  6
CONTINUOUS
 10
860.7954675703
 20
219.642097492
 11
835.7954675703
 21
227.975422878
  0
LINE
  5
48B
100
AcDbEntity
  8
03___PRT_ALL_CURVES
100
AcDbLine
 62
4
  6
CONTINUOUS
 10
786.6465307026
 20
266.100422878
 11
784.5188713818
 21
267.142097492
  0
LINE
  5
48C
100
AcDbEntity
  8
03___PRT_ALL_CURVES
100
AcDbLine
 62
4
  6
CONTINUOUS
 10
785.5827010422
 20
270.267097492
 11
787.1784470229
 21
269.225422878
  0
LINE
  5
48D
100
AcDbEntity
  8
03___PRT_ALL_CURVES
100
AcDbLine
 62
4
  6
CONTINUOUS
 10
860.7954675703
 20
154.5379288385
 11
841.1146158724
 21
147.246260185
  0
LINE
  5
48E
100
AcDbEntity
  8
03___PRT_ALL_CURVES
100
AcDbLine
 62
4
  6
CONTINUOUS
 10
835.7954675703
 20
148.808760185
 11
858.1358930467
 21
156.621260185
  0
LINE
  5
48F
100
AcDbEntity
  8
03___PRT_ALL_CURVES
100
AcDbLine
 62
4
  6
CONTINUOUS
 10
838.4550417213
 20
244.642097492
 11
835.7954675703
 21
244.642097492
  0
LINE
  5
490
100
AcDbEntity
  8
03___PRT_ALL_CURVES
100
AcDbLine
 62
4
  6
CONTINUOUS
 10
860.7954675703
 20
252.975422878
 11
838.4550417213
 21
252.975422878
  0
LINE
  5
491
100
AcDbEntity
  8
03___PRT_ALL_CURVES
100
AcDbLine
 62
4
  6
CONTINUOUS
 10
838.4550417213
 20
256.100422878
 11
860.7954675703
 21
256.100422878
  0
LINE
  5
492
100
AcDbEntity
  8
03___PRT_ALL_CURVES
100
AcDbLine
 62
4
  6
CONTINUOUS
 10
802.0720633863
 20
258.287922878
 11
780.7954675703
 21
258.287922878
  0
LINE
  5
493
100
AcDbEntity
  8
03___PRT_ALL_CURVES
100
AcDbLine
 62
4
  6
CONTINUOUS
 10
789.3061063437
 20
265.579597492
 11
786.6465307026
 21
266.100422878
  0
LINE
  5
494
100
AcDbEntity
  8
03___PRT_ALL_CURVES
100
AcDbLine
 62
4
  6
CONTINUOUS
 10
787.1784470229
 20
269.225422878
 11
789.3061063437
 21
268.704597492
  0
LINE
  5
495
100
AcDbEntity
  8
03___PRT_ALL_CURVES
100
AcDbLine
 62
4
  6
CONTINUOUS
 10
802.0720633863
 20
285.371260185
 11
804.1997228934
 21
283.287922878
  0
LINE
  5
496
100
AcDbEntity
  8
03___PRT_ALL_CURVES
100
AcDbLine
 62
4
  6
CONTINUOUS
 10
805.7954675703
 20
117.6629266033
 11
786.1146158724
 21
110.371260185
  0
LINE
  5
497
100
AcDbEntity
  8
03___PRT_ALL_CURVES
100
AcDbLine
 62
4
  6
CONTINUOUS
 10
780.7954675703
 20
111.933760185
 11
803.1358930467
 21
119.746260185
  0
LINE
  5
498
100
AcDbEntity
  8
03___PRT_ALL_CURVES
100
AcDbLine
 62
4
  6
CONTINUOUS
 10
797.2848295419
 20
268.704597492
 11
799.4124888628
 21
269.225422878
  0
LINE
  5
499
100
AcDbEntity
  8
03___PRT_ALL_CURVES
100
AcDbLine
 62
4
  6
CONTINUOUS
 10
799.944403693
 20
266.100422878
 11
797.2848295419
 21
265.579597492
  0
LINE
  5
49A
100
AcDbEntity
  8
03___PRT_ALL_CURVES
100
AcDbLine
 62
4
  6
CONTINUOUS
 10
780.7954675703
 20
261.412922878
 11
805.7954675703
 21
261.412922878
  0
LINE
  5
49B
100
AcDbEntity
  8
03___PRT_ALL_CURVES
100
AcDbLine
 62
4
  6
CONTINUOUS
 10
835.7954675703
 20
264.433760185
 11
838.4550417213
 21
264.433760185
  0
LINE
  5
49C
100
AcDbEntity
  8
03___PRT_ALL_CURVES
100
AcDbLine
 62
4
  6
CONTINUOUS
 10
797.2848295419
 20
265.579597492
 11
789.3061063437
 21
265.579597492
  0
LINE
  5
49D
100
AcDbEntity
  8
03___PRT_ALL_CURVES
100
AcDbLine
 62
4
  6
CONTINUOUS
 10
860.7954675703
 20
268.600422878
 11
835.7954675703
 21
268.600422878
  0
LINE
  5
49E
100
AcDbEntity
  8
03___PRT_ALL_CURVES
100
AcDbLine
 62
4
  6
CONTINUOUS
 10
789.3061063437
 20
268.704597492
 11
797.2848295419
 21
268.704597492
  0
LINE
  5
49F
100
AcDbEntity
  8
03___PRT_ALL_CURVES
100
AcDbLine
 62
4
  6
CONTINUOUS
 10
838.9869565516
 20
271.725422878
 11
845.9018508344
 21
271.725422878
  0
LINE
  5
4A0
100
AcDbEntity
  8
03___PRT_ALL_CURVES
100
AcDbLine
 62
4
  6
CONTINUOUS
 10
849.0933398156
 20
271.725422878
 11
857.6039782165
 21
271.725422878
  0
LINE
  5
4A1
100
AcDbEntity
  8
03___PRT_ALL_CURVES
100
AcDbLine
 62
4
  6
CONTINUOUS
 10
801.0082333534
 20
282.246260185
 11
799.4124888628
 21
282.767097492
  0
LINE
  5
4A2
100
AcDbEntity
  8
0
100
AcDbLine
 62
7
  6
CONTINUOUS
 10
911.2954675703
 20
33.246260185
 11
911.2954675703
 21
351.246260185
  0
LINE
  5
4A3
100
AcDbEntity
  8
03___PRT_ALL_CURVES
100
AcDbLine
 62
4
  6
CONTINUOUS
 10
795.157169476
 20
278.079597492
 11
791.9656804948
 21
278.079597492
  0
LINE
  5
4A4
100
AcDbEntity
  8
03___PRT_ALL_CURVES
100
AcDbLine
 62
4
  6
CONTINUOUS
 10
799.4124888628
 20
282.767097492
 11
795.157169476
 21
282.767097492
  0
LINE
  5
4A5
100
AcDbEntity
  8
03___PRT_ALL_CURVES
100
AcDbLine
 62
4
  6
CONTINUOUS
 10
845.9018508344
 20
285.267097492
 11
849.0933398156
 21
285.267097492
  0
LINE
  5
4A6
100
AcDbEntity
  8
03___PRT_ALL_CURVES
100
AcDbLine
 62
4
  6
CONTINUOUS
 10
791.9656804948
 20
285.892097492
 11
799.944403693
 21
285.892097492
  0
LINE
  5
4A7
100
AcDbEntity
  8
03___PRT_ALL_CURVES
100
AcDbLine
 62
4
  6
CONTINUOUS
 10
835.7954675703
 20
287.350422878
 11
838.9869565516
 21
287.350422878
  0
LINE
  5
4A8
100
AcDbEntity
  8
03___PRT_ALL_CURVES
100
AcDbLine
 62
4
  6
CONTINUOUS
 10
857.6039782165
 20
287.350422878
 11
860.7954675703
 21
287.350422878
  0
LINE
  5
4A9
100
AcDbEntity
  8
03___PRT_ALL_CURVES
100
AcDbLine
 62
4
  6
CONTINUOUS
 10
799.944403693
 20
285.892097492
 11
802.0720633863
 21
285.371260185
  0
LINE
  5
4AA
100
AcDbEntity
  8
02___PRT_ALL_AXES
100
AcDbLine
 62
7
  6
CENTER
 10
918.7954675703
 20
332.246260185
 11
918.7954675703
 21
326.246260185
  0
LINE
  5
4AB
100
AcDbEntity
  8
02___PRT_ALL_AXES
100
AcDbLine
 62
7
  6
CENTER
 10
918.7954675703
 20
52.246260185
 11
918.7954675703
 21
46.246260185
  0
LINE
  5
4AC
100
AcDbEntity
  8
02___PRT_ALL_AXES
100
AcDbLine
 62
7
  6
CENTER
 10
918.7954675703
 20
52.246260185
 11
918.7954675703
 21
58.246260185
  0
LINE
  5
4AD
100
AcDbEntity
  8
02___PRT_ALL_AXES
100
AcDbLine
 62
7
  6
CENTER
 10
918.7954675703
 20
332.246260185
 11
918.7954675703
 21
338.246260185
  0
LINE
  5
4AE
100
AcDbEntity
  8
03___PRT_ALL_CURVES
100
AcDbLine
 62
4
  6
CONTINUOUS
 10
784.5188713818
 20
285.371260185
 11
787.1784470229
 21
285.892097492
  0
LINE
  5
4AF
100
AcDbEntity
  8
02___PRT_ALL_AXES
100
AcDbLine
 62
7
  6
CENTER
 10
918.7954675703
 20
332.246260185
 11
912.7954675703
 21
332.246260185
  0
LINE
  5
4B0
100
AcDbEntity
  8
02___PRT_ALL_AXES
100
AcDbLine
 62
7
  6
CENTER
 10
722.7954675703
 20
332.246260185
 11
716.7954675703
 21
332.246260185
  0
LINE
  5
4B1
100
AcDbEntity
  8
02___PRT_ALL_AXES
100
AcDbLine
 62
7
  6
CENTER
 10
722.7954675703
 20
332.246260185
 11
728.7954675703
 21
332.246260185
  0
LINE
  5
4B2
100
AcDbEntity
  8
02___PRT_ALL_AXES
100
AcDbLine
 62
7
  6
CENTER
 10
918.7954675703
 20
332.246260185
 11
924.7954675703
 21
332.246260185
  0
LINE
  5
4B3
100
AcDbEntity
  8
0
100
AcDbLine
 62
7
  6
CONTINUOUS
 10
911.2954675703
 20
351.246260185
 11
730.2954675703
 21
351.246260185
  0
CIRCLE
  5
4B4
100
AcDbEntity
  8
02___PRT_ALL_AXES
100
AcDbCircle
 62
7
  6
CONTINUOUS
 10
61.4009746654
 20
328.6431595732
 40
4.0
  0
CIRCLE
  5
4B5
100
AcDbEntity
  8
02___PRT_ALL_AXES
100
AcDbCircle
 62
7
  6
CONTINUOUS
 10
61.4009746654
 20
98.6431595732
 40
4.0
  0
CIRCLE
  5
4B6
100
AcDbEntity
  8
02___PRT_ALL_AXES
100
AcDbCircle
 62
7
  6
CONTINUOUS
 10
231.4009746654
 20
328.6431595732
 40
4.0
  0
CIRCLE
  5
4B7
100
AcDbEntity
  8
02___PRT_ALL_AXES
100
AcDbCircle
 62
7
  6
CONTINUOUS
 10
231.4009746654
 20
98.6431595732
 40
4.0
  0
CIRCLE
  5
4B8
100
AcDbEntity
  8
02___PRT_ALL_AXES
100
AcDbCircle
 62
7
  6
CONTINUOUS
 10
722.7954675703
 20
332.246260185
 40
4.0
  0
CIRCLE
  5
4B9
100
AcDbEntity
  8
02___PRT_ALL_AXES
100
AcDbCircle
 62
7
  6
CONTINUOUS
 10
722.7954675703
 20
52.246260185
 40
4.0
  0
CIRCLE
  5
4BA
100
AcDbEntity
  8
02___PRT_ALL_AXES
100
AcDbCircle
 62
7
  6
CONTINUOUS
 10
918.7954675703
 20
332.246260185
 40
4.0
  0
CIRCLE
  5
4BB
100
AcDbEntity
  8
02___PRT_ALL_AXES
100
AcDbCircle
 62
7
  6
CONTINUOUS
 10
918.7954675703
 20
52.246260185
 40
4.0
  0
ENDSEC
  0
SECTION
  2
OBJECTS
  0
DICTIONARY
  5
C
100
AcDbDictionary
280
0
281
1
  3
ACAD_GROUP
350
D
  3
ACAD_MLINESTYLE
350
17
  3
ACAD_LAYOUT
350
1A
  3
ACAD_PLOTSETTINGS
350
19
  3
ACAD_PLOTSTYLENAME
350
E
  0
DICTIONARY
  5
D
102
{ACAD_REACTORS
330
C
102
}
100
AcDbDictionary
280
0
281
1
  0
ACDBDICTIONARYWDFLT
  5
E
102
{ACAD_REACTORS
330
C
102
}
100
AcDbDictionary
281
1
  3
Normal
350
F
100
AcDbDictionaryWithDefault
340
F
  0
DICTIONARY
  5
17
102
{ACAD_REACTORS
330
C
102
}
100
AcDbDictionary
280
0
281
1
  3
Standard
350
18
  0
DICTIONARY
  5
19
102
{ACAD_REACTORS
330
C
102
}
100
AcDbDictionary
281
1
  0
DICTIONARY
  5
1A
102
{ACAD_REACTORS
330
C
102
}
100
AcDbDictionary
281
1
  3
Model
350
4BC
  3
Layout1
350
4BD
  0
ACDBPLACEHOLDER
  5
F
102
{ACAD_REACTORS
330
E
102
}
  0
MLINESTYLE
  5
18
102
{ACAD_REACTORS
330
17
102
}
100
AcDbMlineStyle
  2
STANDARD
 70
0
  3

 62
256
 51
90.0
 52
90.0
 71
2
 49
0.5
 62
256
  6
BYLAYER
 49
-0.5
 62
256
  6
BYLAYER
  0
LAYOUT
  5
4BC
102
{ACAD_REACTORS
330
1A
102
}
100
AcDbPlotSettings
  1

  2
none_device
  4

  6

 40
0.0
 41
0.0
 42
0.0
 43
0.0
 44
297.0
 45
420.0
 46
0.0
 47
0.0
 48
0.0
 49
0.0
140
0.0
141
0.0
142
1.0
143
1.0
 70
1024
 72
1
 73
0
 74
0
  7

 75
0
147
1.0
148
0.0
149
0.0
100
AcDbLayout
  1
Model
 70
0
 71
0
 10
0.0
 20
0.0
 11
297.0
 21
420.0
 12
0.0
 22
0.0
 32
0.0
 14
0.0
 24
0.0
 34
0.0
 15
0.0
 25
0.0
 35
0.0
146
0.0
 13
0.0
 23
0.0
 33
0.0
 16
1.0
 26
0.0
 36
0.0
 17
0.0
 27
1.0
 37
0.0
 76
0
330
21B
345
0
346
0
  0
LAYOUT
  5
4BD
102
{ACAD_REACTORS
330
1A
102
}
100
AcDbPlotSettings
  1

  2
none_device
  4

  6

 40
0.0
 41
0.0
 42
0.0
 43
0.0
 44
297.0
 45
420.0
 46
0.0
 47
0.0
 48
0.0
 49
0.0
140
0.0
141
0.0
142
1.0
143
1.0
 70
0
 72
1
 73
0
 74
0
  7

 75
0
147
1.0
148
0.0
149
0.0
100
AcDbLayout
  1
Layout1
 70
0
 71
1
 10
0.0
 20
0.0
 11
297.0
 21
420.0
 12
0.0
 22
0.0
 32
0.0
 14
0.0
 24
0.0
 34
0.0
 15
0.0
 25
0.0
 35
0.0
146
0.0
 13
0.0
 23
0.0
 33
0.0
 16
1.0
 26
0.0
 36
0.0
 17
0.0
 27
1.0
 37
0.0
 76
0
330
21C
345
0
346
0
  0
ENDSEC
  0
EOF
