  0
SECTION
  2
HEADER
  9
$ACADVER
  1
AC1009
  9
$DWGCODEPAGE
  3
ansi_1252
  9
$INSBASE
 10
0.0
 20
0.0
 30
0.0
  9
$EXTMIN
 10
69.61237440676314
 20
370.9424327776749
 30
0.0
  9
$EXTMAX
 10
556.6007499932523
 20
1316.196008983085
 30
0.0
  9
$LIMMIN
 10
0.0
 20
0.0
  9
$LIMMAX
 10
594.0
 20
420.0
  9
$ORTHOMODE
 70
     0
  9
$REGENMODE
 70
     1
  9
$FILLMODE
 70
     1
  9
$QTEXTMODE
 70
     0
  9
$MIRRTEXT
 70
     1
  9
$DRAGMODE
 70
     2
  9
$LTSCALE
 40
32.67
  9
$OSMODE
 70
   511
  9
$ATTMODE
 70
     1
  9
$TEXTSIZE
 40
0.2
  9
$TRACEWID
 40
0.05
  9
$TEXTSTYLE
  7
STANDARD
  9
$CLAYER
  8
DIMENSIONS
  9
$CELTYPE
  6
BYBLOCK
  9
$CECOLOR
 62
   256
  9
$DIMSCALE
 40
1.0
  9
$DIMASZ
 40
5.0
  9
$DIMEXO
 40
1.5
  9
$DIMDLI
 40
1.0
  9
$DIMRND
 40
0.0
  9
$DIMDLE
 40
0.0
  9
$DIMEXE
 40
0.18
  9
$DIMTP
 40
0.0
  9
$DIMTM
 40
0.0
  9
$DIMTXT
 40
5.0
  9
$DIMCEN
 40
2.5
  9
$DIMTSZ
 40
0.0
  9
$DIMTOL
 70
     0
  9
$DIMLIM
 70
     0
  9
$DIMTIH
 70
     0
  9
$DIMTOH
 70
     0
  9
$DIMSE1
 70
     0
  9
$DIMSE2
 70
     0
  9
$DIMTAD
 70
     1
  9
$DIMZIN
 70
     8
  9
$DIMBLK
  1

  9
$DIMASO
 70
     1
  9
$DIMSHO
 70
     1
  9
$DIMPOST
  1

  9
$DIMAPOST
  1

  9
$DIMALT
 70
     1
  9
$DIMALTD
 70
     2
  9
$DIMALTF
 40
0.03937
  9
$DIMLFAC
 40
1.0
  9
$DIMTOFL
 70
     0
  9
$DIMTVP
 40
0.0
  9
$DIMTIX
 70
     0
  9
$DIMSOXD
 70
     0
  9
$DIMSAH
 70
     0
  9
$DIMBLK1
  1

  9
$DIMBLK2
  1

  9
$DIMSTYLE
  2
DUAL-DIM
  9
$DIMCLRD
 70
     0
  9
$DIMCLRE
 70
     0
  9
$DIMCLRT
 70
     5
  9
$DIMTFAC
 40
1.0
  9
$DIMGAP
 40
1.0
  9
$LUNITS
 70
     2
  9
$LUPREC
 70
     4
  9
$SKETCHINC
 40
0.1
  9
$FILLETRAD
 40
15.0
  9
$AUNITS
 70
     0
  9
$AUPREC
 70
     0
  9
$MENU
  1
.
  9
$ELEVATION
 40
0.0
  9
$PELEVATION
 40
0.0
  9
$THICKNESS
 40
0.0
  9
$LIMCHECK
 70
     0
  9
$CHAMFERA
 40
0.0
  9
$CHAMFERB
 40
0.0
  9
$SKPOLY
 70
     0
  9
$TDCREATE
 40
2457428.354677859
  9
$TDUPDATE
 40
2457438.430746146
  9
$TDINDWG
 40
0.1100619329
  9
$TDUSRTIMER
 40
2457438.387833345
  9
$USRTIMER
 70
     1
  9
$ANGBASE
 50
0.0
  9
$ANGDIR
 70
     0
  9
$PDMODE
 70
     3
  9
$PDSIZE
 40
0.3125
  9
$PLINEWID
 40
0.0
  9
$COORDS
 70
     2
  9
$SPLFRAME
 70
     0
  9
$SPLINETYPE
 70
     6
  9
$SPLINESEGS
 70
     8
  9
$ATTDIA
 70
     0
  9
$ATTREQ
 70
     1
  9
$HANDLING
 70
     1
  9
$HANDSEED
  5
310B
  9
$SURFTAB1
 70
     6
  9
$SURFTAB2
 70
     6
  9
$SURFTYPE
 70
     6
  9
$SURFU
 70
     6
  9
$SURFV
 70
     6
  9
$UCSNAME
  2

  9
$UCSORG
 10
0.0
 20
0.0
 30
0.0
  9
$UCSXDIR
 10
1.0
 20
0.0
 30
0.0
  9
$UCSYDIR
 10
0.0
 20
1.0
 30
0.0
  9
$PUCSNAME
  2

  9
$PUCSORG
 10
0.0
 20
0.0
 30
0.0
  9
$PUCSXDIR
 10
1.0
 20
0.0
 30
0.0
  9
$PUCSYDIR
 10
0.0
 20
1.0
 30
0.0
  9
$USERI1
 70
     0
  9
$USERI2
 70
     0
  9
$USERI3
 70
     0
  9
$USERI4
 70
     0
  9
$USERI5
 70
     0
  9
$USERR1
 40
0.0
  9
$USERR2
 40
0.0
  9
$USERR3
 40
0.0
  9
$USERR4
 40
0.0
  9
$USERR5
 40
0.0
  9
$WORLDVIEW
 70
     1
  9
$SHADEDGE
 70
     3
  9
$SHADEDIF
 70
    70
  9
$TILEMODE
 70
     1
  9
$MAXACTVP
 70
    64
  9
$PLIMCHECK
 70
     0
  9
$PEXTMIN
 10
1.05
 20
0.6999999999999997
 30
0.0
  9
$PEXTMAX
 10
9.45
 20
6.300000000000001
 30
0.0
  9
$PLIMMIN
 10
-0.25
 20
-0.7499999999999999
  9
$PLIMMAX
 10
10.75
 20
7.75
  9
$UNITMODE
 70
     0
  9
$VISRETAIN
 70
     1
  9
$PLINEGEN
 70
     0
  9
$PSLTSCALE
 70
     1
  0
ENDSEC
  0
SECTION
  2
TABLES
  0
TABLE
  2
VPORT
 70
     1
  0
VPORT
  2
*ACTIVE
 70
     0
 10
0.0
 20
0.0
 11
1.0
 21
1.0
 12
1168.66855657221
 22
804.7092947470562
 13
0.0
 23
0.0
 14
0.5
 24
0.5
 15
0.5
 25
0.5
 16
0.0
 26
0.0
 36
1.0
 17
0.0
 27
0.0
 37
0.0
 40
1160.248988835521
 41
2.450549450549451
 42
50.0
 43
0.0
 44
0.0
 50
0.0
 51
0.0
 71
    16
 72
   100
 73
     1
 74
     3
 75
     0
 76
     0
 77
     0
 78
     0
  0
ENDTAB
  0
TABLE
  2
LTYPE
 70
     7
  0
LTYPE
  2
CONTINUOUS
 70
     0
  3
Solid line
 72
    65
 73
     0
 40
0.0
  0
LTYPE
  2
CENTER
 70
     0
  3
____ _ ____ _ ____ _ ____ _ ____ _ ____ _ ____
 72
    65
 73
     4
 40
0.6
 49
0.375
 49
-0.075
 49
0.075
 49
-0.075
  0
LTYPE
  2
HIDDEN
 70
     0
  3
- - - - - - - - - - - - - - - - - - - -
 72
    65
 73
     2
 40
0.2
 49
0.1
 49
-0.1
  0
LTYPE
  2
PHANTOM
 70
     0
  3
_____ _ _ _____ _ _ _____ _ _ _____
 72
    65
 73
     6
 40
0.8
 49
0.45
 49
-0.05
 49
0.1
 49
-0.05
 49
0.1
 49
-0.05
  0
LTYPE
  2
DOT
 70
     0
  3
. . . . . . . . . . . . . . . . . . . .
 72
    65
 73
     2
 40
0.2
 49
0.1
 49
-0.1
  0
LTYPE
  2
DASHED
 70
     0
  3
- - - - - - - - - - - - - - - - - - - -
 72
    65
 73
     2
 40
0.2
 49
0.1
 49
-0.1
  0
LTYPE
  2
STRICHPUNKT
 70
     0
  3
__ . __ . __ . __ . __ . __ . __ . __ . __ . __
 72
    65
 73
     4
 40
1.0
 49
0.5
 49
-0.25
 49
0.0
 49
-0.25
  0
ENDTAB
  0
TABLE
  2
LAYER
 70
    19
  0
LAYER
  2
0
 70
     0
 62
     7
  6
CONTINUOUS
  0
LAYER
  2
DEFAULT_1
 70
     0
 62
     7
  6
CENTER
  0
LAYER
  2
DEFAULT_2
 70
     0
 62
     7
  6
HIDDEN
  0
LAYER
  2
DEFAULT_3
 70
     0
 62
     7
  6
PHANTOM
  0
LAYER
  2
01___PRT_ALL_DTM_PLN
 70
     0
 62
     7
  6
CONTINUOUS
  0
LAYER
  2
01___PRT_DEF_DTM_PLN
 70
     0
 62
     7
  6
CONTINUOUS
  0
LAYER
  2
02___PRT_ALL_AXES
 70
     0
 62
     7
  6
CONTINUOUS
  0
LAYER
  2
03___PRT_ALL_CURVES
 70
     0
 62
     7
  6
CONTINUOUS
  0
LAYER
  2
04___PRT_ALL_DTM_PNT
 70
     0
 62
     7
  6
CONTINUOUS
  0
LAYER
  2
05___PRT_ALL_DTM_CSYS
 70
     0
 62
     7
  6
CONTINUOUS
  0
LAYER
  2
05___PRT_DEF_DTM_CSYS
 70
     0
 62
     7
  6
CONTINUOUS
  0
LAYER
  2
06___PRT_ALL_SURFS
 70
     0
 62
     7
  6
CONTINUOUS
  0
LAYER
  2
DEFPOINTS
 70
     0
 62
     7
  6
CONTINUOUS
  0
LAYER
  2
DIMENSIONS
 70
     0
 62
     2
  6
CONTINUOUS
  0
LAYER
  2
AM_5
 70
     0
 62
     3
  6
CONTINUOUS
  0
LAYER
  2
CUTOUT
 70
     0
 62
     7
  6
CONTINUOUS
  0
LAYER
  2
EXTERNAL_OUTFIT
 70
     0
 62
     7
  6
CENTER
  0
LAYER
  2
OUTLINES
 70
     0
 62
     4
  6
CONTINUOUS
  0
LAYER
  2
3
 70
     0
 62
     4
  6
CONTINUOUS
  0
ENDTAB
  0
TABLE
  2
STYLE
 70
     2
  0
STYLE
  2
STANDARD
 70
     0
 40
0.0
 41
1.0
 50
0.0
 71
     0
 42
0.2
  3
arial.ttf
  4

  0
STYLE
  2
TEXTSTYLE_1
 70
     0
 40
0.0
 41
0.8
 50
0.0
 71
     0
 42
0.2
  3
gdt
  4

  0
ENDTAB
  0
TABLE
  2
VIEW
 70
     0
  0
ENDTAB
  0
TABLE
  2
UCS
 70
     0
  0
ENDTAB
  0
TABLE
  2
APPID
 70
    10
  0
APPID
  2
ACAD
 70
     0
  0
APPID
  2
ACAECLAYERSTANDARD
 70
     0
  0
APPID
  2
ACAD_DSTYLE_DIMRADIAL_EXTE
 70
     0
  0
APPID
  2
ACAD_DSTYLE_DIMJOGGED_JOGA
 70
     0
  0
APPID
  2
ACAD_DSTYLE_DIMJAG
 70
     0
  0
APPID
  2
ACAD_DSTYLE_DIMBREAK
 70
     0
  0
APPID
  2
ACAD_PSEXT
 70
     0
  0
APPID
  2
ACAD_DSTYLE_DIMINSPECT
 70
     0
  0
APPID
  2
ACAD_DSTYLE_DIMRADIAL_EXT0
 70
     0
  0
APPID
  2
ACAD_DSTYLE_DIMJOGGED_JOG0
 70
     0
  0
ENDTAB
  0
TABLE
  2
DIMSTYLE
 70
     5
  0
DIMSTYLE
  2
STANDARD
 70
     0
  3

  4

  5

  6

  7

 40
1.0
 41
0.18
 42
0.0625
 43
0.38
 44
0.18
 45
0.0
 46
0.0
 47
0.0
 48
0.0
140
0.18
141
0.09
142
0.0
143
25.4
144
1.0
145
0.0
146
1.0
147
0.09
 71
     0
 72
     0
 73
     1
 74
     1
 75
     0
 76
     0
 77
     0
 78
     0
170
     0
171
     2
172
     0
173
     0
174
     0
175
     0
176
     0
177
     0
178
     0
  0
DIMSTYLE
  2
DUAL-DIM
 70
     0
  3

  4

  5

  6

  7

 40
1.0
 41
5.0
 42
1.5
 43
1.0
 44
0.18
 45
0.0
 46
0.0
 47
0.0
 48
0.0
140
5.0
141
2.5
142
0.0
143
0.03937
144
1.0
145
0.0
146
1.0
147
1.0
 71
     0
 72
     0
 73
     0
 74
     0
 75
     0
 76
     0
 77
     1
 78
     8
170
     1
171
     2
172
     0
173
     0
174
     0
175
     0
176
     0
177
     0
178
     5
  0
DIMSTYLE
  2
AM_ISO
 70
     0
  3

  4
"
  5

  6

  7

 40
1.0
 41
3.5
 42
1.0
 43
10.0
 44
1.0
 45
0.0
 46
0.0
 47
0.1
 48
0.1
140
3.5
141
0.0
142
0.0
143
0.0393701
144
1.0
145
0.0
146
0.71
147
1.5
 71
     0
 72
     0
 73
     0
 74
     0
 75
     0
 76
     0
 77
     1
 78
     8
170
     0
171
     2
172
     1
173
     0
174
     0
175
     0
176
   256
177
   256
178
     2
  0
DIMSTYLE
  2
AM_ISO$3
 70
     0
  3

  4
"
  5

  6

  7

 40
1.0
 41
3.5
 42
1.0
 43
10.0
 44
1.0
 45
0.0
 46
0.0
 47
0.1
 48
0.1
140
3.5
141
0.0
142
0.0
143
0.0393701
144
1.0
145
0.0
146
0.71
147
1.5
 71
     0
 72
     0
 73
     0
 74
     1
 75
     0
 76
     0
 77
     1
 78
     8
170
     0
171
     2
172
     0
173
     0
174
     0
175
     0
176
   256
177
   256
178
     2
  0
DIMSTYLE
  2
AM_ISO$0
 70
     0
  3

  4
"
  5

  6

  7

 40
1.0
 41
3.5
 42
1.0
 43
10.0
 44
1.0
 45
0.0
 46
0.0
 47
0.1
 48
0.1
140
3.5
141
0.0
142
0.0
143
0.0393701
144
1.0
145
0.0
146
0.71
147
1.5
 71
     0
 72
     0
 73
     0
 74
     0
 75
     0
 76
     0
 77
     1
 78
     8
170
     0
171
     2
172
     1
173
     0
174
     0
175
     0
176
   256
177
   256
178
     2
  0
ENDTAB
  0
ENDSEC
  0
SECTION
  2
BLOCKS
  0
BLOCK
  8
0
  2
$MODEL_SPACE
 70
     0
 10
0.0
 20
0.0
 30
0.0
  3
$MODEL_SPACE
  1

  0
ENDBLK
  5
110
  8
0
  0
BLOCK
 67
     1
  8
0
  2
$PAPER_SPACE
 70
     0
 10
0.0
 20
0.0
 30
0.0
  3
$PAPER_SPACE
  1

  0
ENDBLK
  5
112
 67
     1
  8
0
  0
BLOCK
  8
0
  2
_FILLED
 70
     0
 10
0.0
 20
0.0
 30
0.0
  3
_FILLED
  1

  0
SOLID
  5
3D
  8
0
  6
BYBLOCK
 62
     0
 10
0.0
 20
0.0
 30
0.0
 11
-1.0
 21
0.2
 31
0.0
 12
-1.0
 22
-0.2
 32
0.0
 13
-1.0
 23
-0.2
 33
0.0
  0
ENDBLK
  5
3E
  8
0
  6
BYBLOCK
 62
     0
  0
BLOCK
  8
0
  2
*D524
 70
     1
 10
0.0
 20
0.0
 30
0.0
  3
*D524
  1

  0
LINE
  5
302E
  8
DIMENSIONS
  6
BYBLOCK
 62
     0
 10
193.0167140146839
 20
1226.327705594966
 30
0.0
 11
193.0167140146839
 21
1274.635057099838
 31
0.0
  0
LINE
  5
302F
  8
DIMENSIONS
  6
BYBLOCK
 62
     0
 10
458.0167140146839
 20
1226.327705594966
 30
0.0
 11
458.0167140146839
 21
1274.635057099838
 31
0.0
  0
LINE
  5
3030
  8
DIMENSIONS
  6
BYBLOCK
 62
     0
 10
198.0167140146839
 20
1274.455057099838
 30
0.0
 11
453.0167140146839
 21
1274.455057099838
 31
0.0
  0
SOLID
  5
3031
  8
DIMENSIONS
 62
     0
 10
198.0167140146839
 20
1275.288390433171
 30
0.0
 11
198.0167140146839
 21
1273.621723766505
 31
0.0
 12
193.0167140146839
 22
1274.455057099838
 32
0.0
 13
193.0167140146839
 23
1274.455057099838
 33
0.0
  0
SOLID
  5
3032
  8
DIMENSIONS
 62
     0
 10
453.0167140146839
 20
1273.621723766505
 30
0.0
 11
453.0167140146839
 21
1275.288390433171
 31
0.0
 12
458.0167140146839
 22
1274.455057099838
 32
0.0
 13
458.0167140146839
 23
1274.455057099838
 33
0.0
  0
TEXT
  5
3033
  8
DIMENSIONS
  6
CONTINUOUS
 62
     5
 10
308.1817140146839
 20
1276.850057099838
 30
0.0
 40
5.0
  1
265 [10.43]
  0
POINT
  5
3034
  8
DEFPOINTS
 62
     0
 10
193.0167140146839
 20
1224.827705594966
 30
0.0
  0
POINT
  5
3035
  8
DEFPOINTS
 62
     0
 10
458.0167140146839
 20
1224.827705594966
 30
0.0
  0
POINT
  5
3036
  8
DEFPOINTS
 62
     0
 10
458.0167140146839
 20
1274.455057099838
 30
0.0
  0
ENDBLK
  5
302D
  8
0
  0
BLOCK
  8
0
  2
*D525
 70
     1
 10
0.0
 20
0.0
 30
0.0
  3
*D525
  1

  0
LINE
  5
303D
  8
DIMENSIONS
  6
BYBLOCK
 62
     0
 10
173.5167140146839
 20
1258.327705594966
 30
0.0
 11
173.5167140146839
 21
1291.857848593282
 31
0.0
  0
LINE
  5
303E
  8
DIMENSIONS
  6
BYBLOCK
 62
     0
 10
477.5167140146839
 20
1258.327705594966
 30
0.0
 11
477.5167140146839
 21
1291.857848593282
 31
0.0
  0
LINE
  5
303F
  8
DIMENSIONS
  6
BYBLOCK
 62
     0
 10
178.5167140146839
 20
1291.677848593282
 30
0.0
 11
472.5167140146839
 21
1291.677848593282
 31
0.0
  0
SOLID
  5
3040
  8
DIMENSIONS
 62
     0
 10
178.5167140146839
 20
1292.511181926616
 30
0.0
 11
178.5167140146839
 21
1290.844515259949
 31
0.0
 12
173.5167140146839
 22
1291.677848593282
 32
0.0
 13
173.5167140146839
 23
1291.677848593282
 33
0.0
  0
SOLID
  5
3041
  8
DIMENSIONS
 62
     0
 10
472.5167140146839
 20
1290.844515259949
 30
0.0
 11
472.5167140146839
 21
1292.511181926616
 31
0.0
 12
477.5167140146839
 22
1291.677848593282
 32
0.0
 13
477.5167140146839
 23
1291.677848593282
 33
0.0
  0
TEXT
  5
3042
  8
DIMENSIONS
  6
CONTINUOUS
 62
     5
 10
308.1367140146839
 20
1294.072848593283
 30
0.0
 40
5.0
  1
304 [11.97]
  0
POINT
  5
3043
  8
DEFPOINTS
 62
     0
 10
173.5167140146839
 20
1256.827705594966
 30
0.0
  0
POINT
  5
3044
  8
DEFPOINTS
 62
     0
 10
477.5167140146839
 20
1256.827705594966
 30
0.0
  0
POINT
  5
3045
  8
DEFPOINTS
 62
     0
 10
477.5167140146839
 20
1291.677848593282
 30
0.0
  0
ENDBLK
  5
303C
  8
0
  0
BLOCK
  8
0
  2
*D526
 70
     1
 10
0.0
 20
0.0
 30
0.0
  3
*D526
  1

  0
LINE
  5
304C
  8
DIMENSIONS
  6
BYBLOCK
 62
     0
 10
172.0167140146839
 20
1256.827705594966
 30
0.0
 11
139.8258496344196
 21
1256.827705594966
 31
0.0
  0
LINE
  5
304D
  8
DIMENSIONS
  6
BYBLOCK
 62
     0
 10
191.5167140146839
 20
1236.827705594966
 30
0.0
 11
139.8258496344196
 21
1236.827705594966
 31
0.0
  0
LINE
  5
304E
  8
DIMENSIONS
  6
BYBLOCK
 62
     0
 10
140.0058496344196
 20
1236.827705594966
 30
0.0
 11
140.0058496344196
 21
1203.327705594966
 31
0.0
  0
LINE
  5
304F
  8
DIMENSIONS
  6
BYBLOCK
 62
     0
 10
140.0058496344196
 20
1251.827705594966
 30
0.0
 11
140.0058496344196
 21
1241.827705594966
 31
0.0
  0
SOLID
  5
3050
  8
DIMENSIONS
 62
     0
 10
140.839182967753
 20
1251.827705594966
 30
0.0
 11
139.1725163010863
 21
1251.827705594966
 31
0.0
 12
140.0058496344196
 22
1256.827705594966
 32
0.0
 13
140.0058496344196
 23
1256.827705594966
 33
0.0
  0
SOLID
  5
3051
  8
DIMENSIONS
 62
     0
 10
139.1725163010863
 20
1241.827705594966
 30
0.0
 11
140.839182967753
 21
1241.827705594966
 31
0.0
 12
140.0058496344196
 22
1236.827705594966
 32
0.0
 13
140.0058496344196
 23
1236.827705594966
 33
0.0
  0
TEXT
  5
3052
  8
DIMENSIONS
  6
CONTINUOUS
 62
     5
 10
137.6108496344195
 20
1204.122705594966
 30
0.0
 40
5.0
  1
20 [0.79]
 50
90.0
  0
POINT
  5
3053
  8
DEFPOINTS
 62
     0
 10
173.5167140146839
 20
1256.827705594966
 30
0.0
  0
POINT
  5
3054
  8
DEFPOINTS
 62
     0
 10
193.0167140146839
 20
1236.827705594966
 30
0.0
  0
POINT
  5
30DC
  8
DEFPOINTS
 62
     0
 10
140.0058496344196
 20
1236.827705594966
 30
0.0
  0
ENDBLK
  5
304B
  8
0
  0
BLOCK
  8
0
  2
*D527
 70
     1
 10
0.0
 20
0.0
 30
0.0
  3
*D527
  1

  0
LINE
  5
305B
  8
DIMENSIONS
  6
BYBLOCK
 62
     0
 10
191.5167140146839
 20
1236.827705594966
 30
0.0
 11
155.6185172115028
 21
1236.827705594966
 31
0.0
  0
LINE
  5
305C
  8
DIMENSIONS
  6
BYBLOCK
 62
     0
 10
191.5167140146839
 20
1036.827705594966
 30
0.0
 11
155.6185172115028
 21
1036.827705594966
 31
0.0
  0
LINE
  5
305D
  8
DIMENSIONS
  6
BYBLOCK
 62
     0
 10
155.7985172115028
 20
1231.827705594966
 30
0.0
 11
155.7985172115028
 21
1041.827705594966
 31
0.0
  0
SOLID
  5
305E
  8
DIMENSIONS
 62
     0
 10
156.6318505448361
 20
1231.827705594966
 30
0.0
 11
154.9651838781694
 21
1231.827705594966
 31
0.0
 12
155.7985172115028
 22
1236.827705594966
 32
0.0
 13
155.7985172115028
 23
1236.827705594966
 33
0.0
  0
SOLID
  5
305F
  8
DIMENSIONS
 62
     0
 10
154.9651838781694
 20
1041.827705594966
 30
0.0
 11
156.6318505448361
 21
1041.827705594966
 31
0.0
 12
155.7985172115028
 22
1036.827705594966
 32
0.0
 13
155.7985172115028
 23
1036.827705594966
 33
0.0
  0
TEXT
  5
3060
  8
DIMENSIONS
  6
CONTINUOUS
 62
     5
 10
153.4035172115025
 20
1121.432705594966
 30
0.0
 40
5.0
  1
200 [7.87]
 50
90.0
  0
POINT
  5
3061
  8
DEFPOINTS
 62
     0
 10
193.0167140146839
 20
1236.827705594966
 30
0.0
  0
POINT
  5
3062
  8
DEFPOINTS
 62
     0
 10
193.0167140146839
 20
1036.827705594966
 30
0.0
  0
POINT
  5
3063
  8
DEFPOINTS
 62
     0
 10
155.7985172115028
 20
1036.827705594966
 30
0.0
  0
ENDBLK
  5
305A
  8
0
  0
BLOCK
  8
0
  2
*D528
 70
     1
 10
0.0
 20
0.0
 30
0.0
  3
*D528
  1

  0
LINE
  5
306A
  8
DIMENSIONS
  6
BYBLOCK
 62
     0
 10
191.5167140146839
 20
1036.827705594966
 30
0.0
 11
155.6185172115028
 21
1036.827705594966
 31
0.0
  0
LINE
  5
306B
  8
DIMENSIONS
  6
BYBLOCK
 62
     0
 10
191.5167140146839
 20
801.827705594966
 30
0.0
 11
155.6185172115027
 21
801.827705594966
 31
0.0
  0
LINE
  5
306C
  8
DIMENSIONS
  6
BYBLOCK
 62
     0
 10
155.7985172115028
 20
1031.827705594966
 30
0.0
 11
155.7985172115027
 21
806.827705594966
 31
0.0
  0
SOLID
  5
306D
  8
DIMENSIONS
 62
     0
 10
156.6318505448361
 20
1031.827705594966
 30
0.0
 11
154.9651838781694
 21
1031.827705594966
 31
0.0
 12
155.7985172115028
 22
1036.827705594966
 32
0.0
 13
155.7985172115028
 23
1036.827705594966
 33
0.0
  0
SOLID
  5
306E
  8
DIMENSIONS
 62
     0
 10
154.9651838781694
 20
806.827705594966
 30
0.0
 11
156.6318505448361
 21
806.827705594966
 31
0.0
 12
155.7985172115027
 22
801.827705594966
 32
0.0
 13
155.7985172115027
 23
801.827705594966
 33
0.0
  0
TEXT
  5
306F
  8
DIMENSIONS
  6
CONTINUOUS
 62
     5
 10
153.4035172115028
 20
903.9327055949661
 30
0.0
 40
5.0
  1
235 [9.25]
 50
90.0
  0
POINT
  5
3070
  8
DEFPOINTS
 62
     0
 10
193.0167140146839
 20
1036.827705594966
 30
0.0
  0
POINT
  5
3071
  8
DEFPOINTS
 62
     0
 10
193.0167140146839
 20
801.827705594966
 30
0.0
  0
POINT
  5
3072
  8
DEFPOINTS
 62
     0
 10
155.7985172115027
 20
801.827705594966
 30
0.0
  0
ENDBLK
  5
3069
  8
0
  0
BLOCK
  8
0
  2
*D529
 70
     1
 10
0.0
 20
0.0
 30
0.0
  3
*D529
  1

  0
LINE
  5
3079
  8
DIMENSIONS
  6
BYBLOCK
 62
     0
 10
191.5167140146839
 20
801.827705594966
 30
0.0
 11
155.6185172115027
 21
801.827705594966
 31
0.0
  0
LINE
  5
307A
  8
DIMENSIONS
  6
BYBLOCK
 62
     0
 10
191.5167140146839
 20
451.827705594966
 30
0.0
 11
155.6185172115027
 21
451.827705594966
 31
0.0
  0
LINE
  5
307B
  8
DIMENSIONS
  6
BYBLOCK
 62
     0
 10
155.7985172115027
 20
796.827705594966
 30
0.0
 11
155.7985172115027
 21
456.827705594966
 31
0.0
  0
SOLID
  5
307C
  8
DIMENSIONS
 62
     0
 10
156.6318505448361
 20
796.827705594966
 30
0.0
 11
154.9651838781694
 21
796.827705594966
 31
0.0
 12
155.7985172115027
 22
801.827705594966
 32
0.0
 13
155.7985172115027
 23
801.827705594966
 33
0.0
  0
SOLID
  5
307D
  8
DIMENSIONS
 62
     0
 10
154.9651838781694
 20
456.827705594966
 30
0.0
 11
156.6318505448361
 21
456.827705594966
 31
0.0
 12
155.7985172115027
 22
451.827705594966
 32
0.0
 13
155.7985172115027
 23
451.827705594966
 33
0.0
  0
TEXT
  5
307E
  8
DIMENSIONS
  6
CONTINUOUS
 62
     5
 10
153.4035172115027
 20
609.447705594966
 30
0.0
 40
5.0
  1
350 [13.78]
 50
90.0
  0
POINT
  5
307F
  8
DEFPOINTS
 62
     0
 10
193.0167140146839
 20
801.827705594966
 30
0.0
  0
POINT
  5
3080
  8
DEFPOINTS
 62
     0
 10
193.0167140146839
 20
451.827705594966
 30
0.0
  0
POINT
  5
3081
  8
DEFPOINTS
 62
     0
 10
155.7985172115027
 20
451.827705594966
 30
0.0
  0
ENDBLK
  5
3078
  8
0
  0
BLOCK
  8
0
  2
*D530
 70
     1
 10
0.0
 20
0.0
 30
0.0
  3
*D530
  1

  0
LINE
  5
3088
  8
DIMENSIONS
  6
BYBLOCK
 62
     0
 10
191.5167140146839
 20
451.827705594966
 30
0.0
 11
140.1376350754311
 21
451.827705594966
 31
0.0
  0
LINE
  5
3089
  8
DIMENSIONS
  6
BYBLOCK
 62
     0
 10
172.0167140146839
 20
426.827705594966
 30
0.0
 11
140.1376350754311
 21
426.827705594966
 31
0.0
  0
LINE
  5
308A
  8
DIMENSIONS
  6
BYBLOCK
 62
     0
 10
140.3176350754311
 20
451.827705594966
 30
0.0
 11
140.3176350754311
 21
485.327705594966
 31
0.0
  0
LINE
  5
308B
  8
DIMENSIONS
  6
BYBLOCK
 62
     0
 10
140.3176350754311
 20
446.827705594966
 30
0.0
 11
140.3176350754311
 21
431.827705594966
 31
0.0
  0
SOLID
  5
308C
  8
DIMENSIONS
 62
     0
 10
141.1509684087644
 20
446.827705594966
 30
0.0
 11
139.4843017420977
 21
446.827705594966
 31
0.0
 12
140.3176350754311
 22
451.827705594966
 32
0.0
 13
140.3176350754311
 23
451.827705594966
 33
0.0
  0
SOLID
  5
308D
  8
DIMENSIONS
 62
     0
 10
139.4843017420977
 20
431.827705594966
 30
0.0
 11
141.1509684087644
 21
431.827705594966
 31
0.0
 12
140.3176350754311
 22
426.827705594966
 32
0.0
 13
140.3176350754311
 23
426.827705594966
 33
0.0
  0
TEXT
  5
308E
  8
DIMENSIONS
  6
CONTINUOUS
 62
     5
 10
137.9226350754311
 20
457.622705594966
 30
0.0
 40
5.0
  1
25 [0.98]
 50
90.0
  0
POINT
  5
308F
  8
DEFPOINTS
 62
     0
 10
193.0167140146839
 20
451.827705594966
 30
0.0
  0
POINT
  5
3090
  8
DEFPOINTS
 62
     0
 10
173.5167140146839
 20
426.827705594966
 30
0.0
  0
POINT
  5
30DD
  8
DEFPOINTS
 62
     0
 10
140.3176350754311
 20
426.827705594966
 30
0.0
  0
ENDBLK
  5
3087
  8
0
  0
BLOCK
  8
0
  2
*D531
 70
     1
 10
0.0
 20
0.0
 30
0.0
  3
*D531
  1

  0
LINE
  5
3097
  8
DIMENSIONS
  6
BYBLOCK
 62
     0
 10
479.0167140146839
 20
1256.827705594966
 30
0.0
 11
498.2637194471139
 21
1256.827705594966
 31
0.0
  0
LINE
  5
3098
  8
DIMENSIONS
  6
BYBLOCK
 62
     0
 10
459.5167140146839
 20
1224.827705594966
 30
0.0
 11
498.2637194471139
 21
1224.827705594966
 31
0.0
  0
LINE
  5
3099
  8
DIMENSIONS
  6
BYBLOCK
 62
     0
 10
498.0837194471139
 20
1251.827705594966
 30
0.0
 11
498.0837194471139
 21
1229.827705594966
 31
0.0
  0
SOLID
  5
309A
  8
DIMENSIONS
 62
     0
 10
498.9170527804472
 20
1251.827705594966
 30
0.0
 11
497.2503861137806
 21
1251.827705594966
 31
0.0
 12
498.0837194471139
 22
1256.827705594966
 32
0.0
 13
498.0837194471139
 23
1256.827705594966
 33
0.0
  0
SOLID
  5
309B
  8
DIMENSIONS
 62
     0
 10
497.2503861137806
 20
1229.827705594966
 30
0.0
 11
498.9170527804472
 21
1229.827705594966
 31
0.0
 12
498.0837194471139
 22
1224.827705594966
 32
0.0
 13
498.0837194471139
 23
1224.827705594966
 33
0.0
  0
TEXT
  5
309C
  8
DIMENSIONS
  6
CONTINUOUS
 62
     5
 10
495.6887194471137
 20
1227.327705594966
 30
0.0
 40
5.0
  1
32 [1.26]
 50
90.0
  0
POINT
  5
309D
  8
DEFPOINTS
 62
     0
 10
477.5167140146839
 20
1256.827705594966
 30
0.0
  0
POINT
  5
309E
  8
DEFPOINTS
 62
     0
 10
458.0167140146839
 20
1224.827705594966
 30
0.0
  0
POINT
  5
309F
  8
DEFPOINTS
 62
     0
 10
498.0837194471139
 20
1224.827705594966
 30
0.0
  0
ENDBLK
  5
3096
  8
0
  0
BLOCK
  8
0
  2
*D532
 70
     1
 10
0.0
 20
0.0
 30
0.0
  3
*D532
  1

  0
LINE
  5
30A6
  8
DIMENSIONS
  6
BYBLOCK
 62
     0
 10
459.5167140146839
 20
1224.827705594966
 30
0.0
 11
498.2637194471139
 21
1224.827705594966
 31
0.0
  0
LINE
  5
30A7
  8
DIMENSIONS
  6
BYBLOCK
 62
     0
 10
459.5167140146839
 20
1044.827705594966
 30
0.0
 11
498.2637194471139
 21
1044.827705594966
 31
0.0
  0
LINE
  5
30A8
  8
DIMENSIONS
  6
BYBLOCK
 62
     0
 10
498.0837194471139
 20
1219.827705594966
 30
0.0
 11
498.0837194471139
 21
1049.827705594966
 31
0.0
  0
SOLID
  5
30A9
  8
DIMENSIONS
 62
     0
 10
498.9170527804472
 20
1219.827705594966
 30
0.0
 11
497.2503861137806
 21
1219.827705594966
 31
0.0
 12
498.0837194471139
 22
1224.827705594966
 32
0.0
 13
498.0837194471139
 23
1224.827705594966
 33
0.0
  0
SOLID
  5
30AA
  8
DIMENSIONS
 62
     0
 10
497.2503861137806
 20
1049.827705594966
 30
0.0
 11
498.9170527804472
 21
1049.827705594966
 31
0.0
 12
498.0837194471139
 22
1044.827705594966
 32
0.0
 13
498.0837194471139
 23
1044.827705594966
 33
0.0
  0
TEXT
  5
30AB
  8
DIMENSIONS
  6
CONTINUOUS
 62
     5
 10
495.6887194471137
 20
1119.155205594966
 30
0.0
 40
5.0
  1
180 [7.09]
 50
90.0
  0
POINT
  5
30AC
  8
DEFPOINTS
 62
     0
 10
458.0167140146839
 20
1224.827705594966
 30
0.0
  0
POINT
  5
30AD
  8
DEFPOINTS
 62
     0
 10
458.0167140146839
 20
1044.827705594966
 30
0.0
  0
POINT
  5
30AE
  8
DEFPOINTS
 62
     0
 10
498.0837194471139
 20
1044.827705594966
 30
0.0
  0
ENDBLK
  5
30A5
  8
0
  0
BLOCK
  8
0
  2
*D533
 70
     1
 10
0.0
 20
0.0
 30
0.0
  3
*D533
  1

  0
LINE
  5
30B5
  8
DIMENSIONS
  6
BYBLOCK
 62
     0
 10
459.5167140146839
 20
1044.827705594966
 30
0.0
 11
498.2637194471139
 21
1044.827705594966
 31
0.0
  0
LINE
  5
30B6
  8
DIMENSIONS
  6
BYBLOCK
 62
     0
 10
459.5167140146839
 20
994.827705594966
 30
0.0
 11
498.2637194471139
 21
994.827705594966
 31
0.0
  0
LINE
  5
30B7
  8
DIMENSIONS
  6
BYBLOCK
 62
     0
 10
498.0837194471139
 20
1039.827705594966
 30
0.0
 11
498.0837194471139
 21
999.827705594966
 31
0.0
  0
SOLID
  5
30B8
  8
DIMENSIONS
 62
     0
 10
498.9170527804472
 20
1039.827705594966
 30
0.0
 11
497.2503861137806
 21
1039.827705594966
 31
0.0
 12
498.0837194471139
 22
1044.827705594966
 32
0.0
 13
498.0837194471139
 23
1044.827705594966
 33
0.0
  0
SOLID
  5
30B9
  8
DIMENSIONS
 62
     0
 10
497.2503861137806
 20
999.827705594966
 30
0.0
 11
498.9170527804472
 21
999.827705594966
 31
0.0
 12
498.0837194471139
 22
994.827705594966
 32
0.0
 13
498.0837194471139
 23
994.827705594966
 33
0.0
  0
TEXT
  5
30BA
  8
DIMENSIONS
  6
CONTINUOUS
 62
     5
 10
495.6887194471138
 20
1006.330205594966
 30
0.0
 40
5.0
  1
50 [1.97]
 50
90.0
  0
POINT
  5
30BB
  8
DEFPOINTS
 62
     0
 10
458.0167140146839
 20
1044.827705594966
 30
0.0
  0
POINT
  5
30BC
  8
DEFPOINTS
 62
     0
 10
458.0167140146839
 20
994.827705594966
 30
0.0
  0
POINT
  5
30BD
  8
DEFPOINTS
 62
     0
 10
498.0837194471139
 20
994.827705594966
 30
0.0
  0
ENDBLK
  5
30B4
  8
0
  0
BLOCK
  8
0
  2
*D534
 70
     1
 10
0.0
 20
0.0
 30
0.0
  3
*D534
  1

  0
LINE
  5
30C4
  8
DIMENSIONS
  6
BYBLOCK
 62
     0
 10
459.5167140146839
 20
994.827705594966
 30
0.0
 11
498.2637194471139
 21
994.827705594966
 31
0.0
  0
LINE
  5
30C5
  8
DIMENSIONS
  6
BYBLOCK
 62
     0
 10
459.5167140146839
 20
834.827705594966
 30
0.0
 11
498.2637194471139
 21
834.827705594966
 31
0.0
  0
LINE
  5
30C6
  8
DIMENSIONS
  6
BYBLOCK
 62
     0
 10
498.0837194471139
 20
989.827705594966
 30
0.0
 11
498.0837194471139
 21
839.827705594966
 31
0.0
  0
SOLID
  5
30C7
  8
DIMENSIONS
 62
     0
 10
498.9170527804472
 20
989.827705594966
 30
0.0
 11
497.2503861137806
 21
989.827705594966
 31
0.0
 12
498.0837194471139
 22
994.827705594966
 32
0.0
 13
498.0837194471139
 23
994.827705594966
 33
0.0
  0
SOLID
  5
30C8
  8
DIMENSIONS
 62
     0
 10
497.2503861137806
 20
839.827705594966
 30
0.0
 11
498.9170527804472
 21
839.827705594966
 31
0.0
 12
498.0837194471139
 22
834.827705594966
 32
0.0
 13
498.0837194471139
 23
834.827705594966
 33
0.0
  0
TEXT
  5
30C9
  8
DIMENSIONS
  6
CONTINUOUS
 62
     5
 10
495.688719447114
 20
899.155205594966
 30
0.0
 40
5.0
  1
160 [6.30]
 50
90.0
  0
POINT
  5
30CA
  8
DEFPOINTS
 62
     0
 10
458.0167140146839
 20
994.827705594966
 30
0.0
  0
POINT
  5
30CB
  8
DEFPOINTS
 62
     0
 10
458.0167140146839
 20
834.827705594966
 30
0.0
  0
POINT
  5
30CC
  8
DEFPOINTS
 62
     0
 10
498.0837194471139
 20
834.827705594966
 30
0.0
  0
ENDBLK
  5
30C3
  8
0
  0
BLOCK
  8
0
  2
*D535
 70
     1
 10
0.0
 20
0.0
 30
0.0
  3
*D535
  1

  0
LINE
  5
30D3
  8
DIMENSIONS
  6
BYBLOCK
 62
     0
 10
459.5167140146839
 20
834.827705594966
 30
0.0
 11
498.2637194471139
 21
834.827705594966
 31
0.0
  0
LINE
  5
30D4
  8
DIMENSIONS
  6
BYBLOCK
 62
     0
 10
479.0167140146839
 20
426.827705594966
 30
0.0
 11
498.2637194471139
 21
426.827705594966
 31
0.0
  0
LINE
  5
30D5
  8
DIMENSIONS
  6
BYBLOCK
 62
     0
 10
498.0837194471139
 20
829.827705594966
 30
0.0
 11
498.0837194471139
 21
431.827705594966
 31
0.0
  0
SOLID
  5
30D6
  8
DIMENSIONS
 62
     0
 10
498.9170527804472
 20
829.827705594966
 30
0.0
 11
497.2503861137806
 21
829.827705594966
 31
0.0
 12
498.0837194471139
 22
834.827705594966
 32
0.0
 13
498.0837194471139
 23
834.827705594966
 33
0.0
  0
SOLID
  5
30D7
  8
DIMENSIONS
 62
     0
 10
497.2503861137806
 20
431.827705594966
 30
0.0
 11
498.9170527804472
 21
431.827705594966
 31
0.0
 12
498.0837194471139
 22
426.827705594966
 32
0.0
 13
498.0837194471139
 23
426.827705594966
 33
0.0
  0
TEXT
  5
30D8
  8
DIMENSIONS
  6
CONTINUOUS
 62
     5
 10
495.688719447114
 20
613.550205594966
 30
0.0
 40
5.0
  1
408 [16.06]
 50
90.0
  0
POINT
  5
30D9
  8
DEFPOINTS
 62
     0
 10
458.0167140146839
 20
834.827705594966
 30
0.0
  0
POINT
  5
30DA
  8
DEFPOINTS
 62
     0
 10
477.5167140146839
 20
426.827705594966
 30
0.0
  0
POINT
  5
30DB
  8
DEFPOINTS
 62
     0
 10
498.0837194471139
 20
426.827705594966
 30
0.0
  0
ENDBLK
  5
30D2
  8
0
  0
BLOCK
  8
0
  2
*D536
 70
     1
 10
0.0
 20
0.0
 30
0.0
  3
*D536
  1

  0
LINE
  5
30E7
  8
DIMENSIONS
  6
BYBLOCK
 62
     0
 10
449.7667172100568
 20
451.8349666997614
 30
0.0
 11
403.5417351138281
 21
451.8756508899631
 31
0.0
  0
TEXT
  5
30E8
  8
DIMENSIONS
  6
CONTINUOUS
 62
     5
 10
404.2639131663977
 20
454.3500162349328
 30
0.0
 40
5.0
  1
Ø6.5 [Ø0.26]
 50
359.9495720347774
  0
SOLID
  5
30E9
  8
DIMENSIONS
 62
     0
 10
449.765983765128
 20
451.0016336891931
 30
0.0
 11
449.7674506549856
 21
452.6682997103298
 31
0.0
 12
454.7667152734672
 22
451.8305660301885
 32
0.0
 13
454.7667152734672
 23
451.8305660301885
 33
0.0
  0
LINE
  5
30EA
  8
DIMENSIONS
  6
BYBLOCK
 62
     0
 10
455.5167140146839
 20
451.8277055949661
 30
0.0
 11
460.5167140146839
 21
451.8277055949661
 31
0.0
  0
LINE
  5
30EB
  8
DIMENSIONS
  6
BYBLOCK
 62
     0
 10
458.0167140146839
 20
449.3277055949661
 30
0.0
 11
458.0167140146839
 21
454.3277055949661
 31
0.0
  0
POINT
  5
30EC
  8
DEFPOINTS
 62
     0
 10
454.7667152734672
 20
451.8305660301885
 30
0.0
  0
POINT
  5
30ED
  8
DEFPOINTS
 62
     0
 10
461.2667127559006
 20
451.8248451597437
 30
0.0
  0
ENDBLK
  5
30E6
  8
0
  0
BLOCK
  8
0
  2
*D537
 70
     1
 10
0.0
 20
0.0
 30
0.0
  3
*D537
  1

  0
LINE
  5
30F6
  8
DIMENSIONS
  6
BYBLOCK
 62
     0
 10
172.0167140146839
 20
1256.827705594966
 30
0.0
 11
122.9619277554121
 21
1256.827705594966
 31
0.0
  0
LINE
  5
30F7
  8
DIMENSIONS
  6
BYBLOCK
 62
     0
 10
172.0167140146839
 20
426.827705594966
 30
0.0
 11
122.961927755412
 21
426.827705594966
 31
0.0
  0
LINE
  5
30F8
  8
DIMENSIONS
  6
BYBLOCK
 62
     0
 10
123.1419277554121
 20
1251.827705594966
 30
0.0
 11
123.141927755412
 21
431.827705594966
 31
0.0
  0
SOLID
  5
30F9
  8
DIMENSIONS
 62
     0
 10
123.9752610887454
 20
1251.827705594966
 30
0.0
 11
122.3085944220788
 21
1251.827705594966
 31
0.0
 12
123.1419277554121
 22
1256.827705594966
 32
0.0
 13
123.1419277554121
 23
1256.827705594966
 33
0.0
  0
SOLID
  5
30FA
  8
DIMENSIONS
 62
     0
 10
122.3085944220787
 20
431.827705594966
 30
0.0
 11
123.9752610887454
 21
431.827705594966
 31
0.0
 12
123.141927755412
 22
426.827705594966
 32
0.0
 13
123.141927755412
 23
426.827705594966
 33
0.0
  0
TEXT
  5
30FB
  8
DIMENSIONS
  6
CONTINUOUS
 62
     5
 10
120.7469277554121
 20
824.4527055949661
 30
0.0
 40
5.0
  1
830 [32.68]
 50
90.0
  0
POINT
  5
30FC
  8
DEFPOINTS
 62
     0
 10
173.5167140146839
 20
1256.827705594966
 30
0.0
  0
POINT
  5
30FD
  8
DEFPOINTS
 62
     0
 10
173.5167140146839
 20
426.827705594966
 30
0.0
  0
POINT
  5
30FE
  8
DEFPOINTS
 62
     0
 10
123.141927755412
 20
426.827705594966
 30
0.0
  0
ENDBLK
  5
30F5
  8
0
  0
ENDSEC
  0
SECTION
  2
ENTITIES
  0
TEXT
  5
25BF
  8
DIMENSIONS
  6
BYBLOCK
 10
177.0453220085568
 20
400.943812311563
 30
0.0
 40
5.0
  1
Note:
  0
TEXT
  5
25C0
  8
DIMENSIONS
  6
BYBLOCK
 10
177.1792480488423
 20
390.4148444635699
 30
0.0
 40
5.0
  1
Primary dimensions in millimeters.
  0
TEXT
  5
25C1
  8
DIMENSIONS
  6
BYBLOCK
 10
177.4006619852323
 20
379.8428188547859
 30
0.0
 40
5.0
  1
Secondary dimensions in inches.
  0
LINE
  5
3014
  8
0
  6
CONTINUOUS
 10
477.5167140146839
 20
426.827705594966
 30
0.0
 11
173.5167140146839
 21
426.827705594966
 31
0.0
  0
LINE
  5
3015
  8
0
  6
CONTINUOUS
 10
173.5167140146839
 20
426.827705594966
 30
0.0
 11
173.5167140146839
 21
1256.827705594966
 31
0.0
  0
LINE
  5
3016
  8
0
  6
CONTINUOUS
 10
193.0167140146839
 20
834.827705594966
 30
0.0
 11
193.0167140146839
 21
994.827705594966
 31
0.0
  0
LINE
  5
3017
  8
0
  6
CONTINUOUS
 10
193.0167140146839
 20
1044.827705594966
 30
0.0
 11
193.0167140146839
 21
1224.827705594966
 31
0.0
  0
LINE
  5
3018
  8
0
  6
CONTINUOUS
 10
458.0167140146839
 20
834.827705594966
 30
0.0
 11
193.0167140146839
 21
834.827705594966
 31
0.0
  0
LINE
  5
3019
  8
0
  6
CONTINUOUS
 10
458.0167140146839
 20
1224.827705594966
 30
0.0
 11
458.0167140146839
 21
1044.827705594966
 31
0.0
  0
LINE
  5
301A
  8
0
  6
CONTINUOUS
 10
458.0167140146839
 20
994.827705594966
 30
0.0
 11
458.0167140146839
 21
834.827705594966
 31
0.0
  0
LINE
  5
301B
  8
0
  6
CONTINUOUS
 10
477.5167140146839
 20
1256.827705594966
 30
0.0
 11
477.5167140146839
 21
426.827705594966
 31
0.0
  0
LINE
  5
301C
  8
0
  6
CONTINUOUS
 10
193.0167140146839
 20
994.827705594966
 30
0.0
 11
458.0167140146839
 21
994.827705594966
 31
0.0
  0
LINE
  5
301D
  8
0
  6
CONTINUOUS
 10
458.0167140146839
 20
1044.827705594966
 30
0.0
 11
193.0167140146839
 21
1044.827705594966
 31
0.0
  0
LINE
  5
301E
  8
0
  6
CONTINUOUS
 10
193.0167140146839
 20
1224.827705594966
 30
0.0
 11
458.0167140146839
 21
1224.827705594966
 31
0.0
  0
LINE
  5
301F
  8
0
  6
CONTINUOUS
 10
173.5167140146839
 20
1256.827705594966
 30
0.0
 11
477.5167140146839
 21
1256.827705594966
 31
0.0
  0
CIRCLE
  5
3020
  8
0
  6
CONTINUOUS
 10
458.0167140146839
 20
1236.827705594966
 30
0.0
 40
3.25
  0
CIRCLE
  5
3021
  8
0
  6
CONTINUOUS
 10
458.0167140146839
 20
1036.827705594966
 30
0.0
 40
3.25
  0
CIRCLE
  5
3022
  8
0
  6
CONTINUOUS
 10
458.0167140146839
 20
801.827705594966
 30
0.0
 40
3.25
  0
CIRCLE
  5
3023
  8
0
  6
CONTINUOUS
 10
458.0167140146839
 20
451.827705594966
 30
0.0
 40
3.25
  0
CIRCLE
  5
3024
  8
0
  6
CONTINUOUS
 10
193.0167140146839
 20
1236.827705594966
 30
0.0
 40
3.25
  0
CIRCLE
  5
3025
  8
0
  6
CONTINUOUS
 10
193.0167140146839
 20
1036.827705594966
 30
0.0
 40
3.25
  0
CIRCLE
  5
3026
  8
0
  6
CONTINUOUS
 10
193.0167140146839
 20
801.827705594966
 30
0.0
 40
3.25
  0
CIRCLE
  5
3027
  8
0
  6
CONTINUOUS
 10
193.0167140146839
 20
451.827705594966
 30
0.0
 40
3.25
  0
DIMENSION
  5
3028
  8
DIMENSIONS
  6
BYBLOCK
  2
*D524
 10
458.0167140146839
 20
1274.455057099838
 30
0.0
 11
325.5167140146839
 21
1278.657557099838
 31
0.0
 70
    32
  3
DUAL-DIM
 13
193.0167140146839
 23
1224.827705594966
 33
0.0
 14
458.0167140146839
 24
1224.827705594966
 34
0.0
1001
ACAD
1000
DSTYLE
1002
{
1070
   287
1070
     5
1070
   279
1070
     2
1002
}
  0
DIMENSION
  5
3037
  8
DIMENSIONS
  6
BYBLOCK
  2
*D525
 10
477.5167140146839
 20
1291.677848593282
 30
0.0
 11
325.5167140146839
 21
1295.880348593282
 31
0.0
 70
    32
  3
DUAL-DIM
 13
173.5167140146839
 23
1256.827705594966
 33
0.0
 14
477.5167140146839
 24
1256.827705594966
 34
0.0
1001
ACAD
1000
DSTYLE
1002
{
1070
   287
1070
     5
1070
   279
1070
     2
1002
}
  0
DIMENSION
  5
3046
  8
DIMENSIONS
  6
BYBLOCK
  2
*D526
 10
140.0058496344196
 20
1236.827705594966
 30
0.0
 11
140.0058496344196
 21
1217.577705594966
 31
0.0
 70
   160
  3
DUAL-DIM
 13
173.5167140146839
 23
1256.827705594966
 33
0.0
 14
193.0167140146839
 24
1236.827705594966
 34
0.0
 50
90.0
1001
ACAD
1000
DSTYLE
1002
{
1070
   287
1070
     3
1070
   279
1070
     0
1002
}
  0
DIMENSION
  5
3055
  8
DIMENSIONS
  6
BYBLOCK
  2
*D527
 10
155.7985172115028
 20
1036.827705594966
 30
0.0
 11
151.5960172115027
 21
1136.827705594966
 31
0.0
 70
    32
  3
DUAL-DIM
 13
193.0167140146839
 23
1236.827705594966
 33
0.0
 14
193.0167140146839
 24
1036.827705594966
 34
0.0
 50
90.0
1001
ACAD
1000
DSTYLE
1002
{
1070
   287
1070
     5
1070
   279
1070
     2
1002
}
  0
DIMENSION
  5
3064
  8
DIMENSIONS
  6
BYBLOCK
  2
*D528
 10
155.7985172115027
 20
801.827705594966
 30
0.0
 11
151.5960172115028
 21
919.3277055949661
 31
0.0
 70
    32
  3
DUAL-DIM
 13
193.0167140146839
 23
1036.827705594966
 33
0.0
 14
193.0167140146839
 24
801.827705594966
 34
0.0
 50
90.0
1001
ACAD
1000
DSTYLE
1002
{
1070
   287
1070
     5
1070
   279
1070
     2
1002
}
  0
DIMENSION
  5
3073
  8
DIMENSIONS
  6
BYBLOCK
  2
*D529
 10
155.7985172115027
 20
451.827705594966
 30
0.0
 11
151.5960172115027
 21
626.827705594966
 31
0.0
 70
    32
  3
DUAL-DIM
 13
193.0167140146839
 23
801.827705594966
 33
0.0
 14
193.0167140146839
 24
451.827705594966
 34
0.0
 50
90.0
1001
ACAD
1000
DSTYLE
1002
{
1070
   287
1070
     5
1070
   279
1070
     2
1002
}
  0
DIMENSION
  5
3082
  8
DIMENSIONS
  6
BYBLOCK
  2
*D530
 10
140.3176350754311
 20
426.827705594966
 30
0.0
 11
140.3176350754311
 21
471.077705594966
 31
0.0
 70
   160
  3
DUAL-DIM
 13
193.0167140146839
 23
451.827705594966
 33
0.0
 14
173.5167140146839
 24
426.827705594966
 34
0.0
 50
90.0
1001
ACAD
1000
DSTYLE
1002
{
1070
   287
1070
     3
1070
   279
1070
     0
1002
}
  0
DIMENSION
  5
3091
  8
DIMENSIONS
  6
BYBLOCK
  2
*D531
 10
498.0837194471139
 20
1224.827705594966
 30
0.0
 11
493.8812194471138
 21
1240.827705594966
 31
0.0
 70
    32
  3
DUAL-DIM
 13
477.5167140146839
 23
1256.827705594966
 33
0.0
 14
458.0167140146839
 24
1224.827705594966
 34
0.0
 50
90.0
1001
ACAD
1000
DSTYLE
1002
{
1070
   287
1070
     5
1070
   279
1070
     2
1002
}
  0
DIMENSION
  5
30A0
  8
DIMENSIONS
  6
BYBLOCK
  2
*D532
 10
498.0837194471139
 20
1044.827705594966
 30
0.0
 11
493.8812194471138
 21
1134.827705594966
 31
0.0
 70
    32
  3
DUAL-DIM
 13
458.0167140146839
 23
1224.827705594966
 33
0.0
 14
458.0167140146839
 24
1044.827705594966
 34
0.0
 50
90.0
1001
ACAD
1000
DSTYLE
1002
{
1070
   287
1070
     5
1070
   279
1070
     2
1002
}
  0
DIMENSION
  5
30AF
  8
DIMENSIONS
  6
BYBLOCK
  2
*D533
 10
498.0837194471139
 20
994.827705594966
 30
0.0
 11
493.8812194471139
 21
1019.827705594966
 31
0.0
 70
    32
  3
DUAL-DIM
 13
458.0167140146839
 23
1044.827705594966
 33
0.0
 14
458.0167140146839
 24
994.827705594966
 34
0.0
 50
90.0
1001
ACAD
1000
DSTYLE
1002
{
1070
   287
1070
     5
1070
   279
1070
     2
1002
}
  0
DIMENSION
  5
30BE
  8
DIMENSIONS
  6
BYBLOCK
  2
*D534
 10
498.0837194471139
 20
834.827705594966
 30
0.0
 11
493.8812194471139
 21
914.827705594966
 31
0.0
 70
    32
  3
DUAL-DIM
 13
458.0167140146839
 23
994.827705594966
 33
0.0
 14
458.0167140146839
 24
834.827705594966
 34
0.0
 50
90.0
1001
ACAD
1000
DSTYLE
1002
{
1070
   287
1070
     5
1070
   279
1070
     2
1002
}
  0
DIMENSION
  5
30CD
  8
DIMENSIONS
  6
BYBLOCK
  2
*D535
 10
498.0837194471139
 20
426.827705594966
 30
0.0
 11
493.8812194471139
 21
630.827705594966
 31
0.0
 70
    32
  3
DUAL-DIM
 13
458.0167140146839
 23
834.827705594966
 33
0.0
 14
477.5167140146839
 24
426.827705594966
 34
0.0
 50
90.0
1001
ACAD
1000
DSTYLE
1002
{
1070
   287
1070
     5
1070
   279
1070
     2
1002
}
  0
LINE
  5
30DF
  8
DIMENSIONS
  6
BYBLOCK
 10
456.7667140146839
 20
451.827705594966
 30
0.0
 11
459.2667140146839
 21
451.827705594966
 31
0.0
  0
LINE
  5
30E0
  8
DIMENSIONS
  6
BYBLOCK
 10
458.0167140146839
 20
450.577705594966
 30
0.0
 11
458.0167140146839
 21
453.077705594966
 31
0.0
  0
DIMENSION
  5
30E1
  8
DIMENSIONS
  6
BYBLOCK
  2
*D536
 10
461.2667127559006
 20
451.8248451597437
 30
0.0
 11
424.1542271302372
 21
451.8575091296487
 31
0.0
 70
   163
  1
<>
  3
DUAL-DIM
 15
454.7667152734672
 25
451.8305660301885
 35
0.0
 40
0.0
1001
ACAD
1000
DSTYLE
1002
{
1070
   287
1070
     3
1070
   279
1070
     0
1002
}
1001
ACAD_DSTYLE_DIMRADIAL_EXT0
1070
   387
1070
     1
1070
   388
1040
0.0
1070
   390
1040
6.283185307179586
  0
DIMENSION
  5
30F0
  8
DIMENSIONS
  6
BYBLOCK
  2
*D537
 10
123.141927755412
 20
426.827705594966
 30
0.0
 11
118.9394277554121
 21
841.8277055949661
 31
0.0
 70
    32
  3
DUAL-DIM
 13
173.5167140146839
 23
1256.827705594966
 33
0.0
 14
173.5167140146839
 24
426.827705594966
 34
0.0
 50
90.0
1001
ACAD
1000
DSTYLE
1002
{
1070
   287
1070
     5
1070
   279
1070
     2
1002
}
  0
POLYLINE
  5
30FF
  8
0
  6
BYBLOCK
 66
     1
 10
0.0
 20
0.0
 30
0.0
 70
     1
  0
VERTEX
  5
3106
  8
0
  6
BYBLOCK
 10
69.61237440676314
 20
370.9424327776749
 30
0.0
  0
VERTEX
  5
3107
  8
0
  6
BYBLOCK
 10
69.61237440676314
 20
1316.196008983085
 30
0.0
  0
VERTEX
  5
3108
  8
0
  6
BYBLOCK
 10
556.6007499932523
 20
1316.196008983085
 30
0.0
  0
VERTEX
  5
3109
  8
0
  6
BYBLOCK
 10
556.6007499932523
 20
370.9424327776749
 30
0.0
  0
SEQEND
  5
310A
  8
0
  6
BYBLOCK
  0
VIEWPORT
  5
B1C
 67
     1
  8
0
 10
5.25
 20
3.5
 30
0.0
 40
12.6
 41
8.4
 68
     1
 69
     1
1001
ACAD
1000
MVIEW
1002
{
1070
    16
1010
0.0
1020
0.0
1030
0.0
1010
0.0
1020
0.0
1030
1.0
1040
0.0
1040
8.4
1040
5.25
1040
3.5
1040
50.0
1040
0.0
1040
0.0
1070
     0
1070
   100
1070
     0
1070
     3
1070
     0
1070
     0
1070
     0
1070
     0
1040
0.0
1040
0.0
1040
0.0
1040
0.5
1040
0.5
1040
0.0
1040
0.0
1070
     0
1002
{
1002
}
1002
}
  0
VIEWPORT
  5
B1D
 67
     1
  8
0
 10
5.25
 20
3.5
 30
0.0
 40
8.4
 41
5.600000000000001
 68
     2
 69
     2
1001
ACAD
1000
MVIEW
1002
{
1070
    16
1010
0.0
1020
0.0
1030
0.0
1010
0.0
1020
0.0
1030
1.0
1040
0.0
1040
278.6419840998563
1040
207.1268606538857
1040
36.27547653054833
1040
50.0
1040
0.0
1040
0.0
1070
     0
1070
   100
1070
     0
1070
     3
1070
     0
1070
     0
1070
     0
1070
     0
1040
0.0
1040
0.0
1040
0.0
1040
0.5
1040
0.5
1040
0.0
1040
0.0
1070
     0
1002
{
1002
}
1002
}
  0
ENDSEC
  0
EOF
