  0
SECTION
  2
HEADER
  9
$ACADVER
  1
AC1009
  9
$DWGCODEPAGE
  3
ansi_1252
  9
$INSBASE
 10
0.0
 20
0.0
 30
0.0
  9
$EXTMIN
 10
1.000000000000000E+20
 20
1.000000000000000E+20
 30
1.000000000000000E+20
  9
$EXTMAX
 10
-1.000000000000000E+20
 20
-1.000000000000000E+20
 30
-1.000000000000000E+20
  9
$LIMMIN
 10
0.0
 20
0.0
  9
$LIMMAX
 10
594.0
 20
420.0
  9
$ORTHOMODE
 70
     0
  9
$REGENMODE
 70
     1
  9
$FILLMODE
 70
     1
  9
$QTEXTMODE
 70
     0
  9
$MIRRTEXT
 70
     1
  9
$DRAGMODE
 70
     2
  9
$LTSCALE
 40
32.67
  9
$OSMODE
 70
   511
  9
$ATTMODE
 70
     1
  9
$TEXTSIZE
 40
0.2
  9
$TRACEWID
 40
0.05
  9
$TEXTSTYLE
  7
STANDARD
  9
$CLAYER
  8
DIMENSIONS
  9
$CELTYPE
  6
BYBLOCK
  9
$CECOLOR
 62
   256
  9
$DIMSCALE
 40
1.0
  9
$DIMASZ
 40
5.0
  9
$DIMEXO
 40
1.5
  9
$DIMDLI
 40
1.0
  9
$DIMRND
 40
0.0
  9
$DIMDLE
 40
0.0
  9
$DIMEXE
 40
0.18
  9
$DIMTP
 40
0.0
  9
$DIMTM
 40
0.0
  9
$DIMTXT
 40
5.0
  9
$DIMCEN
 40
2.5
  9
$DIMTSZ
 40
0.0
  9
$DIMTOL
 70
     0
  9
$DIMLIM
 70
     0
  9
$DIMTIH
 70
     0
  9
$DIMTOH
 70
     0
  9
$DIMSE1
 70
     0
  9
$DIMSE2
 70
     0
  9
$DIMTAD
 70
     1
  9
$DIMZIN
 70
     8
  9
$DIMBLK
  1

  9
$DIMASO
 70
     1
  9
$DIMSHO
 70
     1
  9
$DIMPOST
  1

  9
$DIMAPOST
  1

  9
$DIMALT
 70
     1
  9
$DIMALTD
 70
     2
  9
$DIMALTF
 40
0.03937
  9
$DIMLFAC
 40
1.0
  9
$DIMTOFL
 70
     0
  9
$DIMTVP
 40
0.0
  9
$DIMTIX
 70
     0
  9
$DIMSOXD
 70
     0
  9
$DIMSAH
 70
     0
  9
$DIMBLK1
  1

  9
$DIMBLK2
  1

  9
$DIMSTYLE
  2
DUAL-DIM
  9
$DIMCLRD
 70
     0
  9
$DIMCLRE
 70
     0
  9
$DIMCLRT
 70
     5
  9
$DIMTFAC
 40
1.0
  9
$DIMGAP
 40
1.0
  9
$LUNITS
 70
     2
  9
$LUPREC
 70
     4
  9
$SKETCHINC
 40
0.1
  9
$FILLETRAD
 40
15.0
  9
$AUNITS
 70
     0
  9
$AUPREC
 70
     0
  9
$MENU
  1
.
  9
$ELEVATION
 40
0.0
  9
$PELEVATION
 40
0.0
  9
$THICKNESS
 40
0.0
  9
$LIMCHECK
 70
     0
  9
$CHAMFERA
 40
0.0
  9
$CHAMFERB
 40
0.0
  9
$SKPOLY
 70
     0
  9
$TDCREATE
 40
2457428.354677859
  9
$TDUPDATE
 40
2457434.530954259
  9
$TDINDWG
 40
0.1192135069
  9
$TDUSRTIMER
 40
2457434.484169039
  9
$USRTIMER
 70
     1
  9
$ANGBASE
 50
0.0
  9
$ANGDIR
 70
     0
  9
$PDMODE
 70
     3
  9
$PDSIZE
 40
0.3125
  9
$PLINEWID
 40
0.0
  9
$COORDS
 70
     1
  9
$SPLFRAME
 70
     0
  9
$SPLINETYPE
 70
     6
  9
$SPLINESEGS
 70
     8
  9
$ATTDIA
 70
     0
  9
$ATTREQ
 70
     1
  9
$HANDLING
 70
     1
  9
$HANDSEED
  5
348A
  9
$SURFTAB1
 70
     6
  9
$SURFTAB2
 70
     6
  9
$SURFTYPE
 70
     6
  9
$SURFU
 70
     6
  9
$SURFV
 70
     6
  9
$UCSNAME
  2

  9
$UCSORG
 10
0.0
 20
0.0
 30
0.0
  9
$UCSXDIR
 10
1.0
 20
0.0
 30
0.0
  9
$UCSYDIR
 10
0.0
 20
1.0
 30
0.0
  9
$PUCSNAME
  2

  9
$PUCSORG
 10
0.0
 20
0.0
 30
0.0
  9
$PUCSXDIR
 10
1.0
 20
0.0
 30
0.0
  9
$PUCSYDIR
 10
0.0
 20
1.0
 30
0.0
  9
$USERI1
 70
     0
  9
$USERI2
 70
     0
  9
$USERI3
 70
     0
  9
$USERI4
 70
     0
  9
$USERI5
 70
     0
  9
$USERR1
 40
0.0
  9
$USERR2
 40
0.0
  9
$USERR3
 40
0.0
  9
$USERR4
 40
0.0
  9
$USERR5
 40
0.0
  9
$WORLDVIEW
 70
     1
  9
$SHADEDGE
 70
     3
  9
$SHADEDIF
 70
    70
  9
$TILEMODE
 70
     1
  9
$MAXACTVP
 70
    64
  9
$PLIMCHECK
 70
     0
  9
$PEXTMIN
 10
1.05
 20
0.6999999999999997
 30
0.0
  9
$PEXTMAX
 10
9.45
 20
6.300000000000001
 30
0.0
  9
$PLIMMIN
 10
-0.25
 20
-0.7499999999999999
  9
$PLIMMAX
 10
10.75
 20
7.75
  9
$UNITMODE
 70
     0
  9
$VISRETAIN
 70
     1
  9
$PLINEGEN
 70
     0
  9
$PSLTSCALE
 70
     1
  0
ENDSEC
  0
SECTION
  2
TABLES
  0
TABLE
  2
VPORT
 70
     1
  0
VPORT
  2
*ACTIVE
 70
     0
 10
0.0
 20
0.0
 11
1.0
 21
1.0
 12
1124.299889019831
 22
1354.600343316011
 13
0.0
 23
0.0
 14
0.5
 24
0.5
 15
0.5
 25
0.5
 16
0.0
 26
0.0
 36
1.0
 17
0.0
 27
0.0
 37
0.0
 40
1648.398243334996
 41
2.792291220556745
 42
50.0
 43
0.0
 44
0.0
 50
0.0
 51
0.0
 71
    16
 72
   100
 73
     1
 74
     3
 75
     0
 76
     0
 77
     0
 78
     0
  0
ENDTAB
  0
TABLE
  2
LTYPE
 70
     7
  0
LTYPE
  2
CONTINUOUS
 70
     0
  3
Solid line
 72
    65
 73
     0
 40
0.0
  0
LTYPE
  2
CENTER
 70
     0
  3
____ _ ____ _ ____ _ ____ _ ____ _ ____ _ ____
 72
    65
 73
     4
 40
0.6
 49
0.375
 49
-0.075
 49
0.075
 49
-0.075
  0
LTYPE
  2
HIDDEN
 70
     0
  3
- - - - - - - - - - - - - - - - - - - -
 72
    65
 73
     2
 40
0.2
 49
0.1
 49
-0.1
  0
LTYPE
  2
PHANTOM
 70
     0
  3
_____ _ _ _____ _ _ _____ _ _ _____
 72
    65
 73
     6
 40
0.8
 49
0.45
 49
-0.05
 49
0.1
 49
-0.05
 49
0.1
 49
-0.05
  0
LTYPE
  2
DOT
 70
     0
  3
. . . . . . . . . . . . . . . . . . . .
 72
    65
 73
     2
 40
0.2
 49
0.1
 49
-0.1
  0
LTYPE
  2
DASHED
 70
     0
  3
- - - - - - - - - - - - - - - - - - - -
 72
    65
 73
     2
 40
0.2
 49
0.1
 49
-0.1
  0
LTYPE
  2
STRICHPUNKT
 70
     0
  3
__ . __ . __ . __ . __ . __ . __ . __ . __ . __
 72
    65
 73
     4
 40
1.0
 49
0.5
 49
-0.25
 49
0.0
 49
-0.25
  0
ENDTAB
  0
TABLE
  2
LAYER
 70
    19
  0
LAYER
  2
0
 70
     0
 62
     7
  6
CONTINUOUS
  0
LAYER
  2
DEFAULT_1
 70
     0
 62
     7
  6
CENTER
  0
LAYER
  2
DEFAULT_2
 70
     0
 62
     7
  6
HIDDEN
  0
LAYER
  2
DEFAULT_3
 70
     0
 62
     7
  6
PHANTOM
  0
LAYER
  2
01___PRT_ALL_DTM_PLN
 70
     0
 62
     7
  6
CONTINUOUS
  0
LAYER
  2
01___PRT_DEF_DTM_PLN
 70
     0
 62
     7
  6
CONTINUOUS
  0
LAYER
  2
02___PRT_ALL_AXES
 70
     0
 62
     7
  6
CONTINUOUS
  0
LAYER
  2
03___PRT_ALL_CURVES
 70
     0
 62
     7
  6
CONTINUOUS
  0
LAYER
  2
04___PRT_ALL_DTM_PNT
 70
     0
 62
     7
  6
CONTINUOUS
  0
LAYER
  2
05___PRT_ALL_DTM_CSYS
 70
     0
 62
     7
  6
CONTINUOUS
  0
LAYER
  2
05___PRT_DEF_DTM_CSYS
 70
     0
 62
     7
  6
CONTINUOUS
  0
LAYER
  2
06___PRT_ALL_SURFS
 70
     0
 62
     7
  6
CONTINUOUS
  0
LAYER
  2
DEFPOINTS
 70
     0
 62
     7
  6
CONTINUOUS
  0
LAYER
  2
DIMENSIONS
 70
     0
 62
     2
  6
CONTINUOUS
  0
LAYER
  2
AM_5
 70
     0
 62
     3
  6
CONTINUOUS
  0
LAYER
  2
CUTOUT
 70
     0
 62
     7
  6
CONTINUOUS
  0
LAYER
  2
EXTERNAL_OUTFIT
 70
     0
 62
     7
  6
CENTER
  0
LAYER
  2
OUTLINES
 70
     0
 62
     4
  6
CONTINUOUS
  0
LAYER
  2
3
 70
     0
 62
     4
  6
CONTINUOUS
  0
ENDTAB
  0
TABLE
  2
STYLE
 70
     2
  0
STYLE
  2
STANDARD
 70
     0
 40
0.0
 41
1.0
 50
0.0
 71
     0
 42
0.2
  3
arial.ttf
  4

  0
STYLE
  2
TEXTSTYLE_1
 70
     0
 40
0.0
 41
0.8
 50
0.0
 71
     0
 42
0.2
  3
gdt
  4

  0
ENDTAB
  0
TABLE
  2
VIEW
 70
     0
  0
ENDTAB
  0
TABLE
  2
UCS
 70
     0
  0
ENDTAB
  0
TABLE
  2
APPID
 70
    11
  0
APPID
  2
ACAD
 70
     0
  0
APPID
  2
ACAECLAYERSTANDARD
 70
     0
  0
APPID
  2
ACAD_DSTYLE_DIMRADIAL_EXTE
 70
     0
  0
APPID
  2
ACAD_DSTYLE_DIMJOGGED_JOGA
 70
     0
  0
APPID
  2
ACAD_DSTYLE_DIMJAG
 70
     0
  0
APPID
  2
ACAD_DSTYLE_DIMBREAK
 70
     0
  0
APPID
  2
ACAD_PSEXT
 70
     0
  0
APPID
  2
ACAD_DSTYLE_DIMINSPECT
 70
     0
  0
APPID
  2
ACAD_DSTYLE_DIMRADIAL_EXT0
 70
     0
  0
APPID
  2
ACAD_DSTYLE_DIMJOGGED_JOG0
 70
     0
  0
APPID
  2
PLOTTRANSPARENCY
 70
     0
  0
ENDTAB
  0
TABLE
  2
DIMSTYLE
 70
     5
  0
DIMSTYLE
  2
STANDARD
 70
     0
  3

  4

  5

  6

  7

 40
1.0
 41
0.18
 42
0.0625
 43
0.38
 44
0.18
 45
0.0
 46
0.0
 47
0.0
 48
0.0
140
0.18
141
0.09
142
0.0
143
25.4
144
1.0
145
0.0
146
1.0
147
0.09
 71
     0
 72
     0
 73
     1
 74
     1
 75
     0
 76
     0
 77
     0
 78
     0
170
     0
171
     2
172
     0
173
     0
174
     0
175
     0
176
     0
177
     0
178
     0
  0
DIMSTYLE
  2
DUAL-DIM
 70
     0
  3

  4

  5

  6

  7

 40
1.0
 41
5.0
 42
1.5
 43
1.0
 44
0.18
 45
0.0
 46
0.0
 47
0.0
 48
0.0
140
5.0
141
2.5
142
0.0
143
0.03937
144
1.0
145
0.0
146
1.0
147
1.0
 71
     0
 72
     0
 73
     0
 74
     0
 75
     0
 76
     0
 77
     1
 78
     8
170
     1
171
     2
172
     0
173
     0
174
     0
175
     0
176
     0
177
     0
178
     5
  0
DIMSTYLE
  2
AM_ISO
 70
     0
  3

  4
"
  5

  6

  7

 40
1.0
 41
3.5
 42
1.0
 43
10.0
 44
1.0
 45
0.0
 46
0.0
 47
0.1
 48
0.1
140
3.5
141
0.0
142
0.0
143
0.0393701
144
1.0
145
0.0
146
0.71
147
1.5
 71
     0
 72
     0
 73
     0
 74
     0
 75
     0
 76
     0
 77
     1
 78
     8
170
     0
171
     2
172
     1
173
     0
174
     0
175
     0
176
   256
177
   256
178
     2
  0
DIMSTYLE
  2
AM_ISO$3
 70
     0
  3

  4
"
  5

  6

  7

 40
1.0
 41
3.5
 42
1.0
 43
10.0
 44
1.0
 45
0.0
 46
0.0
 47
0.1
 48
0.1
140
3.5
141
0.0
142
0.0
143
0.0393701
144
1.0
145
0.0
146
0.71
147
1.5
 71
     0
 72
     0
 73
     0
 74
     1
 75
     0
 76
     0
 77
     1
 78
     8
170
     0
171
     2
172
     0
173
     0
174
     0
175
     0
176
   256
177
   256
178
     2
  0
DIMSTYLE
  2
AM_ISO$0
 70
     0
  3

  4
"
  5

  6

  7

 40
1.0
 41
3.5
 42
1.0
 43
10.0
 44
1.0
 45
0.0
 46
0.0
 47
0.1
 48
0.1
140
3.5
141
0.0
142
0.0
143
0.0393701
144
1.0
145
0.0
146
0.71
147
1.5
 71
     0
 72
     0
 73
     0
 74
     0
 75
     0
 76
     0
 77
     1
 78
     8
170
     0
171
     2
172
     1
173
     0
174
     0
175
     0
176
   256
177
   256
178
     2
  0
ENDTAB
  0
ENDSEC
  0
SECTION
  2
BLOCKS
  0
BLOCK
  8
0
  2
$MODEL_SPACE
 70
     0
 10
0.0
 20
0.0
 30
0.0
  3
$MODEL_SPACE
  1

  0
ENDBLK
  5
110
  8
0
  0
BLOCK
 67
     1
  8
0
  2
$PAPER_SPACE
 70
     0
 10
0.0
 20
0.0
 30
0.0
  3
$PAPER_SPACE
  1

  0
ENDBLK
  5
112
 67
     1
  8
0
  0
BLOCK
  8
0
  2
_FILLED
 70
     0
 10
0.0
 20
0.0
 30
0.0
  3
_FILLED
  1

  0
SOLID
  5
3D
  8
0
  6
BYBLOCK
 62
     0
 10
0.0
 20
0.0
 30
0.0
 11
-1.0
 21
0.2
 31
0.0
 12
-1.0
 22
-0.2
 32
0.0
 13
-1.0
 23
-0.2
 33
0.0
  0
ENDBLK
  5
3E
  8
0
  6
BYBLOCK
 62
     0
  0
BLOCK
  8
0
  2
*D524
 70
     1
 10
0.0
 20
0.0
 30
0.0
  3
*D524
  1

  0
LINE
  5
302E
  8
DIMENSIONS
  6
BYBLOCK
 62
     0
 10
193.0167140146839
 20
1226.327705594966
 30
0.0
 11
193.0167140146839
 21
1274.635057099838
 31
0.0
  0
LINE
  5
302F
  8
DIMENSIONS
  6
BYBLOCK
 62
     0
 10
458.0167140146839
 20
1226.327705594966
 30
0.0
 11
458.0167140146839
 21
1274.635057099838
 31
0.0
  0
LINE
  5
3030
  8
DIMENSIONS
  6
BYBLOCK
 62
     0
 10
198.0167140146839
 20
1274.455057099838
 30
0.0
 11
453.0167140146839
 21
1274.455057099838
 31
0.0
  0
SOLID
  5
3031
  8
DIMENSIONS
 62
     0
 10
198.0167140146839
 20
1275.288390433171
 30
0.0
 11
198.0167140146839
 21
1273.621723766505
 31
0.0
 12
193.0167140146839
 22
1274.455057099838
 32
0.0
 13
193.0167140146839
 23
1274.455057099838
 33
0.0
  0
SOLID
  5
3032
  8
DIMENSIONS
 62
     0
 10
453.0167140146839
 20
1273.621723766505
 30
0.0
 11
453.0167140146839
 21
1275.288390433171
 31
0.0
 12
458.0167140146839
 22
1274.455057099838
 32
0.0
 13
458.0167140146839
 23
1274.455057099838
 33
0.0
  0
TEXT
  5
3033
  8
DIMENSIONS
  6
CONTINUOUS
 62
     5
 10
308.1817140146839
 20
1276.850057099838
 30
0.0
 40
5.0
  1
265 [10.43]
  0
POINT
  5
3034
  8
DEFPOINTS
 62
     0
 10
193.0167140146839
 20
1224.827705594966
 30
0.0
  0
POINT
  5
3035
  8
DEFPOINTS
 62
     0
 10
458.0167140146839
 20
1224.827705594966
 30
0.0
  0
POINT
  5
3036
  8
DEFPOINTS
 62
     0
 10
458.0167140146839
 20
1274.455057099838
 30
0.0
  0
ENDBLK
  5
302D
  8
0
  0
BLOCK
  8
0
  2
*D525
 70
     1
 10
0.0
 20
0.0
 30
0.0
  3
*D525
  1

  0
LINE
  5
303D
  8
DIMENSIONS
  6
BYBLOCK
 62
     0
 10
173.5167140146839
 20
1258.327705594966
 30
0.0
 11
173.5167140146839
 21
1291.857848593282
 31
0.0
  0
LINE
  5
303E
  8
DIMENSIONS
  6
BYBLOCK
 62
     0
 10
477.5167140146839
 20
1258.327705594966
 30
0.0
 11
477.5167140146839
 21
1291.857848593282
 31
0.0
  0
LINE
  5
303F
  8
DIMENSIONS
  6
BYBLOCK
 62
     0
 10
178.5167140146839
 20
1291.677848593282
 30
0.0
 11
472.5167140146839
 21
1291.677848593282
 31
0.0
  0
SOLID
  5
3040
  8
DIMENSIONS
 62
     0
 10
178.5167140146839
 20
1292.511181926616
 30
0.0
 11
178.5167140146839
 21
1290.844515259949
 31
0.0
 12
173.5167140146839
 22
1291.677848593282
 32
0.0
 13
173.5167140146839
 23
1291.677848593282
 33
0.0
  0
SOLID
  5
3041
  8
DIMENSIONS
 62
     0
 10
472.5167140146839
 20
1290.844515259949
 30
0.0
 11
472.5167140146839
 21
1292.511181926616
 31
0.0
 12
477.5167140146839
 22
1291.677848593282
 32
0.0
 13
477.5167140146839
 23
1291.677848593282
 33
0.0
  0
TEXT
  5
3042
  8
DIMENSIONS
  6
CONTINUOUS
 62
     5
 10
308.1367140146839
 20
1294.072848593283
 30
0.0
 40
5.0
  1
304 [11.97]
  0
POINT
  5
3043
  8
DEFPOINTS
 62
     0
 10
173.5167140146839
 20
1256.827705594966
 30
0.0
  0
POINT
  5
3044
  8
DEFPOINTS
 62
     0
 10
477.5167140146839
 20
1256.827705594966
 30
0.0
  0
POINT
  5
3045
  8
DEFPOINTS
 62
     0
 10
477.5167140146839
 20
1291.677848593282
 30
0.0
  0
ENDBLK
  5
303C
  8
0
  0
BLOCK
  8
0
  2
*D526
 70
     1
 10
0.0
 20
0.0
 30
0.0
  3
*D526
  1

  0
LINE
  5
304C
  8
DIMENSIONS
  6
BYBLOCK
 62
     0
 10
172.0167140146839
 20
1256.827705594966
 30
0.0
 11
139.8258496344196
 21
1256.827705594966
 31
0.0
  0
LINE
  5
304D
  8
DIMENSIONS
  6
BYBLOCK
 62
     0
 10
191.5167140146839
 20
1236.827705594966
 30
0.0
 11
139.8258496344196
 21
1236.827705594966
 31
0.0
  0
LINE
  5
304E
  8
DIMENSIONS
  6
BYBLOCK
 62
     0
 10
140.0058496344196
 20
1236.827705594966
 30
0.0
 11
140.0058496344196
 21
1203.327705594966
 31
0.0
  0
LINE
  5
304F
  8
DIMENSIONS
  6
BYBLOCK
 62
     0
 10
140.0058496344196
 20
1251.827705594966
 30
0.0
 11
140.0058496344196
 21
1241.827705594966
 31
0.0
  0
SOLID
  5
3050
  8
DIMENSIONS
 62
     0
 10
140.839182967753
 20
1251.827705594966
 30
0.0
 11
139.1725163010863
 21
1251.827705594966
 31
0.0
 12
140.0058496344196
 22
1256.827705594966
 32
0.0
 13
140.0058496344196
 23
1256.827705594966
 33
0.0
  0
SOLID
  5
3051
  8
DIMENSIONS
 62
     0
 10
139.1725163010863
 20
1241.827705594966
 30
0.0
 11
140.839182967753
 21
1241.827705594966
 31
0.0
 12
140.0058496344196
 22
1236.827705594966
 32
0.0
 13
140.0058496344196
 23
1236.827705594966
 33
0.0
  0
TEXT
  5
3052
  8
DIMENSIONS
  6
CONTINUOUS
 62
     5
 10
137.6108496344195
 20
1204.122705594966
 30
0.0
 40
5.0
  1
20 [0.79]
 50
90.0
  0
POINT
  5
3053
  8
DEFPOINTS
 62
     0
 10
173.5167140146839
 20
1256.827705594966
 30
0.0
  0
POINT
  5
3054
  8
DEFPOINTS
 62
     0
 10
193.0167140146839
 20
1236.827705594966
 30
0.0
  0
POINT
  5
30DC
  8
DEFPOINTS
 62
     0
 10
140.0058496344196
 20
1236.827705594966
 30
0.0
  0
ENDBLK
  5
304B
  8
0
  0
BLOCK
  8
0
  2
*D527
 70
     1
 10
0.0
 20
0.0
 30
0.0
  3
*D527
  1

  0
LINE
  5
305B
  8
DIMENSIONS
  6
BYBLOCK
 62
     0
 10
191.5167140146839
 20
1236.827705594966
 30
0.0
 11
155.6185172115028
 21
1236.827705594966
 31
0.0
  0
LINE
  5
305C
  8
DIMENSIONS
  6
BYBLOCK
 62
     0
 10
191.5167140146839
 20
1036.827705594966
 30
0.0
 11
155.6185172115028
 21
1036.827705594966
 31
0.0
  0
LINE
  5
305D
  8
DIMENSIONS
  6
BYBLOCK
 62
     0
 10
155.7985172115028
 20
1231.827705594966
 30
0.0
 11
155.7985172115028
 21
1041.827705594966
 31
0.0
  0
SOLID
  5
305E
  8
DIMENSIONS
 62
     0
 10
156.6318505448361
 20
1231.827705594966
 30
0.0
 11
154.9651838781694
 21
1231.827705594966
 31
0.0
 12
155.7985172115028
 22
1236.827705594966
 32
0.0
 13
155.7985172115028
 23
1236.827705594966
 33
0.0
  0
SOLID
  5
305F
  8
DIMENSIONS
 62
     0
 10
154.9651838781694
 20
1041.827705594966
 30
0.0
 11
156.6318505448361
 21
1041.827705594966
 31
0.0
 12
155.7985172115028
 22
1036.827705594966
 32
0.0
 13
155.7985172115028
 23
1036.827705594966
 33
0.0
  0
TEXT
  5
3060
  8
DIMENSIONS
  6
CONTINUOUS
 62
     5
 10
153.4035172115025
 20
1121.432705594966
 30
0.0
 40
5.0
  1
200 [7.87]
 50
90.0
  0
POINT
  5
3061
  8
DEFPOINTS
 62
     0
 10
193.0167140146839
 20
1236.827705594966
 30
0.0
  0
POINT
  5
3062
  8
DEFPOINTS
 62
     0
 10
193.0167140146839
 20
1036.827705594966
 30
0.0
  0
POINT
  5
3063
  8
DEFPOINTS
 62
     0
 10
155.7985172115028
 20
1036.827705594966
 30
0.0
  0
ENDBLK
  5
305A
  8
0
  0
BLOCK
  8
0
  2
*D528
 70
     1
 10
0.0
 20
0.0
 30
0.0
  3
*D528
  1

  0
LINE
  5
306A
  8
DIMENSIONS
  6
BYBLOCK
 62
     0
 10
191.5167140146839
 20
1036.827705594966
 30
0.0
 11
155.6185172115028
 21
1036.827705594966
 31
0.0
  0
LINE
  5
306B
  8
DIMENSIONS
  6
BYBLOCK
 62
     0
 10
191.5167140146839
 20
801.827705594966
 30
0.0
 11
155.6185172115027
 21
801.827705594966
 31
0.0
  0
LINE
  5
306C
  8
DIMENSIONS
  6
BYBLOCK
 62
     0
 10
155.7985172115028
 20
1031.827705594966
 30
0.0
 11
155.7985172115027
 21
806.827705594966
 31
0.0
  0
SOLID
  5
306D
  8
DIMENSIONS
 62
     0
 10
156.6318505448361
 20
1031.827705594966
 30
0.0
 11
154.9651838781694
 21
1031.827705594966
 31
0.0
 12
155.7985172115028
 22
1036.827705594966
 32
0.0
 13
155.7985172115028
 23
1036.827705594966
 33
0.0
  0
SOLID
  5
306E
  8
DIMENSIONS
 62
     0
 10
154.9651838781694
 20
806.827705594966
 30
0.0
 11
156.6318505448361
 21
806.827705594966
 31
0.0
 12
155.7985172115027
 22
801.827705594966
 32
0.0
 13
155.7985172115027
 23
801.827705594966
 33
0.0
  0
TEXT
  5
306F
  8
DIMENSIONS
  6
CONTINUOUS
 62
     5
 10
153.4035172115028
 20
903.9327055949661
 30
0.0
 40
5.0
  1
235 [9.25]
 50
90.0
  0
POINT
  5
3070
  8
DEFPOINTS
 62
     0
 10
193.0167140146839
 20
1036.827705594966
 30
0.0
  0
POINT
  5
3071
  8
DEFPOINTS
 62
     0
 10
193.0167140146839
 20
801.827705594966
 30
0.0
  0
POINT
  5
3072
  8
DEFPOINTS
 62
     0
 10
155.7985172115027
 20
801.827705594966
 30
0.0
  0
ENDBLK
  5
3069
  8
0
  0
BLOCK
  8
0
  2
*D529
 70
     1
 10
0.0
 20
0.0
 30
0.0
  3
*D529
  1

  0
LINE
  5
3079
  8
DIMENSIONS
  6
BYBLOCK
 62
     0
 10
191.5167140146839
 20
801.827705594966
 30
0.0
 11
155.6185172115027
 21
801.827705594966
 31
0.0
  0
LINE
  5
307A
  8
DIMENSIONS
  6
BYBLOCK
 62
     0
 10
191.5167140146839
 20
451.827705594966
 30
0.0
 11
155.6185172115027
 21
451.827705594966
 31
0.0
  0
LINE
  5
307B
  8
DIMENSIONS
  6
BYBLOCK
 62
     0
 10
155.7985172115027
 20
796.827705594966
 30
0.0
 11
155.7985172115027
 21
456.827705594966
 31
0.0
  0
SOLID
  5
307C
  8
DIMENSIONS
 62
     0
 10
156.6318505448361
 20
796.827705594966
 30
0.0
 11
154.9651838781694
 21
796.827705594966
 31
0.0
 12
155.7985172115027
 22
801.827705594966
 32
0.0
 13
155.7985172115027
 23
801.827705594966
 33
0.0
  0
SOLID
  5
307D
  8
DIMENSIONS
 62
     0
 10
154.9651838781694
 20
456.827705594966
 30
0.0
 11
156.6318505448361
 21
456.827705594966
 31
0.0
 12
155.7985172115027
 22
451.827705594966
 32
0.0
 13
155.7985172115027
 23
451.827705594966
 33
0.0
  0
TEXT
  5
307E
  8
DIMENSIONS
  6
CONTINUOUS
 62
     5
 10
153.4035172115027
 20
609.447705594966
 30
0.0
 40
5.0
  1
350 [13.78]
 50
90.0
  0
POINT
  5
307F
  8
DEFPOINTS
 62
     0
 10
193.0167140146839
 20
801.827705594966
 30
0.0
  0
POINT
  5
3080
  8
DEFPOINTS
 62
     0
 10
193.0167140146839
 20
451.827705594966
 30
0.0
  0
POINT
  5
3081
  8
DEFPOINTS
 62
     0
 10
155.7985172115027
 20
451.827705594966
 30
0.0
  0
ENDBLK
  5
3078
  8
0
  0
BLOCK
  8
0
  2
*D530
 70
     1
 10
0.0
 20
0.0
 30
0.0
  3
*D530
  1

  0
LINE
  5
3088
  8
DIMENSIONS
  6
BYBLOCK
 62
     0
 10
191.5167140146839
 20
451.827705594966
 30
0.0
 11
140.1376350754311
 21
451.827705594966
 31
0.0
  0
LINE
  5
3089
  8
DIMENSIONS
  6
BYBLOCK
 62
     0
 10
172.0167140146839
 20
426.827705594966
 30
0.0
 11
140.1376350754311
 21
426.827705594966
 31
0.0
  0
LINE
  5
308A
  8
DIMENSIONS
  6
BYBLOCK
 62
     0
 10
140.3176350754311
 20
451.827705594966
 30
0.0
 11
140.3176350754311
 21
485.327705594966
 31
0.0
  0
LINE
  5
308B
  8
DIMENSIONS
  6
BYBLOCK
 62
     0
 10
140.3176350754311
 20
446.827705594966
 30
0.0
 11
140.3176350754311
 21
431.827705594966
 31
0.0
  0
SOLID
  5
308C
  8
DIMENSIONS
 62
     0
 10
141.1509684087644
 20
446.827705594966
 30
0.0
 11
139.4843017420977
 21
446.827705594966
 31
0.0
 12
140.3176350754311
 22
451.827705594966
 32
0.0
 13
140.3176350754311
 23
451.827705594966
 33
0.0
  0
SOLID
  5
308D
  8
DIMENSIONS
 62
     0
 10
139.4843017420977
 20
431.827705594966
 30
0.0
 11
141.1509684087644
 21
431.827705594966
 31
0.0
 12
140.3176350754311
 22
426.827705594966
 32
0.0
 13
140.3176350754311
 23
426.827705594966
 33
0.0
  0
TEXT
  5
308E
  8
DIMENSIONS
  6
CONTINUOUS
 62
     5
 10
137.9226350754311
 20
457.622705594966
 30
0.0
 40
5.0
  1
25 [0.98]
 50
90.0
  0
POINT
  5
308F
  8
DEFPOINTS
 62
     0
 10
193.0167140146839
 20
451.827705594966
 30
0.0
  0
POINT
  5
3090
  8
DEFPOINTS
 62
     0
 10
173.5167140146839
 20
426.827705594966
 30
0.0
  0
POINT
  5
30DD
  8
DEFPOINTS
 62
     0
 10
140.3176350754311
 20
426.827705594966
 30
0.0
  0
ENDBLK
  5
3087
  8
0
  0
BLOCK
  8
0
  2
*D531
 70
     1
 10
0.0
 20
0.0
 30
0.0
  3
*D531
  1

  0
LINE
  5
3097
  8
DIMENSIONS
  6
BYBLOCK
 62
     0
 10
479.0167140146839
 20
1256.827705594966
 30
0.0
 11
498.2637194471139
 21
1256.827705594966
 31
0.0
  0
LINE
  5
3098
  8
DIMENSIONS
  6
BYBLOCK
 62
     0
 10
459.5167140146839
 20
1224.827705594966
 30
0.0
 11
498.2637194471139
 21
1224.827705594966
 31
0.0
  0
LINE
  5
3099
  8
DIMENSIONS
  6
BYBLOCK
 62
     0
 10
498.0837194471139
 20
1251.827705594966
 30
0.0
 11
498.0837194471139
 21
1229.827705594966
 31
0.0
  0
SOLID
  5
309A
  8
DIMENSIONS
 62
     0
 10
498.9170527804472
 20
1251.827705594966
 30
0.0
 11
497.2503861137806
 21
1251.827705594966
 31
0.0
 12
498.0837194471139
 22
1256.827705594966
 32
0.0
 13
498.0837194471139
 23
1256.827705594966
 33
0.0
  0
SOLID
  5
309B
  8
DIMENSIONS
 62
     0
 10
497.2503861137806
 20
1229.827705594966
 30
0.0
 11
498.9170527804472
 21
1229.827705594966
 31
0.0
 12
498.0837194471139
 22
1224.827705594966
 32
0.0
 13
498.0837194471139
 23
1224.827705594966
 33
0.0
  0
TEXT
  5
309C
  8
DIMENSIONS
  6
CONTINUOUS
 62
     5
 10
495.6887194471137
 20
1227.327705594966
 30
0.0
 40
5.0
  1
32 [1.26]
 50
90.0
  0
POINT
  5
309D
  8
DEFPOINTS
 62
     0
 10
477.5167140146839
 20
1256.827705594966
 30
0.0
  0
POINT
  5
309E
  8
DEFPOINTS
 62
     0
 10
458.0167140146839
 20
1224.827705594966
 30
0.0
  0
POINT
  5
309F
  8
DEFPOINTS
 62
     0
 10
498.0837194471139
 20
1224.827705594966
 30
0.0
  0
ENDBLK
  5
3096
  8
0
  0
BLOCK
  8
0
  2
*D532
 70
     1
 10
0.0
 20
0.0
 30
0.0
  3
*D532
  1

  0
LINE
  5
30A6
  8
DIMENSIONS
  6
BYBLOCK
 62
     0
 10
459.5167140146839
 20
1224.827705594966
 30
0.0
 11
498.2637194471139
 21
1224.827705594966
 31
0.0
  0
LINE
  5
30A7
  8
DIMENSIONS
  6
BYBLOCK
 62
     0
 10
459.5167140146839
 20
1044.827705594966
 30
0.0
 11
498.2637194471139
 21
1044.827705594966
 31
0.0
  0
LINE
  5
30A8
  8
DIMENSIONS
  6
BYBLOCK
 62
     0
 10
498.0837194471139
 20
1219.827705594966
 30
0.0
 11
498.0837194471139
 21
1049.827705594966
 31
0.0
  0
SOLID
  5
30A9
  8
DIMENSIONS
 62
     0
 10
498.9170527804472
 20
1219.827705594966
 30
0.0
 11
497.2503861137806
 21
1219.827705594966
 31
0.0
 12
498.0837194471139
 22
1224.827705594966
 32
0.0
 13
498.0837194471139
 23
1224.827705594966
 33
0.0
  0
SOLID
  5
30AA
  8
DIMENSIONS
 62
     0
 10
497.2503861137806
 20
1049.827705594966
 30
0.0
 11
498.9170527804472
 21
1049.827705594966
 31
0.0
 12
498.0837194471139
 22
1044.827705594966
 32
0.0
 13
498.0837194471139
 23
1044.827705594966
 33
0.0
  0
TEXT
  5
30AB
  8
DIMENSIONS
  6
CONTINUOUS
 62
     5
 10
495.6887194471137
 20
1119.155205594966
 30
0.0
 40
5.0
  1
180 [7.09]
 50
90.0
  0
POINT
  5
30AC
  8
DEFPOINTS
 62
     0
 10
458.0167140146839
 20
1224.827705594966
 30
0.0
  0
POINT
  5
30AD
  8
DEFPOINTS
 62
     0
 10
458.0167140146839
 20
1044.827705594966
 30
0.0
  0
POINT
  5
30AE
  8
DEFPOINTS
 62
     0
 10
498.0837194471139
 20
1044.827705594966
 30
0.0
  0
ENDBLK
  5
30A5
  8
0
  0
BLOCK
  8
0
  2
*D533
 70
     1
 10
0.0
 20
0.0
 30
0.0
  3
*D533
  1

  0
LINE
  5
30B5
  8
DIMENSIONS
  6
BYBLOCK
 62
     0
 10
459.5167140146839
 20
1044.827705594966
 30
0.0
 11
498.2637194471139
 21
1044.827705594966
 31
0.0
  0
LINE
  5
30B6
  8
DIMENSIONS
  6
BYBLOCK
 62
     0
 10
459.5167140146839
 20
994.827705594966
 30
0.0
 11
498.2637194471139
 21
994.827705594966
 31
0.0
  0
LINE
  5
30B7
  8
DIMENSIONS
  6
BYBLOCK
 62
     0
 10
498.0837194471139
 20
1039.827705594966
 30
0.0
 11
498.0837194471139
 21
999.827705594966
 31
0.0
  0
SOLID
  5
30B8
  8
DIMENSIONS
 62
     0
 10
498.9170527804472
 20
1039.827705594966
 30
0.0
 11
497.2503861137806
 21
1039.827705594966
 31
0.0
 12
498.0837194471139
 22
1044.827705594966
 32
0.0
 13
498.0837194471139
 23
1044.827705594966
 33
0.0
  0
SOLID
  5
30B9
  8
DIMENSIONS
 62
     0
 10
497.2503861137806
 20
999.827705594966
 30
0.0
 11
498.9170527804472
 21
999.827705594966
 31
0.0
 12
498.0837194471139
 22
994.827705594966
 32
0.0
 13
498.0837194471139
 23
994.827705594966
 33
0.0
  0
TEXT
  5
30BA
  8
DIMENSIONS
  6
CONTINUOUS
 62
     5
 10
495.6887194471138
 20
1006.330205594966
 30
0.0
 40
5.0
  1
50 [1.97]
 50
90.0
  0
POINT
  5
30BB
  8
DEFPOINTS
 62
     0
 10
458.0167140146839
 20
1044.827705594966
 30
0.0
  0
POINT
  5
30BC
  8
DEFPOINTS
 62
     0
 10
458.0167140146839
 20
994.827705594966
 30
0.0
  0
POINT
  5
30BD
  8
DEFPOINTS
 62
     0
 10
498.0837194471139
 20
994.827705594966
 30
0.0
  0
ENDBLK
  5
30B4
  8
0
  0
BLOCK
  8
0
  2
*D534
 70
     1
 10
0.0
 20
0.0
 30
0.0
  3
*D534
  1

  0
LINE
  5
30C4
  8
DIMENSIONS
  6
BYBLOCK
 62
     0
 10
459.5167140146839
 20
994.827705594966
 30
0.0
 11
498.2637194471139
 21
994.827705594966
 31
0.0
  0
LINE
  5
30C5
  8
DIMENSIONS
  6
BYBLOCK
 62
     0
 10
459.5167140146839
 20
834.827705594966
 30
0.0
 11
498.2637194471139
 21
834.827705594966
 31
0.0
  0
LINE
  5
30C6
  8
DIMENSIONS
  6
BYBLOCK
 62
     0
 10
498.0837194471139
 20
989.827705594966
 30
0.0
 11
498.0837194471139
 21
839.827705594966
 31
0.0
  0
SOLID
  5
30C7
  8
DIMENSIONS
 62
     0
 10
498.9170527804472
 20
989.827705594966
 30
0.0
 11
497.2503861137806
 21
989.827705594966
 31
0.0
 12
498.0837194471139
 22
994.827705594966
 32
0.0
 13
498.0837194471139
 23
994.827705594966
 33
0.0
  0
SOLID
  5
30C8
  8
DIMENSIONS
 62
     0
 10
497.2503861137806
 20
839.827705594966
 30
0.0
 11
498.9170527804472
 21
839.827705594966
 31
0.0
 12
498.0837194471139
 22
834.827705594966
 32
0.0
 13
498.0837194471139
 23
834.827705594966
 33
0.0
  0
TEXT
  5
30C9
  8
DIMENSIONS
  6
CONTINUOUS
 62
     5
 10
495.688719447114
 20
899.155205594966
 30
0.0
 40
5.0
  1
160 [6.30]
 50
90.0
  0
POINT
  5
30CA
  8
DEFPOINTS
 62
     0
 10
458.0167140146839
 20
994.827705594966
 30
0.0
  0
POINT
  5
30CB
  8
DEFPOINTS
 62
     0
 10
458.0167140146839
 20
834.827705594966
 30
0.0
  0
POINT
  5
30CC
  8
DEFPOINTS
 62
     0
 10
498.0837194471139
 20
834.827705594966
 30
0.0
  0
ENDBLK
  5
30C3
  8
0
  0
BLOCK
  8
0
  2
*D535
 70
     1
 10
0.0
 20
0.0
 30
0.0
  3
*D535
  1

  0
LINE
  5
30D3
  8
DIMENSIONS
  6
BYBLOCK
 62
     0
 10
459.5167140146839
 20
834.827705594966
 30
0.0
 11
498.2637194471139
 21
834.827705594966
 31
0.0
  0
LINE
  5
30D4
  8
DIMENSIONS
  6
BYBLOCK
 62
     0
 10
479.0167140146839
 20
426.827705594966
 30
0.0
 11
498.2637194471139
 21
426.827705594966
 31
0.0
  0
LINE
  5
30D5
  8
DIMENSIONS
  6
BYBLOCK
 62
     0
 10
498.0837194471139
 20
829.827705594966
 30
0.0
 11
498.0837194471139
 21
431.827705594966
 31
0.0
  0
SOLID
  5
30D6
  8
DIMENSIONS
 62
     0
 10
498.9170527804472
 20
829.827705594966
 30
0.0
 11
497.2503861137806
 21
829.827705594966
 31
0.0
 12
498.0837194471139
 22
834.827705594966
 32
0.0
 13
498.0837194471139
 23
834.827705594966
 33
0.0
  0
SOLID
  5
30D7
  8
DIMENSIONS
 62
     0
 10
497.2503861137806
 20
431.827705594966
 30
0.0
 11
498.9170527804472
 21
431.827705594966
 31
0.0
 12
498.0837194471139
 22
426.827705594966
 32
0.0
 13
498.0837194471139
 23
426.827705594966
 33
0.0
  0
TEXT
  5
30D8
  8
DIMENSIONS
  6
CONTINUOUS
 62
     5
 10
495.688719447114
 20
613.550205594966
 30
0.0
 40
5.0
  1
408 [16.06]
 50
90.0
  0
POINT
  5
30D9
  8
DEFPOINTS
 62
     0
 10
458.0167140146839
 20
834.827705594966
 30
0.0
  0
POINT
  5
30DA
  8
DEFPOINTS
 62
     0
 10
477.5167140146839
 20
426.827705594966
 30
0.0
  0
POINT
  5
30DB
  8
DEFPOINTS
 62
     0
 10
498.0837194471139
 20
426.827705594966
 30
0.0
  0
ENDBLK
  5
30D2
  8
0
  0
BLOCK
  8
0
  2
*D536
 70
     1
 10
0.0
 20
0.0
 30
0.0
  3
*D536
  1

  0
LINE
  5
30E7
  8
DIMENSIONS
  6
BYBLOCK
 62
     0
 10
449.7667172100568
 20
451.8349666997614
 30
0.0
 11
403.5417351138281
 21
451.8756508899631
 31
0.0
  0
TEXT
  5
30E8
  8
DIMENSIONS
  6
CONTINUOUS
 62
     5
 10
404.2639131663977
 20
454.3500162349328
 30
0.0
 40
5.0
  1
Ø6.5 [Ø0.26]
 50
359.9495720347774
  0
SOLID
  5
30E9
  8
DIMENSIONS
 62
     0
 10
449.765983765128
 20
451.0016336891931
 30
0.0
 11
449.7674506549856
 21
452.6682997103298
 31
0.0
 12
454.7667152734672
 22
451.8305660301885
 32
0.0
 13
454.7667152734672
 23
451.8305660301885
 33
0.0
  0
LINE
  5
30EA
  8
DIMENSIONS
  6
BYBLOCK
 62
     0
 10
455.5167140146839
 20
451.8277055949661
 30
0.0
 11
460.5167140146839
 21
451.8277055949661
 31
0.0
  0
LINE
  5
30EB
  8
DIMENSIONS
  6
BYBLOCK
 62
     0
 10
458.0167140146839
 20
449.3277055949661
 30
0.0
 11
458.0167140146839
 21
454.3277055949661
 31
0.0
  0
POINT
  5
30EC
  8
DEFPOINTS
 62
     0
 10
454.7667152734672
 20
451.8305660301885
 30
0.0
  0
POINT
  5
30ED
  8
DEFPOINTS
 62
     0
 10
461.2667127559006
 20
451.8248451597437
 30
0.0
  0
ENDBLK
  5
30E6
  8
0
  0
BLOCK
  8
0
  2
*D538
 70
     1
 10
0.0
 20
0.0
 30
0.0
  3
*D538
  1

  0
LINE
  5
3144
  8
DIMENSIONS
  6
BYBLOCK
 62
     0
 10
197.638199250486
 20
1291.798950553712
 30
0.0
 11
197.638199250486
 21
1339.000011439505
 31
0.0
  0
LINE
  5
3145
  8
DIMENSIONS
  6
BYBLOCK
 62
     0
 10
462.638199250486
 20
1291.798950553712
 30
0.0
 11
462.638199250486
 21
1339.000011439505
 31
0.0
  0
LINE
  5
3146
  8
DIMENSIONS
  6
BYBLOCK
 62
     0
 10
202.638199250486
 20
1338.820011439504
 30
0.0
 11
457.638199250486
 21
1338.820011439504
 31
0.0
  0
SOLID
  5
3147
  8
DIMENSIONS
 62
     0
 10
202.638199250486
 20
1339.653344772838
 30
0.0
 11
202.638199250486
 21
1337.986678106171
 31
0.0
 12
197.638199250486
 22
1338.820011439504
 32
0.0
 13
197.638199250486
 23
1338.820011439504
 33
0.0
  0
SOLID
  5
3148
  8
DIMENSIONS
 62
     0
 10
457.638199250486
 20
1337.986678106171
 30
0.0
 11
457.638199250486
 21
1339.653344772838
 31
0.0
 12
462.638199250486
 22
1338.820011439504
 32
0.0
 13
462.638199250486
 23
1338.820011439504
 33
0.0
  0
TEXT
  5
3149
  8
DIMENSIONS
  6
CONTINUOUS
 62
     5
 10
312.803199250486
 20
1341.215011439505
 30
0.0
 40
5.0
  1
265 [10.43]
  0
POINT
  5
314A
  8
DEFPOINTS
 62
     0
 10
197.638199250486
 20
1290.298950553712
 30
0.0
  0
POINT
  5
314B
  8
DEFPOINTS
 62
     0
 10
462.638199250486
 20
1290.298950553712
 30
0.0
  0
POINT
  5
314C
  8
DEFPOINTS
 62
     0
 10
462.638199250486
 20
1338.820011439504
 30
0.0
  0
ENDBLK
  5
3143
  8
0
  0
BLOCK
  8
0
  2
*D539
 70
     1
 10
0.0
 20
0.0
 30
0.0
  3
*D539
  1

  0
LINE
  5
3153
  8
DIMENSIONS
  6
BYBLOCK
 62
     0
 10
487.638199250486
 20
1323.798950553712
 30
0.0
 11
487.638199250486
 21
1356.558948060214
 31
0.0
  0
LINE
  5
3154
  8
DIMENSIONS
  6
BYBLOCK
 62
     0
 10
172.638199250486
 20
1323.798950553712
 30
0.0
 11
172.638199250486
 21
1356.558948060214
 31
0.0
  0
LINE
  5
3155
  8
DIMENSIONS
  6
BYBLOCK
 62
     0
 10
482.638199250486
 20
1356.378948060214
 30
0.0
 11
177.638199250486
 21
1356.378948060214
 31
0.0
  0
SOLID
  5
3156
  8
DIMENSIONS
 62
     0
 10
482.638199250486
 20
1355.54561472688
 30
0.0
 11
482.638199250486
 21
1357.212281393547
 31
0.0
 12
487.638199250486
 22
1356.378948060214
 32
0.0
 13
487.638199250486
 23
1356.378948060214
 33
0.0
  0
SOLID
  5
3157
  8
DIMENSIONS
 62
     0
 10
177.638199250486
 20
1357.212281393547
 30
0.0
 11
177.638199250486
 21
1355.54561472688
 31
0.0
 12
172.638199250486
 22
1356.378948060214
 32
0.0
 13
172.638199250486
 23
1356.378948060214
 33
0.0
  0
TEXT
  5
3158
  8
DIMENSIONS
  6
CONTINUOUS
 62
     5
 10
312.758199250486
 20
1358.773948060214
 30
0.0
 40
5.0
  1
315 [12.40]
  0
POINT
  5
3159
  8
DEFPOINTS
 62
     0
 10
487.638199250486
 20
1322.298950553712
 30
0.0
  0
POINT
  5
315A
  8
DEFPOINTS
 62
     0
 10
172.638199250486
 20
1322.298950553712
 30
0.0
  0
POINT
  5
315B
  8
DEFPOINTS
 62
     0
 10
172.638199250486
 20
1356.378948060214
 30
0.0
  0
ENDBLK
  5
3152
  8
0
  0
BLOCK
  8
0
  2
*D540
 70
     1
 10
0.0
 20
0.0
 30
0.0
  3
*D540
  1

  0
LINE
  5
3162
  8
DIMENSIONS
  6
BYBLOCK
 62
     0
 10
171.138199250486
 20
1322.298950553712
 30
0.0
 11
135.195421033556
 21
1322.298950553712
 31
0.0
  0
LINE
  5
3163
  8
DIMENSIONS
  6
BYBLOCK
 62
     0
 10
196.138199250486
 20
1302.298950553712
 30
0.0
 11
135.195421033556
 21
1302.298950553712
 31
0.0
  0
LINE
  5
3164
  8
DIMENSIONS
  6
BYBLOCK
 62
     0
 10
135.375421033556
 20
1302.298950553712
 30
0.0
 11
135.375421033556
 21
1268.798950553712
 31
0.0
  0
LINE
  5
3165
  8
DIMENSIONS
  6
BYBLOCK
 62
     0
 10
135.375421033556
 20
1317.298950553712
 30
0.0
 11
135.375421033556
 21
1307.298950553712
 31
0.0
  0
SOLID
  5
3166
  8
DIMENSIONS
 62
     0
 10
136.2087543668893
 20
1317.298950553712
 30
0.0
 11
134.5420877002227
 21
1317.298950553712
 31
0.0
 12
135.375421033556
 22
1322.298950553712
 32
0.0
 13
135.375421033556
 23
1322.298950553712
 33
0.0
  0
SOLID
  5
3167
  8
DIMENSIONS
 62
     0
 10
134.5420877002227
 20
1307.298950553712
 30
0.0
 11
136.2087543668893
 21
1307.298950553712
 31
0.0
 12
135.375421033556
 22
1302.298950553712
 32
0.0
 13
135.375421033556
 23
1302.298950553712
 33
0.0
  0
TEXT
  5
3168
  8
DIMENSIONS
  6
CONTINUOUS
 62
     5
 10
132.9804210335558
 20
1269.593950553712
 30
0.0
 40
5.0
  1
20 [0.79]
 50
90.0
  0
POINT
  5
3169
  8
DEFPOINTS
 62
     0
 10
172.638199250486
 20
1322.298950553712
 30
0.0
  0
POINT
  5
316A
  8
DEFPOINTS
 62
     0
 10
197.638199250486
 20
1302.298950553712
 30
0.0
  0
POINT
  5
31F2
  8
DEFPOINTS
 62
     0
 10
135.375421033556
 20
1302.298950553712
 30
0.0
  0
ENDBLK
  5
3161
  8
0
  0
BLOCK
  8
0
  2
*D541
 70
     1
 10
0.0
 20
0.0
 30
0.0
  3
*D541
  1

  0
LINE
  5
3171
  8
DIMENSIONS
  6
BYBLOCK
 62
     0
 10
196.138199250486
 20
1302.298950553712
 30
0.0
 11
153.1910699659228
 21
1302.298950553712
 31
0.0
  0
LINE
  5
3172
  8
DIMENSIONS
  6
BYBLOCK
 62
     0
 10
196.138199250486
 20
1042.298950553713
 30
0.0
 11
153.1910699659228
 21
1042.298950553713
 31
0.0
  0
LINE
  5
3173
  8
DIMENSIONS
  6
BYBLOCK
 62
     0
 10
153.3710699659228
 20
1297.298950553712
 30
0.0
 11
153.3710699659228
 21
1047.298950553713
 31
0.0
  0
SOLID
  5
3174
  8
DIMENSIONS
 62
     0
 10
154.2044032992561
 20
1297.298950553712
 30
0.0
 11
152.5377366325895
 21
1297.298950553712
 31
0.0
 12
153.3710699659228
 22
1302.298950553712
 32
0.0
 13
153.3710699659228
 23
1302.298950553712
 33
0.0
  0
SOLID
  5
3175
  8
DIMENSIONS
 62
     0
 10
152.5377366325894
 20
1047.298950553713
 30
0.0
 11
154.2044032992561
 21
1047.298950553713
 31
0.0
 12
153.3710699659228
 22
1042.298950553713
 32
0.0
 13
153.3710699659228
 23
1042.298950553713
 33
0.0
  0
TEXT
  5
3176
  8
DIMENSIONS
  6
CONTINUOUS
 62
     5
 10
150.9760699659225
 20
1154.963950553712
 30
0.0
 40
5.0
  1
260 [10.24]
 50
90.0
  0
POINT
  5
3177
  8
DEFPOINTS
 62
     0
 10
197.638199250486
 20
1302.298950553712
 30
0.0
  0
POINT
  5
3178
  8
DEFPOINTS
 62
     0
 10
197.638199250486
 20
1042.298950553713
 30
0.0
  0
POINT
  5
3179
  8
DEFPOINTS
 62
     0
 10
153.3710699659228
 20
1042.298950553713
 30
0.0
  0
ENDBLK
  5
3170
  8
0
  0
BLOCK
  8
0
  2
*D542
 70
     1
 10
0.0
 20
0.0
 30
0.0
  3
*D542
  1

  0
LINE
  5
3180
  8
DIMENSIONS
  6
BYBLOCK
 62
     0
 10
196.138199250486
 20
1042.298950553713
 30
0.0
 11
153.1910699659228
 21
1042.298950553713
 31
0.0
  0
LINE
  5
3181
  8
DIMENSIONS
  6
BYBLOCK
 62
     0
 10
196.138199250486
 20
802.2989505537125
 30
0.0
 11
153.1910699659227
 21
802.2989505537125
 31
0.0
  0
LINE
  5
3182
  8
DIMENSIONS
  6
BYBLOCK
 62
     0
 10
153.3710699659228
 20
1037.298950553713
 30
0.0
 11
153.3710699659227
 21
807.2989505537125
 31
0.0
  0
SOLID
  5
3183
  8
DIMENSIONS
 62
     0
 10
154.2044032992561
 20
1037.298950553713
 30
0.0
 11
152.5377366325894
 21
1037.298950553713
 31
0.0
 12
153.3710699659228
 22
1042.298950553713
 32
0.0
 13
153.3710699659228
 23
1042.298950553713
 33
0.0
  0
SOLID
  5
3184
  8
DIMENSIONS
 62
     0
 10
152.5377366325894
 20
807.2989505537125
 30
0.0
 11
154.2044032992561
 21
807.2989505537125
 31
0.0
 12
153.3710699659227
 22
802.2989505537125
 32
0.0
 13
153.3710699659227
 23
802.2989505537125
 33
0.0
  0
TEXT
  5
3185
  8
DIMENSIONS
  6
CONTINUOUS
 62
     5
 10
150.9760699659229
 20
906.9039505537125
 30
0.0
 40
5.0
  1
240 [9.45]
 50
90.0
  0
POINT
  5
3186
  8
DEFPOINTS
 62
     0
 10
197.638199250486
 20
1042.298950553713
 30
0.0
  0
POINT
  5
3187
  8
DEFPOINTS
 62
     0
 10
197.638199250486
 20
802.2989505537125
 30
0.0
  0
POINT
  5
3188
  8
DEFPOINTS
 62
     0
 10
153.3710699659227
 20
802.2989505537125
 30
0.0
  0
ENDBLK
  5
317F
  8
0
  0
BLOCK
  8
0
  2
*D543
 70
     1
 10
0.0
 20
0.0
 30
0.0
  3
*D543
  1

  0
LINE
  5
318F
  8
DIMENSIONS
  6
BYBLOCK
 62
     0
 10
196.138199250486
 20
802.2989505537125
 30
0.0
 11
153.1910699659227
 21
802.2989505537125
 31
0.0
  0
LINE
  5
3190
  8
DIMENSIONS
  6
BYBLOCK
 62
     0
 10
196.138199250486
 20
442.2989505537125
 30
0.0
 11
153.1910699659227
 21
442.2989505537125
 31
0.0
  0
LINE
  5
3191
  8
DIMENSIONS
  6
BYBLOCK
 62
     0
 10
153.3710699659227
 20
797.2989505537125
 30
0.0
 11
153.3710699659227
 21
447.2989505537125
 31
0.0
  0
SOLID
  5
3192
  8
DIMENSIONS
 62
     0
 10
154.2044032992561
 20
797.2989505537125
 30
0.0
 11
152.5377366325894
 21
797.2989505537125
 31
0.0
 12
153.3710699659227
 22
802.2989505537125
 32
0.0
 13
153.3710699659227
 23
802.2989505537125
 33
0.0
  0
SOLID
  5
3193
  8
DIMENSIONS
 62
     0
 10
152.5377366325894
 20
447.2989505537125
 30
0.0
 11
154.2044032992561
 21
447.2989505537125
 31
0.0
 12
153.3710699659227
 22
442.2989505537125
 32
0.0
 13
153.3710699659227
 23
442.2989505537125
 33
0.0
  0
TEXT
  5
3194
  8
DIMENSIONS
  6
CONTINUOUS
 62
     5
 10
150.9760699659228
 20
604.9189505537125
 30
0.0
 40
5.0
  1
360 [14.17]
 50
90.0
  0
POINT
  5
3195
  8
DEFPOINTS
 62
     0
 10
197.638199250486
 20
802.2989505537125
 30
0.0
  0
POINT
  5
3196
  8
DEFPOINTS
 62
     0
 10
197.638199250486
 20
442.2989505537125
 30
0.0
  0
POINT
  5
3197
  8
DEFPOINTS
 62
     0
 10
153.3710699659227
 20
442.2989505537125
 30
0.0
  0
ENDBLK
  5
318E
  8
0
  0
BLOCK
  8
0
  2
*D544
 70
     1
 10
0.0
 20
0.0
 30
0.0
  3
*D544
  1

  0
LINE
  5
319E
  8
DIMENSIONS
  6
BYBLOCK
 62
     0
 10
196.138199250486
 20
442.2989505537125
 30
0.0
 11
134.1630364460102
 21
442.2989505537125
 31
0.0
  0
LINE
  5
319F
  8
DIMENSIONS
  6
BYBLOCK
 62
     0
 10
171.138199250486
 20
422.2989505537125
 30
0.0
 11
134.1630364460102
 21
422.2989505537125
 31
0.0
  0
LINE
  5
31A0
  8
DIMENSIONS
  6
BYBLOCK
 62
     0
 10
134.3430364460102
 20
442.2989505537125
 30
0.0
 11
134.3430364460102
 21
475.7989505537125
 31
0.0
  0
LINE
  5
31A1
  8
DIMENSIONS
  6
BYBLOCK
 62
     0
 10
134.3430364460102
 20
437.2989505537125
 30
0.0
 11
134.3430364460102
 21
427.2989505537125
 31
0.0
  0
SOLID
  5
31A2
  8
DIMENSIONS
 62
     0
 10
135.1763697793435
 20
437.2989505537125
 30
0.0
 11
133.5097031126768
 21
437.2989505537125
 31
0.0
 12
134.3430364460102
 22
442.2989505537125
 32
0.0
 13
134.3430364460102
 23
442.2989505537125
 33
0.0
  0
SOLID
  5
31A3
  8
DIMENSIONS
 62
     0
 10
133.5097031126768
 20
427.2989505537125
 30
0.0
 11
135.1763697793435
 21
427.2989505537125
 31
0.0
 12
134.3430364460102
 22
422.2989505537125
 32
0.0
 13
134.3430364460102
 23
422.2989505537125
 33
0.0
  0
TEXT
  5
31A4
  8
DIMENSIONS
  6
CONTINUOUS
 62
     5
 10
131.9480364460102
 20
448.0939505537125
 30
0.0
 40
5.0
  1
20 [0.79]
 50
90.0
  0
POINT
  5
31A5
  8
DEFPOINTS
 62
     0
 10
197.638199250486
 20
442.2989505537125
 30
0.0
  0
POINT
  5
31A6
  8
DEFPOINTS
 62
     0
 10
172.638199250486
 20
422.2989505537125
 30
0.0
  0
POINT
  5
31F3
  8
DEFPOINTS
 62
     0
 10
134.3430364460102
 20
422.2989505537125
 30
0.0
  0
ENDBLK
  5
319D
  8
0
  0
BLOCK
  8
0
  2
*D545
 70
     1
 10
0.0
 20
0.0
 30
0.0
  3
*D545
  1

  0
LINE
  5
31AD
  8
DIMENSIONS
  6
BYBLOCK
 62
     0
 10
489.138199250486
 20
1322.298950553712
 30
0.0
 11
510.5223294915718
 21
1322.298950553712
 31
0.0
  0
LINE
  5
31AE
  8
DIMENSIONS
  6
BYBLOCK
 62
     0
 10
464.138199250486
 20
1290.298950553712
 30
0.0
 11
510.5223294915718
 21
1290.298950553712
 31
0.0
  0
LINE
  5
31AF
  8
DIMENSIONS
  6
BYBLOCK
 62
     0
 10
510.3423294915718
 20
1317.298950553712
 30
0.0
 11
510.3423294915718
 21
1295.298950553712
 31
0.0
  0
SOLID
  5
31B0
  8
DIMENSIONS
 62
     0
 10
511.1756628249051
 20
1317.298950553712
 30
0.0
 11
509.5089961582385
 21
1317.298950553712
 31
0.0
 12
510.3423294915718
 22
1322.298950553712
 32
0.0
 13
510.3423294915718
 23
1322.298950553712
 33
0.0
  0
SOLID
  5
31B1
  8
DIMENSIONS
 62
     0
 10
509.5089961582385
 20
1295.298950553712
 30
0.0
 11
511.1756628249051
 21
1295.298950553712
 31
0.0
 12
510.3423294915718
 22
1290.298950553712
 32
0.0
 13
510.3423294915718
 23
1290.298950553712
 33
0.0
  0
TEXT
  5
31B2
  8
DIMENSIONS
  6
CONTINUOUS
 62
     5
 10
507.9473294915717
 20
1292.798950553712
 30
0.0
 40
5.0
  1
32 [1.26]
 50
90.0
  0
POINT
  5
31B3
  8
DEFPOINTS
 62
     0
 10
487.638199250486
 20
1322.298950553712
 30
0.0
  0
POINT
  5
31B4
  8
DEFPOINTS
 62
     0
 10
462.638199250486
 20
1290.298950553712
 30
0.0
  0
POINT
  5
31B5
  8
DEFPOINTS
 62
     0
 10
510.3423294915718
 20
1290.298950553712
 30
0.0
  0
ENDBLK
  5
31AC
  8
0
  0
BLOCK
  8
0
  2
*D546
 70
     1
 10
0.0
 20
0.0
 30
0.0
  3
*D546
  1

  0
LINE
  5
31BC
  8
DIMENSIONS
  6
BYBLOCK
 62
     0
 10
464.138199250486
 20
1290.298950553712
 30
0.0
 11
510.5223294915718
 21
1290.298950553712
 31
0.0
  0
LINE
  5
31BD
  8
DIMENSIONS
  6
BYBLOCK
 62
     0
 10
464.138199250486
 20
1050.298950553713
 30
0.0
 11
510.5223294915718
 21
1050.298950553713
 31
0.0
  0
LINE
  5
31BE
  8
DIMENSIONS
  6
BYBLOCK
 62
     0
 10
510.3423294915718
 20
1285.298950553712
 30
0.0
 11
510.3423294915718
 21
1055.298950553713
 31
0.0
  0
SOLID
  5
31BF
  8
DIMENSIONS
 62
     0
 10
511.1756628249051
 20
1285.298950553712
 30
0.0
 11
509.5089961582385
 21
1285.298950553712
 31
0.0
 12
510.3423294915718
 22
1290.298950553712
 32
0.0
 13
510.3423294915718
 23
1290.298950553712
 33
0.0
  0
SOLID
  5
31C0
  8
DIMENSIONS
 62
     0
 10
509.5089961582385
 20
1055.298950553713
 30
0.0
 11
511.1756628249051
 21
1055.298950553713
 31
0.0
 12
510.3423294915718
 22
1050.298950553713
 32
0.0
 13
510.3423294915718
 23
1050.298950553713
 33
0.0
  0
TEXT
  5
31C1
  8
DIMENSIONS
  6
CONTINUOUS
 62
     5
 10
507.9473294915715
 20
1154.903950553713
 30
0.0
 40
5.0
  1
240 [9.45]
 50
90.0
  0
POINT
  5
31C2
  8
DEFPOINTS
 62
     0
 10
462.638199250486
 20
1290.298950553712
 30
0.0
  0
POINT
  5
31C3
  8
DEFPOINTS
 62
     0
 10
462.638199250486
 20
1050.298950553713
 30
0.0
  0
POINT
  5
31C4
  8
DEFPOINTS
 62
     0
 10
510.3423294915718
 20
1050.298950553713
 30
0.0
  0
ENDBLK
  5
31BB
  8
0
  0
BLOCK
  8
0
  2
*D547
 70
     1
 10
0.0
 20
0.0
 30
0.0
  3
*D547
  1

  0
LINE
  5
31CB
  8
DIMENSIONS
  6
BYBLOCK
 62
     0
 10
464.138199250486
 20
1050.298950553713
 30
0.0
 11
533.7211733142872
 21
1050.298950553713
 31
0.0
  0
LINE
  5
31CC
  8
DIMENSIONS
  6
BYBLOCK
 62
     0
 10
464.138199250486
 20
1025.298950553713
 30
0.0
 11
533.7211733142872
 21
1025.298950553713
 31
0.0
  0
LINE
  5
31CD
  8
DIMENSIONS
  6
BYBLOCK
 62
     0
 10
533.5411733142872
 20
1025.298950553713
 30
0.0
 11
533.5411733142872
 21
991.7989505537125
 31
0.0
  0
LINE
  5
31CE
  8
DIMENSIONS
  6
BYBLOCK
 62
     0
 10
533.5411733142872
 20
1045.298950553713
 30
0.0
 11
533.5411733142872
 21
1030.298950553713
 31
0.0
  0
SOLID
  5
31CF
  8
DIMENSIONS
 62
     0
 10
534.3745066476206
 20
1045.298950553713
 30
0.0
 11
532.7078399809538
 21
1045.298950553713
 31
0.0
 12
533.5411733142872
 22
1050.298950553713
 32
0.0
 13
533.5411733142872
 23
1050.298950553713
 33
0.0
  0
SOLID
  5
31D0
  8
DIMENSIONS
 62
     0
 10
532.7078399809538
 20
1030.298950553713
 30
0.0
 11
534.3745066476206
 21
1030.298950553713
 31
0.0
 12
533.5411733142872
 22
1025.298950553713
 32
0.0
 13
533.5411733142872
 23
1025.298950553713
 33
0.0
  0
TEXT
  5
31D1
  8
DIMENSIONS
  6
CONTINUOUS
 62
     5
 10
531.1461733142872
 20
992.5939505537125
 30
0.0
 40
5.0
  1
25 [0.98]
 50
90.0
  0
POINT
  5
31D2
  8
DEFPOINTS
 62
     0
 10
462.638199250486
 20
1050.298950553713
 30
0.0
  0
POINT
  5
31D3
  8
DEFPOINTS
 62
     0
 10
462.638199250486
 20
1025.298950553713
 30
0.0
  0
POINT
  5
31F4
  8
DEFPOINTS
 62
     0
 10
533.5411733142872
 20
1025.298950553713
 30
0.0
  0
ENDBLK
  5
31CA
  8
0
  0
BLOCK
  8
0
  2
*D548
 70
     1
 10
0.0
 20
0.0
 30
0.0
  3
*D548
  1

  0
LINE
  5
31DA
  8
DIMENSIONS
  6
BYBLOCK
 62
     0
 10
464.138199250486
 20
1025.298950553713
 30
0.0
 11
510.5223294915718
 21
1025.298950553713
 31
0.0
  0
LINE
  5
31DB
  8
DIMENSIONS
  6
BYBLOCK
 62
     0
 10
464.138199250486
 20
835.2989505537125
 30
0.0
 11
510.5223294915718
 21
835.2989505537125
 31
0.0
  0
LINE
  5
31DC
  8
DIMENSIONS
  6
BYBLOCK
 62
     0
 10
510.3423294915718
 20
1020.298950553713
 30
0.0
 11
510.3423294915718
 21
840.2989505537125
 31
0.0
  0
SOLID
  5
31DD
  8
DIMENSIONS
 62
     0
 10
511.1756628249051
 20
1020.298950553713
 30
0.0
 11
509.5089961582385
 21
1020.298950553713
 31
0.0
 12
510.3423294915718
 22
1025.298950553713
 32
0.0
 13
510.3423294915718
 23
1025.298950553713
 33
0.0
  0
SOLID
  5
31DE
  8
DIMENSIONS
 62
     0
 10
509.5089961582385
 20
840.2989505537125
 30
0.0
 11
511.1756628249051
 21
840.2989505537125
 31
0.0
 12
510.3423294915718
 22
835.2989505537125
 32
0.0
 13
510.3423294915718
 23
835.2989505537125
 33
0.0
  0
TEXT
  5
31DF
  8
DIMENSIONS
  6
CONTINUOUS
 62
     5
 10
507.9473294915718
 20
914.6264505537125
 30
0.0
 40
5.0
  1
190 [7.48]
 50
90.0
  0
POINT
  5
31E0
  8
DEFPOINTS
 62
     0
 10
462.638199250486
 20
1025.298950553713
 30
0.0
  0
POINT
  5
31E1
  8
DEFPOINTS
 62
     0
 10
462.638199250486
 20
835.2989505537125
 30
0.0
  0
POINT
  5
31E2
  8
DEFPOINTS
 62
     0
 10
510.3423294915718
 20
835.2989505537125
 30
0.0
  0
ENDBLK
  5
31D9
  8
0
  0
BLOCK
  8
0
  2
*D549
 70
     1
 10
0.0
 20
0.0
 30
0.0
  3
*D549
  1

  0
LINE
  5
31E9
  8
DIMENSIONS
  6
BYBLOCK
 62
     0
 10
464.138199250486
 20
835.2989505537125
 30
0.0
 11
510.5223294915718
 21
835.2989505537125
 31
0.0
  0
LINE
  5
31EA
  8
DIMENSIONS
  6
BYBLOCK
 62
     0
 10
489.138199250486
 20
422.2989505537125
 30
0.0
 11
510.5223294915718
 21
422.2989505537125
 31
0.0
  0
LINE
  5
31EB
  8
DIMENSIONS
  6
BYBLOCK
 62
     0
 10
510.3423294915718
 20
830.2989505537125
 30
0.0
 11
510.3423294915718
 21
427.2989505537125
 31
0.0
  0
SOLID
  5
31EC
  8
DIMENSIONS
 62
     0
 10
511.1756628249051
 20
830.2989505537125
 30
0.0
 11
509.5089961582385
 21
830.2989505537125
 31
0.0
 12
510.3423294915718
 22
835.2989505537125
 32
0.0
 13
510.3423294915718
 23
835.2989505537125
 33
0.0
  0
SOLID
  5
31ED
  8
DIMENSIONS
 62
     0
 10
509.5089961582385
 20
427.2989505537125
 30
0.0
 11
511.1756628249051
 21
427.2989505537125
 31
0.0
 12
510.3423294915718
 22
422.2989505537125
 32
0.0
 13
510.3423294915718
 23
422.2989505537125
 33
0.0
  0
TEXT
  5
31EE
  8
DIMENSIONS
  6
CONTINUOUS
 62
     5
 10
507.9473294915718
 20
611.5214505537126
 30
0.0
 40
5.0
  1
413 [16.26]
 50
90.0
  0
POINT
  5
31EF
  8
DEFPOINTS
 62
     0
 10
462.638199250486
 20
835.2989505537125
 30
0.0
  0
POINT
  5
31F0
  8
DEFPOINTS
 62
     0
 10
487.638199250486
 20
422.2989505537125
 30
0.0
  0
POINT
  5
31F1
  8
DEFPOINTS
 62
     0
 10
510.3423294915718
 20
422.2989505537125
 30
0.0
  0
ENDBLK
  5
31E8
  8
0
  0
BLOCK
  8
0
  2
*D550
 70
     1
 10
0.0
 20
0.0
 30
0.0
  3
*D550
  1

  0
LINE
  5
31FB
  8
DIMENSIONS
  6
BYBLOCK
 62
     0
 10
454.3882086982148
 20
442.3114360427477
 30
0.0
 11
408.1632616341258
 21
442.3813926161604
 31
0.0
  0
TEXT
  5
31FC
  8
DIMENSIONS
  6
CONTINUOUS
 62
     5
 10
408.8870064563073
 20
444.8553001391624
 30
0.0
 40
5.0
  1
Ø6.5 [Ø0.26]
 50
359.9132889575817
  0
SOLID
  5
31FD
  8
DIMENSIONS
 62
     0
 10
454.3869475377062
 20
441.4781036637304
 30
0.0
 11
454.3894698587234
 21
443.144768421765
 31
0.0
 12
459.3882029723186
 22
442.303869079696
 32
0.0
 13
459.3882029723186
 23
442.303869079696
 33
0.0
  0
LINE
  5
31FE
  8
DIMENSIONS
  6
BYBLOCK
 62
     0
 10
460.138199250486
 20
442.2989505537124
 30
0.0
 11
465.138199250486
 21
442.2989505537124
 31
0.0
  0
LINE
  5
31FF
  8
DIMENSIONS
  6
BYBLOCK
 62
     0
 10
462.638199250486
 20
439.7989505537124
 30
0.0
 11
462.638199250486
 21
444.7989505537124
 31
0.0
  0
POINT
  5
3200
  8
DEFPOINTS
 62
     0
 10
459.3882029723186
 20
442.303869079696
 30
0.0
  0
POINT
  5
3201
  8
DEFPOINTS
 62
     0
 10
465.8881955286535
 20
442.2940320277289
 30
0.0
  0
ENDBLK
  5
31FA
  8
0
  0
BLOCK
  8
0
  2
*D552
 70
     1
 10
0.0
 20
0.0
 30
0.0
  3
*D552
  1

  0
LINE
  5
3272
  8
DIMENSIONS
  6
BYBLOCK
 62
     0
 10
214.9199057476207
 20
1533.210595331312
 30
0.0
 11
214.9199057476208
 21
1589.856289813712
 31
0.0
  0
LINE
  5
3273
  8
DIMENSIONS
  6
BYBLOCK
 62
     0
 10
529.9199057476206
 20
1533.210595331312
 30
0.0
 11
529.9199057476206
 21
1589.856289813712
 31
0.0
  0
LINE
  5
3274
  8
DIMENSIONS
  6
BYBLOCK
 62
     0
 10
219.9199057476208
 20
1589.676289813712
 30
0.0
 11
524.9199057476206
 21
1589.676289813712
 31
0.0
  0
SOLID
  5
3275
  8
DIMENSIONS
 62
     0
 10
219.9199057476208
 20
1590.509623147046
 30
0.0
 11
219.9199057476208
 21
1588.842956480379
 31
0.0
 12
214.9199057476208
 22
1589.676289813712
 32
0.0
 13
214.9199057476208
 23
1589.676289813712
 33
0.0
  0
SOLID
  5
3276
  8
DIMENSIONS
 62
     0
 10
524.9199057476206
 20
1588.842956480379
 30
0.0
 11
524.9199057476206
 21
1590.509623147046
 31
0.0
 12
529.9199057476206
 22
1589.676289813712
 32
0.0
 13
529.9199057476206
 23
1589.676289813712
 33
0.0
  0
TEXT
  5
3277
  8
DIMENSIONS
  6
CONTINUOUS
 62
     5
 10
355.0399057476207
 20
1592.071289813713
 30
0.0
 40
5.0
  1
315 [12.40]
  0
POINT
  5
3278
  8
DEFPOINTS
 62
     0
 10
214.9199057476207
 20
1531.710595331312
 30
0.0
  0
POINT
  5
3279
  8
DEFPOINTS
 62
     0
 10
529.9199057476206
 20
1531.710595331312
 30
0.0
  0
POINT
  5
327A
  8
DEFPOINTS
 62
     0
 10
529.9199057476206
 20
1589.676289813712
 30
0.0
  0
ENDBLK
  5
3271
  8
0
  0
BLOCK
  8
0
  2
*D553
 70
     1
 10
0.0
 20
0.0
 30
0.0
  3
*D553
  1

  0
LINE
  5
3281
  8
DIMENSIONS
  6
BYBLOCK
 62
     0
 10
549.9199057476206
 20
1548.210595331312
 30
0.0
 11
549.9199057476206
 21
1607.96249400201
 31
0.0
  0
LINE
  5
3282
  8
DIMENSIONS
  6
BYBLOCK
 62
     0
 10
194.9199057476207
 20
1548.210595331312
 30
0.0
 11
194.9199057476207
 21
1607.96249400201
 31
0.0
  0
LINE
  5
3283
  8
DIMENSIONS
  6
BYBLOCK
 62
     0
 10
544.9199057476206
 20
1607.78249400201
 30
0.0
 11
199.9199057476207
 21
1607.78249400201
 31
0.0
  0
SOLID
  5
3284
  8
DIMENSIONS
 62
     0
 10
544.9199057476206
 20
1606.949160668677
 30
0.0
 11
544.9199057476206
 21
1608.615827335343
 31
0.0
 12
549.9199057476206
 22
1607.78249400201
 32
0.0
 13
549.9199057476206
 23
1607.78249400201
 33
0.0
  0
SOLID
  5
3285
  8
DIMENSIONS
 62
     0
 10
199.9199057476207
 20
1608.615827335343
 30
0.0
 11
199.9199057476207
 21
1606.949160668677
 31
0.0
 12
194.9199057476207
 22
1607.78249400201
 32
0.0
 13
194.9199057476207
 23
1607.78249400201
 33
0.0
  0
TEXT
  5
3286
  8
DIMENSIONS
  6
CONTINUOUS
 62
     5
 10
355.0399057476207
 20
1610.17749400201
 30
0.0
 40
5.0
  1
355 [13.98]
  0
POINT
  5
3287
  8
DEFPOINTS
 62
     0
 10
549.9199057476206
 20
1546.710595331312
 30
0.0
  0
POINT
  5
3288
  8
DEFPOINTS
 62
     0
 10
194.9199057476207
 20
1546.710595331312
 30
0.0
  0
POINT
  5
3289
  8
DEFPOINTS
 62
     0
 10
194.9199057476207
 20
1607.78249400201
 30
0.0
  0
ENDBLK
  5
3280
  8
0
  0
BLOCK
  8
0
  2
*D554
 70
     1
 10
0.0
 20
0.0
 30
0.0
  3
*D554
  1

  0
LINE
  5
3290
  8
DIMENSIONS
  6
BYBLOCK
 62
     0
 10
569.9199057476206
 20
1573.210595331312
 30
0.0
 11
569.9199057476206
 21
1624.821792003645
 31
0.0
  0
LINE
  5
3291
  8
DIMENSIONS
  6
BYBLOCK
 62
     0
 10
174.9199057476207
 20
1573.210595331312
 30
0.0
 11
174.9199057476207
 21
1624.821792003645
 31
0.0
  0
LINE
  5
3292
  8
DIMENSIONS
  6
BYBLOCK
 62
     0
 10
564.9199057476206
 20
1624.641792003645
 30
0.0
 11
179.9199057476207
 21
1624.641792003645
 31
0.0
  0
SOLID
  5
3293
  8
DIMENSIONS
 62
     0
 10
564.9199057476206
 20
1623.808458670312
 30
0.0
 11
564.9199057476206
 21
1625.475125336978
 31
0.0
 12
569.9199057476206
 22
1624.641792003645
 32
0.0
 13
569.9199057476206
 23
1624.641792003645
 33
0.0
  0
SOLID
  5
3294
  8
DIMENSIONS
 62
     0
 10
179.9199057476207
 20
1625.475125336978
 30
0.0
 11
179.9199057476207
 21
1623.808458670312
 31
0.0
 12
174.9199057476207
 22
1624.641792003645
 32
0.0
 13
174.9199057476207
 23
1624.641792003645
 33
0.0
  0
TEXT
  5
3295
  8
DIMENSIONS
  6
CONTINUOUS
 62
     5
 10
355.0399057476207
 20
1627.036792003645
 30
0.0
 40
5.0
  1
395 [15.55]
  0
POINT
  5
3296
  8
DEFPOINTS
 62
     0
 10
569.9199057476206
 20
1571.710595331312
 30
0.0
  0
POINT
  5
3297
  8
DEFPOINTS
 62
     0
 10
174.9199057476207
 20
1571.710595331312
 30
0.0
  0
POINT
  5
3298
  8
DEFPOINTS
 62
     0
 10
174.9199057476207
 20
1624.641792003645
 30
0.0
  0
ENDBLK
  5
328F
  8
0
  0
BLOCK
  8
0
  2
*D555
 70
     1
 10
0.0
 20
0.0
 30
0.0
  3
*D555
  1

  0
LINE
  5
329F
  8
DIMENSIONS
  6
BYBLOCK
 62
     0
 10
193.4199057476207
 20
721.7105953313123
 30
0.0
 11
157.211676763483
 21
721.7105953313123
 31
0.0
  0
LINE
  5
32A0
  8
DIMENSIONS
  6
BYBLOCK
 62
     0
 10
193.4199057476207
 20
1271.710595331312
 30
0.0
 11
157.211676763483
 21
1271.710595331312
 31
0.0
  0
LINE
  5
32A1
  8
DIMENSIONS
  6
BYBLOCK
 62
     0
 10
157.391676763483
 20
726.7105953313123
 30
0.0
 11
157.391676763483
 21
1266.710595331312
 31
0.0
  0
SOLID
  5
32A2
  8
DIMENSIONS
 62
     0
 10
156.5583434301497
 20
726.7105953313123
 30
0.0
 11
158.2250100968164
 21
726.7105953313123
 31
0.0
 12
157.391676763483
 22
721.7105953313123
 32
0.0
 13
157.391676763483
 23
721.7105953313123
 33
0.0
  0
SOLID
  5
32A3
  8
DIMENSIONS
 62
     0
 10
158.2250100968164
 20
1266.710595331312
 30
0.0
 11
156.5583434301497
 21
1266.710595331312
 31
0.0
 12
157.391676763483
 22
1271.710595331312
 32
0.0
 13
157.391676763483
 23
1271.710595331312
 33
0.0
  0
TEXT
  5
32A4
  8
DIMENSIONS
  6
CONTINUOUS
 62
     5
 10
154.996676763483
 20
979.3330953313123
 30
0.0
 40
5.0
  1
550 [21.65]
 50
90.0
  0
POINT
  5
32A5
  8
DEFPOINTS
 62
     0
 10
194.9199057476207
 20
721.7105953313123
 30
0.0
  0
POINT
  5
32A6
  8
DEFPOINTS
 62
     0
 10
194.9199057476207
 20
1271.710595331312
 30
0.0
  0
POINT
  5
32A7
  8
DEFPOINTS
 62
     0
 10
157.391676763483
 20
1271.710595331312
 30
0.0
  0
ENDBLK
  5
329E
  8
0
  0
BLOCK
  8
0
  2
*D556
 70
     1
 10
0.0
 20
0.0
 30
0.0
  3
*D556
  1

  0
LINE
  5
32AE
  8
DIMENSIONS
  6
BYBLOCK
 62
     0
 10
193.4199057476207
 20
446.7105953313123
 30
0.0
 11
140.3639645687551
 21
446.7105953313123
 31
0.0
  0
LINE
  5
32AF
  8
DIMENSIONS
  6
BYBLOCK
 62
     0
 10
193.4199057476207
 20
1546.710595331312
 30
0.0
 11
140.3639645687552
 21
1546.710595331312
 31
0.0
  0
LINE
  5
32B0
  8
DIMENSIONS
  6
BYBLOCK
 62
     0
 10
140.5439645687551
 20
451.7105953313123
 30
0.0
 11
140.5439645687552
 21
1541.710595331312
 31
0.0
  0
SOLID
  5
32B1
  8
DIMENSIONS
 62
     0
 10
139.7106312354218
 20
451.7105953313123
 30
0.0
 11
141.3772979020885
 21
451.7105953313123
 31
0.0
 12
140.5439645687551
 22
446.7105953313123
 32
0.0
 13
140.5439645687551
 23
446.7105953313123
 33
0.0
  0
SOLID
  5
32B2
  8
DIMENSIONS
 62
     0
 10
141.3772979020885
 20
1541.710595331312
 30
0.0
 11
139.7106312354218
 21
1541.710595331312
 31
0.0
 12
140.5439645687552
 22
1546.710595331312
 32
0.0
 13
140.5439645687552
 23
1546.710595331312
 33
0.0
  0
TEXT
  5
32B3
  8
DIMENSIONS
  6
CONTINUOUS
 62
     5
 10
138.1489645687551
 20
977.1580953313123
 30
0.0
 40
5.0
  1
1100 [43.31]
 50
90.0
  0
POINT
  5
32B4
  8
DEFPOINTS
 62
     0
 10
194.9199057476207
 20
446.7105953313123
 30
0.0
  0
POINT
  5
32B5
  8
DEFPOINTS
 62
     0
 10
194.9199057476207
 20
1546.710595331312
 30
0.0
  0
POINT
  5
32B6
  8
DEFPOINTS
 62
     0
 10
140.5439645687552
 20
1546.710595331312
 30
0.0
  0
ENDBLK
  5
32AD
  8
0
  0
BLOCK
  8
0
  2
*D557
 70
     1
 10
0.0
 20
0.0
 30
0.0
  3
*D557
  1

  0
LINE
  5
32BD
  8
DIMENSIONS
  6
BYBLOCK
 62
     0
 10
173.4199057476207
 20
421.7105953313123
 30
0.0
 11
124.2165473249208
 21
421.7105953313123
 31
0.0
  0
LINE
  5
32BE
  8
DIMENSIONS
  6
BYBLOCK
 62
     0
 10
173.4199057476207
 20
1571.710595331312
 30
0.0
 11
124.2165473249209
 21
1571.710595331312
 31
0.0
  0
LINE
  5
32BF
  8
DIMENSIONS
  6
BYBLOCK
 62
     0
 10
124.3965473249208
 20
426.7105953313123
 30
0.0
 11
124.3965473249209
 21
1566.710595331312
 31
0.0
  0
SOLID
  5
32C0
  8
DIMENSIONS
 62
     0
 10
123.5632139915875
 20
426.7105953313123
 30
0.0
 11
125.2298806582541
 21
426.7105953313123
 31
0.0
 12
124.3965473249208
 22
421.7105953313123
 32
0.0
 13
124.3965473249208
 23
421.7105953313123
 33
0.0
  0
SOLID
  5
32C1
  8
DIMENSIONS
 62
     0
 10
125.2298806582542
 20
1566.710595331312
 30
0.0
 11
123.5632139915876
 21
1566.710595331312
 31
0.0
 12
124.3965473249209
 22
1571.710595331312
 32
0.0
 13
124.3965473249209
 23
1571.710595331312
 33
0.0
  0
TEXT
  5
32C2
  8
DIMENSIONS
  6
CONTINUOUS
 62
     5
 10
122.0015473249208
 20
977.1580953313123
 30
0.0
 40
5.0
  1
1150 [45.28]
 50
90.0
  0
POINT
  5
32C3
  8
DEFPOINTS
 62
     0
 10
174.9199057476207
 20
421.7105953313123
 30
0.0
  0
POINT
  5
32C4
  8
DEFPOINTS
 62
     0
 10
174.9199057476207
 20
1571.710595331312
 30
0.0
  0
POINT
  5
32C5
  8
DEFPOINTS
 62
     0
 10
124.3965473249209
 20
1571.710595331312
 30
0.0
  0
ENDBLK
  5
32BC
  8
0
  0
BLOCK
  8
0
  2
*D558
 70
     1
 10
0.0
 20
0.0
 30
0.0
  3
*D558
  1

  0
LINE
  5
32CC
  8
DIMENSIONS
  6
BYBLOCK
 62
     0
 10
571.4199057476206
 20
1571.710595331312
 30
0.0
 11
593.1334090269334
 21
1571.710595331312
 31
0.0
  0
LINE
  5
32CD
  8
DIMENSIONS
  6
BYBLOCK
 62
     0
 10
531.4199057476206
 20
1531.710595331312
 30
0.0
 11
593.1334090269334
 21
1531.710595331312
 31
0.0
  0
LINE
  5
32CE
  8
DIMENSIONS
  6
BYBLOCK
 62
     0
 10
592.9534090269334
 20
1566.710595331312
 30
0.0
 11
592.9534090269334
 21
1536.710595331312
 31
0.0
  0
SOLID
  5
32CF
  8
DIMENSIONS
 62
     0
 10
593.7867423602668
 20
1566.710595331312
 30
0.0
 11
592.1200756936
 21
1566.710595331312
 31
0.0
 12
592.9534090269334
 22
1571.710595331312
 32
0.0
 13
592.9534090269334
 23
1571.710595331312
 33
0.0
  0
SOLID
  5
32D0
  8
DIMENSIONS
 62
     0
 10
592.1200756936
 20
1536.710595331312
 30
0.0
 11
593.7867423602668
 21
1536.710595331312
 31
0.0
 12
592.9534090269334
 22
1531.710595331312
 32
0.0
 13
592.9534090269334
 23
1531.710595331312
 33
0.0
  0
TEXT
  5
32D1
  8
DIMENSIONS
  6
CONTINUOUS
 62
     5
 10
590.5584090269333
 20
1538.313095331312
 30
0.0
 40
5.0
  1
40 [1.57]
 50
90.0
  0
POINT
  5
32D2
  8
DEFPOINTS
 62
     0
 10
569.9199057476206
 20
1571.710595331312
 30
0.0
  0
POINT
  5
32D3
  8
DEFPOINTS
 62
     0
 10
529.9199057476206
 20
1531.710595331312
 30
0.0
  0
POINT
  5
32D4
  8
DEFPOINTS
 62
     0
 10
592.9534090269334
 20
1531.710595331312
 30
0.0
  0
ENDBLK
  5
32CB
  8
0
  0
BLOCK
  8
0
  2
*D559
 70
     1
 10
0.0
 20
0.0
 30
0.0
  3
*D559
  1

  0
LINE
  5
32DB
  8
DIMENSIONS
  6
BYBLOCK
 62
     0
 10
531.4199057476206
 20
1531.710595331312
 30
0.0
 11
593.1334090269334
 21
1531.710595331312
 31
0.0
  0
LINE
  5
32DC
  8
DIMENSIONS
  6
BYBLOCK
 62
     0
 10
531.4199057476206
 20
1266.710595331312
 30
0.0
 11
593.1334090269334
 21
1266.710595331312
 31
0.0
  0
LINE
  5
32DD
  8
DIMENSIONS
  6
BYBLOCK
 62
     0
 10
592.9534090269334
 20
1526.710595331312
 30
0.0
 11
592.9534090269334
 21
1271.710595331312
 31
0.0
  0
SOLID
  5
32DE
  8
DIMENSIONS
 62
     0
 10
593.7867423602668
 20
1526.710595331312
 30
0.0
 11
592.1200756936
 21
1526.710595331312
 31
0.0
 12
592.9534090269334
 22
1531.710595331312
 32
0.0
 13
592.9534090269334
 23
1531.710595331312
 33
0.0
  0
SOLID
  5
32DF
  8
DIMENSIONS
 62
     0
 10
592.1200756936
 20
1271.710595331312
 30
0.0
 11
593.7867423602668
 21
1271.710595331312
 31
0.0
 12
592.9534090269334
 22
1266.710595331312
 32
0.0
 13
592.9534090269334
 23
1266.710595331312
 33
0.0
  0
TEXT
  5
32E0
  8
DIMENSIONS
  6
CONTINUOUS
 62
     5
 10
590.5584090269331
 20
1381.875595331312
 30
0.0
 40
5.0
  1
265 [10.43]
 50
90.0
  0
POINT
  5
32E1
  8
DEFPOINTS
 62
     0
 10
529.9199057476206
 20
1531.710595331312
 30
0.0
  0
POINT
  5
32E2
  8
DEFPOINTS
 62
     0
 10
529.9199057476206
 20
1266.710595331312
 30
0.0
  0
POINT
  5
32E3
  8
DEFPOINTS
 62
     0
 10
592.9534090269334
 20
1266.710595331312
 30
0.0
  0
ENDBLK
  5
32DA
  8
0
  0
BLOCK
  8
0
  2
*D560
 70
     1
 10
0.0
 20
0.0
 30
0.0
  3
*D560
  1

  0
LINE
  5
32EA
  8
DIMENSIONS
  6
BYBLOCK
 62
     0
 10
531.4199057476206
 20
1266.710595331312
 30
0.0
 11
593.1334090269334
 21
1266.710595331312
 31
0.0
  0
LINE
  5
32EB
  8
DIMENSIONS
  6
BYBLOCK
 62
     0
 10
531.4199057476206
 20
1166.710595331312
 30
0.0
 11
593.1334090269334
 21
1166.710595331312
 31
0.0
  0
LINE
  5
32EC
  8
DIMENSIONS
  6
BYBLOCK
 62
     0
 10
592.9534090269334
 20
1261.710595331312
 30
0.0
 11
592.9534090269334
 21
1171.710595331312
 31
0.0
  0
SOLID
  5
32ED
  8
DIMENSIONS
 62
     0
 10
593.7867423602668
 20
1261.710595331312
 30
0.0
 11
592.1200756936
 21
1261.710595331312
 31
0.0
 12
592.9534090269334
 22
1266.710595331312
 32
0.0
 13
592.9534090269334
 23
1266.710595331312
 33
0.0
  0
SOLID
  5
32EE
  8
DIMENSIONS
 62
     0
 10
592.1200756936
 20
1171.710595331312
 30
0.0
 11
593.7867423602668
 21
1171.710595331312
 31
0.0
 12
592.9534090269334
 22
1166.710595331312
 32
0.0
 13
592.9534090269334
 23
1166.710595331312
 33
0.0
  0
TEXT
  5
32EF
  8
DIMENSIONS
  6
CONTINUOUS
 62
     5
 10
590.5584090269331
 20
1201.038095331312
 30
0.0
 40
5.0
  1
100 [3.94]
 50
90.0
  0
POINT
  5
32F0
  8
DEFPOINTS
 62
     0
 10
529.9199057476206
 20
1266.710595331312
 30
0.0
  0
POINT
  5
32F1
  8
DEFPOINTS
 62
     0
 10
529.9199057476206
 20
1166.710595331312
 30
0.0
  0
POINT
  5
32F2
  8
DEFPOINTS
 62
     0
 10
592.9534090269334
 20
1166.710595331312
 30
0.0
  0
ENDBLK
  5
32E9
  8
0
  0
BLOCK
  8
0
  2
*D561
 70
     1
 10
0.0
 20
0.0
 30
0.0
  3
*D561
  1

  0
LINE
  5
32F9
  8
DIMENSIONS
  6
BYBLOCK
 62
     0
 10
531.4199057476206
 20
1166.710595331312
 30
0.0
 11
593.1334090269334
 21
1166.710595331312
 31
0.0
  0
LINE
  5
32FA
  8
DIMENSIONS
  6
BYBLOCK
 62
     0
 10
531.4199057476206
 20
956.7105953313123
 30
0.0
 11
593.1334090269334
 21
956.7105953313123
 31
0.0
  0
LINE
  5
32FB
  8
DIMENSIONS
  6
BYBLOCK
 62
     0
 10
592.9534090269334
 20
1161.710595331312
 30
0.0
 11
592.9534090269334
 21
961.7105953313123
 31
0.0
  0
SOLID
  5
32FC
  8
DIMENSIONS
 62
     0
 10
593.7867423602668
 20
1161.710595331312
 30
0.0
 11
592.1200756936
 21
1161.710595331312
 31
0.0
 12
592.9534090269334
 22
1166.710595331312
 32
0.0
 13
592.9534090269334
 23
1166.710595331312
 33
0.0
  0
SOLID
  5
32FD
  8
DIMENSIONS
 62
     0
 10
592.1200756936
 20
961.7105953313123
 30
0.0
 11
593.7867423602668
 21
961.7105953313123
 31
0.0
 12
592.9534090269334
 22
956.7105953313123
 32
0.0
 13
592.9534090269334
 23
956.7105953313123
 33
0.0
  0
TEXT
  5
32FE
  8
DIMENSIONS
  6
CONTINUOUS
 62
     5
 10
590.5584090269331
 20
1046.315595331312
 30
0.0
 40
5.0
  1
210 [8.27]
 50
90.0
  0
POINT
  5
32FF
  8
DEFPOINTS
 62
     0
 10
529.9199057476206
 20
1166.710595331312
 30
0.0
  0
POINT
  5
3300
  8
DEFPOINTS
 62
     0
 10
529.9199057476206
 20
956.7105953313123
 30
0.0
  0
POINT
  5
3301
  8
DEFPOINTS
 62
     0
 10
592.9534090269334
 20
956.7105953313123
 30
0.0
  0
ENDBLK
  5
32F8
  8
0
  0
BLOCK
  8
0
  2
*D562
 70
     1
 10
0.0
 20
0.0
 30
0.0
  3
*D562
  1

  0
LINE
  5
3308
  8
DIMENSIONS
  6
BYBLOCK
 62
     0
 10
531.4199057476206
 20
956.7105953313123
 30
0.0
 11
593.1334090269334
 21
956.7105953313123
 31
0.0
  0
LINE
  5
3309
  8
DIMENSIONS
  6
BYBLOCK
 62
     0
 10
571.4199057476206
 20
421.7105953313123
 30
0.0
 11
593.1334090269334
 21
421.7105953313123
 31
0.0
  0
LINE
  5
330A
  8
DIMENSIONS
  6
BYBLOCK
 62
     0
 10
592.9534090269334
 20
951.7105953313123
 30
0.0
 11
592.9534090269334
 21
426.7105953313123
 31
0.0
  0
SOLID
  5
330B
  8
DIMENSIONS
 62
     0
 10
593.7867423602668
 20
951.7105953313123
 30
0.0
 11
592.1200756936
 21
951.7105953313123
 31
0.0
 12
592.9534090269334
 22
956.7105953313123
 32
0.0
 13
592.9534090269334
 23
956.7105953313123
 33
0.0
  0
SOLID
  5
330C
  8
DIMENSIONS
 62
     0
 10
592.1200756936
 20
426.7105953313123
 30
0.0
 11
593.7867423602668
 21
426.7105953313123
 31
0.0
 12
592.9534090269334
 22
421.7105953313123
 32
0.0
 13
592.9534090269334
 23
421.7105953313123
 33
0.0
  0
TEXT
  5
330D
  8
DIMENSIONS
  6
CONTINUOUS
 62
     5
 10
590.5584090269334
 20
671.8330953313124
 30
0.0
 40
5.0
  1
535 [21.06]
 50
90.0
  0
POINT
  5
330E
  8
DEFPOINTS
 62
     0
 10
529.9199057476206
 20
956.7105953313123
 30
0.0
  0
POINT
  5
330F
  8
DEFPOINTS
 62
     0
 10
569.9199057476206
 20
421.7105953313123
 30
0.0
  0
POINT
  5
3310
  8
DEFPOINTS
 62
     0
 10
592.9534090269334
 20
421.7105953313123
 30
0.0
  0
ENDBLK
  5
3307
  8
0
  0
BLOCK
  8
0
  2
*D563
 70
     1
 10
0.0
 20
0.0
 30
0.0
  3
*D563
  1

  0
LINE
  5
3328
  8
DIMENSIONS
  6
BYBLOCK
 62
     0
 10
541.6699595334446
 20
446.6808050107059
 30
0.0
 11
495.2832782360821
 21
446.5133040268396
 31
0.0
  0
TEXT
  5
3329
  8
DIMENSIONS
  6
CONTINUOUS
 62
     5
 10
495.9943364458645
 20
448.9908877736181
 30
0.0
 40
5.0
  1
Ø6.5 [Ø0.26]
 50
0.2068925273198278
  0
SOLID
  5
332A
  8
DIMENSIONS
 62
     0
 10
541.6729686567382
 20
445.847477110284
 30
0.0
 11
541.666950410151
 21
447.5141329111277
 31
0.0
 12
546.6699269359756
 22
446.6988597504674
 32
0.0
 13
546.6699269359756
 23
446.6988597504674
 33
0.0
  0
LINE
  5
332B
  8
DIMENSIONS
  6
BYBLOCK
 62
     0
 10
547.4199057476206
 20
446.7105953313123
 30
0.0
 11
552.4199057476206
 21
446.7105953313123
 31
0.0
  0
LINE
  5
332C
  8
DIMENSIONS
  6
BYBLOCK
 62
     0
 10
549.9199057476206
 20
444.2105953313123
 30
0.0
 11
549.9199057476206
 21
449.2105953313123
 31
0.0
  0
POINT
  5
332D
  8
DEFPOINTS
 62
     0
 10
546.6699269359756
 20
446.6988597504674
 30
0.0
  0
POINT
  5
332E
  8
DEFPOINTS
 62
     0
 10
553.1698845592657
 20
446.7223309121573
 30
0.0
  0
ENDBLK
  5
3327
  8
0
  0
BLOCK
  8
0
  2
*D565
 70
     1
 10
0.0
 20
0.0
 30
0.0
  3
*D565
  1

  0
LINE
  5
3395
  8
DIMENSIONS
  6
BYBLOCK
 62
     0
 10
212.2955725536369
 20
1923.308991933994
 30
0.0
 11
212.2955725536369
 21
1987.857777929914
 31
0.0
  0
LINE
  5
3396
  8
DIMENSIONS
  6
BYBLOCK
 62
     0
 10
589.2955725536368
 20
1923.308991933994
 30
0.0
 11
589.2955725536368
 21
1987.857777929914
 31
0.0
  0
LINE
  5
3397
  8
DIMENSIONS
  6
BYBLOCK
 62
     0
 10
217.2955725536369
 20
1987.677777929914
 30
0.0
 11
584.2955725536368
 21
1987.677777929914
 31
0.0
  0
SOLID
  5
3398
  8
DIMENSIONS
 62
     0
 10
217.2955725536369
 20
1988.511111263247
 30
0.0
 11
217.2955725536369
 21
1986.844444596581
 31
0.0
 12
212.2955725536369
 22
1987.677777929914
 32
0.0
 13
212.2955725536369
 23
1987.677777929914
 33
0.0
  0
SOLID
  5
3399
  8
DIMENSIONS
 62
     0
 10
584.2955725536368
 20
1986.844444596581
 30
0.0
 11
584.2955725536368
 21
1988.511111263247
 31
0.0
 12
589.2955725536368
 22
1987.677777929914
 32
0.0
 13
589.2955725536368
 23
1987.677777929914
 33
0.0
  0
TEXT
  5
339A
  8
DIMENSIONS
  6
CONTINUOUS
 62
     5
 10
383.4155725536368
 20
1990.072777929914
 30
0.0
 40
5.0
  1
377 [14.84]
  0
POINT
  5
339B
  8
DEFPOINTS
 62
     0
 10
212.2955725536369
 20
1921.808991933994
 30
0.0
  0
POINT
  5
339C
  8
DEFPOINTS
 62
     0
 10
589.2955725536368
 20
1921.808991933994
 30
0.0
  0
POINT
  5
339D
  8
DEFPOINTS
 62
     0
 10
589.2955725536368
 20
1987.677777929914
 30
0.0
  0
ENDBLK
  5
3394
  8
0
  0
BLOCK
  8
0
  2
*D566
 70
     1
 10
0.0
 20
0.0
 30
0.0
  3
*D566
  1

  0
LINE
  5
33A4
  8
DIMENSIONS
  6
BYBLOCK
 62
     0
 10
605.7955725536368
 20
1948.308991933994
 30
0.0
 11
605.7955725536368
 21
2004.107640959621
 31
0.0
  0
LINE
  5
33A5
  8
DIMENSIONS
  6
BYBLOCK
 62
     0
 10
195.7955725536369
 20
1948.308991933994
 30
0.0
 11
195.7955725536369
 21
2004.107640959621
 31
0.0
  0
LINE
  5
33A6
  8
DIMENSIONS
  6
BYBLOCK
 62
     0
 10
600.7955725536368
 20
2003.927640959621
 30
0.0
 11
200.7955725536369
 21
2003.927640959621
 31
0.0
  0
SOLID
  5
33A7
  8
DIMENSIONS
 62
     0
 10
600.7955725536368
 20
2003.094307626288
 30
0.0
 11
600.7955725536368
 21
2004.760974292954
 31
0.0
 12
605.7955725536368
 22
2003.927640959621
 32
0.0
 13
605.7955725536368
 23
2003.927640959621
 33
0.0
  0
SOLID
  5
33A8
  8
DIMENSIONS
 62
     0
 10
200.7955725536369
 20
2004.760974292954
 30
0.0
 11
200.7955725536369
 21
2003.094307626288
 31
0.0
 12
195.7955725536369
 22
2003.927640959621
 32
0.0
 13
195.7955725536369
 23
2003.927640959621
 33
0.0
  0
TEXT
  5
33A9
  8
DIMENSIONS
  6
CONTINUOUS
 62
     5
 10
383.5180725536368
 20
2006.322640959621
 30
0.0
 40
5.0
  1
410 [16.14]
  0
POINT
  5
33AA
  8
DEFPOINTS
 62
     0
 10
605.7955725536368
 20
1946.808991933994
 30
0.0
  0
POINT
  5
33AB
  8
DEFPOINTS
 62
     0
 10
195.7955725536369
 20
1946.808991933994
 30
0.0
  0
POINT
  5
33AC
  8
DEFPOINTS
 62
     0
 10
195.7955725536369
 20
2003.927640959621
 30
0.0
  0
ENDBLK
  5
33A3
  8
0
  0
BLOCK
  8
0
  2
*D567
 70
     1
 10
0.0
 20
0.0
 30
0.0
  3
*D567
  1

  0
LINE
  5
33B3
  8
DIMENSIONS
  6
BYBLOCK
 62
     0
 10
172.2955725536369
 20
1973.308991933994
 30
0.0
 11
172.2955725536369
 21
2019.498072808824
 31
0.0
  0
LINE
  5
33B4
  8
DIMENSIONS
  6
BYBLOCK
 62
     0
 10
629.2955725536369
 20
1973.308991933994
 30
0.0
 11
629.2955725536369
 21
2019.498072808824
 31
0.0
  0
LINE
  5
33B5
  8
DIMENSIONS
  6
BYBLOCK
 62
     0
 10
177.2955725536369
 20
2019.318072808824
 30
0.0
 11
624.2955725536369
 21
2019.318072808824
 31
0.0
  0
SOLID
  5
33B6
  8
DIMENSIONS
 62
     0
 10
177.2955725536369
 20
2020.151406142158
 30
0.0
 11
177.2955725536369
 21
2018.484739475491
 31
0.0
 12
172.2955725536369
 22
2019.318072808824
 32
0.0
 13
172.2955725536369
 23
2019.318072808824
 33
0.0
  0
SOLID
  5
33B7
  8
DIMENSIONS
 62
     0
 10
624.2955725536369
 20
2018.484739475491
 30
0.0
 11
624.2955725536369
 21
2020.151406142158
 31
0.0
 12
629.2955725536369
 22
2019.318072808824
 32
0.0
 13
629.2955725536369
 23
2019.318072808824
 33
0.0
  0
TEXT
  5
33B8
  8
DIMENSIONS
  6
CONTINUOUS
 62
     5
 10
383.518072553637
 20
2021.713072808825
 30
0.0
 40
5.0
  1
457 [17.99]
  0
POINT
  5
33B9
  8
DEFPOINTS
 62
     0
 10
172.2955725536369
 20
1971.808991933994
 30
0.0
  0
POINT
  5
33BA
  8
DEFPOINTS
 62
     0
 10
629.2955725536369
 20
1971.808991933994
 30
0.0
  0
POINT
  5
33BB
  8
DEFPOINTS
 62
     0
 10
629.2955725536369
 20
2019.318072808824
 30
0.0
  0
ENDBLK
  5
33B2
  8
0
  0
BLOCK
  8
0
  2
*D568
 70
     1
 10
0.0
 20
0.0
 30
0.0
  3
*D568
  1

  0
LINE
  5
33C2
  8
DIMENSIONS
  6
BYBLOCK
 62
     0
 10
170.7955725536369
 20
1971.808991933994
 30
0.0
 11
140.784241587395
 21
1971.808991933994
 31
0.0
  0
LINE
  5
33C3
  8
DIMENSIONS
  6
BYBLOCK
 62
     0
 10
194.2955725536369
 20
1946.808991933994
 30
0.0
 11
140.784241587395
 21
1946.808991933994
 31
0.0
  0
LINE
  5
33C4
  8
DIMENSIONS
  6
BYBLOCK
 62
     0
 10
140.964241587395
 20
1946.808991933994
 30
0.0
 11
140.964241587395
 21
1913.308991933994
 31
0.0
  0
LINE
  5
33C5
  8
DIMENSIONS
  6
BYBLOCK
 62
     0
 10
140.964241587395
 20
1966.808991933994
 30
0.0
 11
140.964241587395
 21
1951.808991933994
 31
0.0
  0
SOLID
  5
33C6
  8
DIMENSIONS
 62
     0
 10
141.7975749207284
 20
1966.808991933994
 30
0.0
 11
140.1309082540617
 21
1966.808991933994
 31
0.0
 12
140.964241587395
 22
1971.808991933994
 32
0.0
 13
140.964241587395
 23
1971.808991933994
 33
0.0
  0
SOLID
  5
33C7
  8
DIMENSIONS
 62
     0
 10
140.1309082540617
 20
1951.808991933994
 30
0.0
 11
141.7975749207284
 21
1951.808991933994
 31
0.0
 12
140.964241587395
 22
1946.808991933994
 32
0.0
 13
140.964241587395
 23
1946.808991933994
 33
0.0
  0
TEXT
  5
33C8
  8
DIMENSIONS
  6
CONTINUOUS
 62
     5
 10
138.5692415873948
 20
1914.103991933994
 30
0.0
 40
5.0
  1
25 [0.98]
 50
90.0
  0
POINT
  5
33C9
  8
DEFPOINTS
 62
     0
 10
172.2955725536369
 20
1971.808991933994
 30
0.0
  0
POINT
  5
33CA
  8
DEFPOINTS
 62
     0
 10
195.7955725536369
 20
1946.808991933994
 30
0.0
  0
POINT
  5
3425
  8
DEFPOINTS
 62
     0
 10
140.964241587395
 20
1946.808991933994
 30
0.0
  0
ENDBLK
  5
33C1
  8
0
  0
BLOCK
  8
0
  2
*D569
 70
     1
 10
0.0
 20
0.0
 30
0.0
  3
*D569
  1

  0
LINE
  5
33D1
  8
DIMENSIONS
  6
BYBLOCK
 62
     0
 10
194.2955725536369
 20
1946.808991933994
 30
0.0
 11
155.716121042853
 21
1946.808991933994
 31
0.0
  0
LINE
  5
33D2
  8
DIMENSIONS
  6
BYBLOCK
 62
     0
 10
194.2955725536368
 20
1611.808991933994
 30
0.0
 11
155.716121042853
 21
1611.808991933994
 31
0.0
  0
LINE
  5
33D3
  8
DIMENSIONS
  6
BYBLOCK
 62
     0
 10
155.8961210428531
 20
1941.808991933994
 30
0.0
 11
155.896121042853
 21
1616.808991933994
 31
0.0
  0
SOLID
  5
33D4
  8
DIMENSIONS
 62
     0
 10
156.7294543761864
 20
1941.808991933994
 30
0.0
 11
155.0627877095197
 21
1941.808991933994
 31
0.0
 12
155.8961210428531
 22
1946.808991933994
 32
0.0
 13
155.8961210428531
 23
1946.808991933994
 33
0.0
  0
SOLID
  5
33D5
  8
DIMENSIONS
 62
     0
 10
155.0627877095197
 20
1616.808991933994
 30
0.0
 11
156.7294543761864
 21
1616.808991933994
 31
0.0
 12
155.896121042853
 22
1611.808991933994
 32
0.0
 13
155.896121042853
 23
1611.808991933994
 33
0.0
  0
TEXT
  5
33D6
  8
DIMENSIONS
  6
CONTINUOUS
 62
     5
 10
153.5011210428529
 20
1761.928991933994
 30
0.0
 40
5.0
  1
335 [13.19]
 50
90.0
  0
POINT
  5
33D7
  8
DEFPOINTS
 62
     0
 10
195.7955725536369
 20
1946.808991933994
 30
0.0
  0
POINT
  5
33D8
  8
DEFPOINTS
 62
     0
 10
195.7955725536368
 20
1611.808991933994
 30
0.0
  0
POINT
  5
33D9
  8
DEFPOINTS
 62
     0
 10
155.896121042853
 20
1611.808991933994
 30
0.0
  0
ENDBLK
  5
33D0
  8
0
  0
BLOCK
  8
0
  2
*D570
 70
     1
 10
0.0
 20
0.0
 30
0.0
  3
*D570
  1

  0
LINE
  5
33E0
  8
DIMENSIONS
  6
BYBLOCK
 62
     0
 10
194.2955725536368
 20
1611.808991933994
 30
0.0
 11
155.716121042853
 21
1611.808991933994
 31
0.0
  0
LINE
  5
33E1
  8
DIMENSIONS
  6
BYBLOCK
 62
     0
 10
194.2955725536368
 20
1326.808991933994
 30
0.0
 11
155.716121042853
 21
1326.808991933994
 31
0.0
  0
LINE
  5
33E2
  8
DIMENSIONS
  6
BYBLOCK
 62
     0
 10
155.896121042853
 20
1606.808991933994
 30
0.0
 11
155.896121042853
 21
1331.808991933994
 31
0.0
  0
SOLID
  5
33E3
  8
DIMENSIONS
 62
     0
 10
156.7294543761864
 20
1606.808991933994
 30
0.0
 11
155.0627877095197
 21
1606.808991933994
 31
0.0
 12
155.896121042853
 22
1611.808991933994
 32
0.0
 13
155.896121042853
 23
1611.808991933994
 33
0.0
  0
SOLID
  5
33E4
  8
DIMENSIONS
 62
     0
 10
155.0627877095197
 20
1331.808991933994
 30
0.0
 11
156.7294543761863
 21
1331.808991933994
 31
0.0
 12
155.896121042853
 22
1326.808991933994
 32
0.0
 13
155.896121042853
 23
1326.808991933994
 33
0.0
  0
TEXT
  5
33E5
  8
DIMENSIONS
  6
CONTINUOUS
 62
     5
 10
153.5011210428527
 20
1451.973991933994
 30
0.0
 40
5.0
  1
285 [11.22]
 50
90.0
  0
POINT
  5
33E6
  8
DEFPOINTS
 62
     0
 10
195.7955725536368
 20
1611.808991933994
 30
0.0
  0
POINT
  5
33E7
  8
DEFPOINTS
 62
     0
 10
195.7955725536368
 20
1326.808991933994
 30
0.0
  0
POINT
  5
33E8
  8
DEFPOINTS
 62
     0
 10
155.896121042853
 20
1326.808991933994
 30
0.0
  0
ENDBLK
  5
33DF
  8
0
  0
BLOCK
  8
0
  2
*D571
 70
     1
 10
0.0
 20
0.0
 30
0.0
  3
*D571
  1

  0
LINE
  5
33EF
  8
DIMENSIONS
  6
BYBLOCK
 62
     0
 10
194.2955725536368
 20
1326.808991933994
 30
0.0
 11
155.716121042853
 21
1326.808991933994
 31
0.0
  0
LINE
  5
33F0
  8
DIMENSIONS
  6
BYBLOCK
 62
     0
 10
194.2955725536367
 20
956.8089919339943
 30
0.0
 11
155.716121042853
 21
956.8089919339943
 31
0.0
  0
LINE
  5
33F1
  8
DIMENSIONS
  6
BYBLOCK
 62
     0
 10
155.896121042853
 20
1321.808991933994
 30
0.0
 11
155.896121042853
 21
961.8089919339943
 31
0.0
  0
SOLID
  5
33F2
  8
DIMENSIONS
 62
     0
 10
156.7294543761863
 20
1321.808991933994
 30
0.0
 11
155.0627877095197
 21
1321.808991933994
 31
0.0
 12
155.896121042853
 22
1326.808991933994
 32
0.0
 13
155.896121042853
 23
1326.808991933994
 33
0.0
  0
SOLID
  5
33F3
  8
DIMENSIONS
 62
     0
 10
155.0627877095196
 20
961.8089919339943
 30
0.0
 11
156.7294543761863
 21
961.8089919339943
 31
0.0
 12
155.896121042853
 22
956.8089919339943
 32
0.0
 13
155.896121042853
 23
956.8089919339943
 33
0.0
  0
TEXT
  5
33F4
  8
DIMENSIONS
  6
CONTINUOUS
 62
     5
 10
153.5011210428527
 20
1124.428991933994
 30
0.0
 40
5.0
  1
370 [14.57]
 50
90.0
  0
POINT
  5
33F5
  8
DEFPOINTS
 62
     0
 10
195.7955725536368
 20
1326.808991933994
 30
0.0
  0
POINT
  5
33F6
  8
DEFPOINTS
 62
     0
 10
195.7955725536367
 20
956.8089919339943
 30
0.0
  0
POINT
  5
33F7
  8
DEFPOINTS
 62
     0
 10
155.896121042853
 20
956.8089919339943
 30
0.0
  0
ENDBLK
  5
33EE
  8
0
  0
BLOCK
  8
0
  2
*D572
 70
     1
 10
0.0
 20
0.0
 30
0.0
  3
*D572
  1

  0
LINE
  5
33FE
  8
DIMENSIONS
  6
BYBLOCK
 62
     0
 10
194.2955725536367
 20
956.8089919339943
 30
0.0
 11
155.716121042853
 21
956.8089919339943
 31
0.0
  0
LINE
  5
33FF
  8
DIMENSIONS
  6
BYBLOCK
 62
     0
 10
194.2955725536366
 20
596.8089919339943
 30
0.0
 11
155.7161210428529
 21
596.8089919339943
 31
0.0
  0
LINE
  5
3400
  8
DIMENSIONS
  6
BYBLOCK
 62
     0
 10
155.896121042853
 20
951.8089919339943
 30
0.0
 11
155.8961210428529
 21
601.8089919339943
 31
0.0
  0
SOLID
  5
3401
  8
DIMENSIONS
 62
     0
 10
156.7294543761863
 20
951.8089919339943
 30
0.0
 11
155.0627877095196
 21
951.8089919339943
 31
0.0
 12
155.896121042853
 22
956.8089919339943
 32
0.0
 13
155.896121042853
 23
956.8089919339943
 33
0.0
  0
SOLID
  5
3402
  8
DIMENSIONS
 62
     0
 10
155.0627877095196
 20
601.8089919339943
 30
0.0
 11
156.7294543761863
 21
601.8089919339943
 31
0.0
 12
155.8961210428529
 22
596.8089919339943
 32
0.0
 13
155.8961210428529
 23
596.8089919339943
 33
0.0
  0
TEXT
  5
3403
  8
DIMENSIONS
  6
CONTINUOUS
 62
     5
 10
153.501121042853
 20
759.4289919339943
 30
0.0
 40
5.0
  1
360 [14.17]
 50
90.0
  0
POINT
  5
3404
  8
DEFPOINTS
 62
     0
 10
195.7955725536367
 20
956.8089919339943
 30
0.0
  0
POINT
  5
3405
  8
DEFPOINTS
 62
     0
 10
195.7955725536366
 20
596.8089919339943
 30
0.0
  0
POINT
  5
3406
  8
DEFPOINTS
 62
     0
 10
155.8961210428529
 20
596.8089919339943
 30
0.0
  0
ENDBLK
  5
33FD
  8
0
  0
BLOCK
  8
0
  2
*D573
 70
     1
 10
0.0
 20
0.0
 30
0.0
  3
*D573
  1

  0
LINE
  5
340D
  8
DIMENSIONS
  6
BYBLOCK
 62
     0
 10
194.2955725536366
 20
596.8089919339943
 30
0.0
 11
155.7161210428529
 21
596.8089919339943
 31
0.0
  0
LINE
  5
340E
  8
DIMENSIONS
  6
BYBLOCK
 62
     0
 10
170.7955725536366
 20
421.8089919339943
 30
0.0
 11
155.7161210428529
 21
421.8089919339943
 31
0.0
  0
LINE
  5
340F
  8
DIMENSIONS
  6
BYBLOCK
 62
     0
 10
155.8961210428529
 20
591.8089919339943
 30
0.0
 11
155.8961210428529
 21
426.8089919339943
 31
0.0
  0
SOLID
  5
3410
  8
DIMENSIONS
 62
     0
 10
156.7294543761863
 20
591.8089919339943
 30
0.0
 11
155.0627877095196
 21
591.8089919339943
 31
0.0
 12
155.8961210428529
 22
596.8089919339943
 32
0.0
 13
155.8961210428529
 23
596.8089919339943
 33
0.0
  0
SOLID
  5
3411
  8
DIMENSIONS
 62
     0
 10
155.0627877095196
 20
426.8089919339943
 30
0.0
 11
156.7294543761863
 21
426.8089919339943
 31
0.0
 12
155.8961210428529
 22
421.8089919339943
 32
0.0
 13
155.8961210428529
 23
421.8089919339943
 33
0.0
  0
TEXT
  5
3412
  8
DIMENSIONS
  6
CONTINUOUS
 62
     5
 10
153.501121042853
 20
493.6364919339943
 30
0.0
 40
5.0
  1
175 [6.89]
 50
90.0
  0
POINT
  5
3413
  8
DEFPOINTS
 62
     0
 10
195.7955725536366
 20
596.8089919339943
 30
0.0
  0
POINT
  5
3414
  8
DEFPOINTS
 62
     0
 10
172.2955725536366
 20
421.8089919339943
 30
0.0
  0
POINT
  5
3415
  8
DEFPOINTS
 62
     0
 10
155.8961210428529
 20
421.8089919339943
 30
0.0
  0
ENDBLK
  5
340C
  8
0
  0
BLOCK
  8
0
  2
*D574
 70
     1
 10
0.0
 20
0.0
 30
0.0
  3
*D574
  1

  0
LINE
  5
341C
  8
DIMENSIONS
  6
BYBLOCK
 62
     0
 10
597.5455759672718
 20
596.801486937738
 30
0.0
 11
551.3205950939733
 21
596.7594362162897
 31
0.0
  0
TEXT
  5
341D
  8
DIMENSIONS
  6
CONTINUOUS
 62
     5
 10
552.0383432971792
 20
599.2350901736908
 30
0.0
 40
5.0
  1
Ø6.5 [Ø0.26]
 50
0.0521217781887805
  0
SOLID
  5
341E
  8
DIMENSIONS
 62
     0
 10
597.5463340477017
 20
595.9681539492163
 30
0.0
 11
597.5448178868419
 21
597.6348199262596
 31
0.0
 12
602.545573898402
 22
596.8060354203176
 32
0.0
 13
602.545573898402
 23
596.8060354203176
 33
0.0
  0
LINE
  5
341F
  8
DIMENSIONS
  6
BYBLOCK
 62
     0
 10
603.2955725536366
 20
596.8089919339943
 30
0.0
 11
608.2955725536366
 21
596.8089919339943
 31
0.0
  0
LINE
  5
3420
  8
DIMENSIONS
  6
BYBLOCK
 62
     0
 10
605.7955725536366
 20
594.3089919339943
 30
0.0
 11
605.7955725536366
 21
599.3089919339943
 31
0.0
  0
POINT
  5
3421
  8
DEFPOINTS
 62
     0
 10
602.545573898402
 20
596.8060354203176
 30
0.0
  0
POINT
  5
3422
  8
DEFPOINTS
 62
     0
 10
609.0455712088711
 20
596.811948447671
 30
0.0
  0
ENDBLK
  5
341B
  8
0
  0
BLOCK
  8
0
  2
*D575
 70
     1
 10
0.0
 20
0.0
 30
0.0
  3
*D575
  1

  0
LINE
  5
342C
  8
DIMENSIONS
  6
BYBLOCK
 62
     0
 10
630.7955725536369
 20
1971.808991933994
 30
0.0
 11
653.1347180276564
 21
1971.808991933994
 31
0.0
  0
LINE
  5
342D
  8
DIMENSIONS
  6
BYBLOCK
 62
     0
 10
590.7955725536368
 20
1921.808991933994
 30
0.0
 11
653.1347180276564
 21
1921.808991933994
 31
0.0
  0
LINE
  5
342E
  8
DIMENSIONS
  6
BYBLOCK
 62
     0
 10
652.9547180276564
 20
1966.808991933994
 30
0.0
 11
652.9547180276564
 21
1926.808991933994
 31
0.0
  0
SOLID
  5
342F
  8
DIMENSIONS
 62
     0
 10
653.7880513609898
 20
1966.808991933994
 30
0.0
 11
652.1213846943231
 21
1966.808991933994
 31
0.0
 12
652.9547180276564
 22
1971.808991933994
 32
0.0
 13
652.9547180276564
 23
1971.808991933994
 33
0.0
  0
SOLID
  5
3430
  8
DIMENSIONS
 62
     0
 10
652.1213846943231
 20
1926.808991933994
 30
0.0
 11
653.7880513609898
 21
1926.808991933994
 31
0.0
 12
652.9547180276564
 22
1921.808991933994
 32
0.0
 13
652.9547180276564
 23
1921.808991933994
 33
0.0
  0
TEXT
  5
3431
  8
DIMENSIONS
  6
CONTINUOUS
 62
     5
 10
650.5597180276561
 20
1933.311491933995
 30
0.0
 40
5.0
  1
50 [1.97]
 50
90.0
  0
POINT
  5
3432
  8
DEFPOINTS
 62
     0
 10
629.2955725536369
 20
1971.808991933994
 30
0.0
  0
POINT
  5
3433
  8
DEFPOINTS
 62
     0
 10
589.2955725536368
 20
1921.808991933994
 30
0.0
  0
POINT
  5
3434
  8
DEFPOINTS
 62
     0
 10
652.9547180276564
 20
1921.808991933994
 30
0.0
  0
ENDBLK
  5
342B
  8
0
  0
BLOCK
  8
0
  2
*D576
 70
     1
 10
0.0
 20
0.0
 30
0.0
  3
*D576
  1

  0
LINE
  5
343F
  8
DIMENSIONS
  6
BYBLOCK
 62
     0
 10
590.7955725536368
 20
1921.808991933994
 30
0.0
 11
653.1347180276564
 21
1921.808991933994
 31
0.0
  0
LINE
  5
3440
  8
DIMENSIONS
  6
BYBLOCK
 62
     0
 10
590.7955725536367
 20
1596.808991933994
 30
0.0
 11
653.1347180276564
 21
1596.808991933994
 31
0.0
  0
LINE
  5
3441
  8
DIMENSIONS
  6
BYBLOCK
 62
     0
 10
652.9547180276564
 20
1916.808991933994
 30
0.0
 11
652.9547180276564
 21
1601.808991933994
 31
0.0
  0
SOLID
  5
3442
  8
DIMENSIONS
 62
     0
 10
653.7880513609898
 20
1916.808991933994
 30
0.0
 11
652.1213846943231
 21
1916.808991933994
 31
0.0
 12
652.9547180276564
 22
1921.808991933994
 32
0.0
 13
652.9547180276564
 23
1921.808991933994
 33
0.0
  0
SOLID
  5
3443
  8
DIMENSIONS
 62
     0
 10
652.1213846943231
 20
1601.808991933994
 30
0.0
 11
653.7880513609898
 21
1601.808991933994
 31
0.0
 12
652.9547180276564
 22
1596.808991933994
 32
0.0
 13
652.9547180276564
 23
1596.808991933994
 33
0.0
  0
TEXT
  5
3444
  8
DIMENSIONS
  6
CONTINUOUS
 62
     5
 10
650.5597180276561
 20
1741.928991933994
 30
0.0
 40
5.0
  1
325 [12.80]
 50
90.0
  0
POINT
  5
3445
  8
DEFPOINTS
 62
     0
 10
589.2955725536368
 20
1921.808991933994
 30
0.0
  0
POINT
  5
3446
  8
DEFPOINTS
 62
     0
 10
589.2955725536367
 20
1596.808991933994
 30
0.0
  0
POINT
  5
3447
  8
DEFPOINTS
 62
     0
 10
652.9547180276564
 20
1596.808991933994
 30
0.0
  0
ENDBLK
  5
343E
  8
0
  0
BLOCK
  8
0
  2
*D577
 70
     1
 10
0.0
 20
0.0
 30
0.0
  3
*D577
  1

  0
LINE
  5
344E
  8
DIMENSIONS
  6
BYBLOCK
 62
     0
 10
590.7955725536367
 20
1596.808991933994
 30
0.0
 11
653.1347180276564
 21
1596.808991933994
 31
0.0
  0
LINE
  5
344F
  8
DIMENSIONS
  6
BYBLOCK
 62
     0
 10
590.7955725536367
 20
1291.808991933994
 30
0.0
 11
653.1347180276564
 21
1291.808991933994
 31
0.0
  0
LINE
  5
3450
  8
DIMENSIONS
  6
BYBLOCK
 62
     0
 10
652.9547180276564
 20
1591.808991933994
 30
0.0
 11
652.9547180276564
 21
1296.808991933994
 31
0.0
  0
SOLID
  5
3451
  8
DIMENSIONS
 62
     0
 10
653.7880513609898
 20
1591.808991933994
 30
0.0
 11
652.1213846943231
 21
1591.808991933994
 31
0.0
 12
652.9547180276564
 22
1596.808991933994
 32
0.0
 13
652.9547180276564
 23
1596.808991933994
 33
0.0
  0
SOLID
  5
3452
  8
DIMENSIONS
 62
     0
 10
652.1213846943231
 20
1296.808991933994
 30
0.0
 11
653.7880513609898
 21
1296.808991933994
 31
0.0
 12
652.9547180276564
 22
1291.808991933994
 32
0.0
 13
652.9547180276564
 23
1291.808991933994
 33
0.0
  0
TEXT
  5
3453
  8
DIMENSIONS
  6
CONTINUOUS
 62
     5
 10
650.5597180276563
 20
1426.928991933994
 30
0.0
 40
5.0
  1
305 [12.01]
 50
90.0
  0
POINT
  5
3454
  8
DEFPOINTS
 62
     0
 10
589.2955725536367
 20
1596.808991933994
 30
0.0
  0
POINT
  5
3455
  8
DEFPOINTS
 62
     0
 10
589.2955725536367
 20
1291.808991933994
 30
0.0
  0
POINT
  5
3456
  8
DEFPOINTS
 62
     0
 10
652.9547180276564
 20
1291.808991933994
 30
0.0
  0
ENDBLK
  5
344D
  8
0
  0
BLOCK
  8
0
  2
*D578
 70
     1
 10
0.0
 20
0.0
 30
0.0
  3
*D578
  1

  0
LINE
  5
345D
  8
DIMENSIONS
  6
BYBLOCK
 62
     0
 10
590.7955725536367
 20
1291.808991933994
 30
0.0
 11
653.1347180276564
 21
1291.808991933994
 31
0.0
  0
LINE
  5
345E
  8
DIMENSIONS
  6
BYBLOCK
 62
     0
 10
590.7955725536367
 20
956.8089919339943
 30
0.0
 11
653.1347180276564
 21
956.8089919339943
 31
0.0
  0
LINE
  5
345F
  8
DIMENSIONS
  6
BYBLOCK
 62
     0
 10
652.9547180276564
 20
1286.808991933994
 30
0.0
 11
652.9547180276564
 21
961.8089919339943
 31
0.0
  0
SOLID
  5
3460
  8
DIMENSIONS
 62
     0
 10
653.7880513609898
 20
1286.808991933994
 30
0.0
 11
652.1213846943231
 21
1286.808991933994
 31
0.0
 12
652.9547180276564
 22
1291.808991933994
 32
0.0
 13
652.9547180276564
 23
1291.808991933994
 33
0.0
  0
SOLID
  5
3461
  8
DIMENSIONS
 62
     0
 10
652.1213846943231
 20
961.8089919339943
 30
0.0
 11
653.7880513609898
 21
961.8089919339943
 31
0.0
 12
652.9547180276564
 22
956.8089919339943
 32
0.0
 13
652.9547180276564
 23
956.8089919339943
 33
0.0
  0
TEXT
  5
3462
  8
DIMENSIONS
  6
CONTINUOUS
 62
     5
 10
650.5597180276563
 20
1106.928991933994
 30
0.0
 40
5.0
  1
335 [13.19]
 50
90.0
  0
POINT
  5
3463
  8
DEFPOINTS
 62
     0
 10
589.2955725536367
 20
1291.808991933994
 30
0.0
  0
POINT
  5
3464
  8
DEFPOINTS
 62
     0
 10
589.2955725536367
 20
956.8089919339943
 30
0.0
  0
POINT
  5
3465
  8
DEFPOINTS
 62
     0
 10
652.9547180276564
 20
956.8089919339943
 30
0.0
  0
ENDBLK
  5
345C
  8
0
  0
BLOCK
  8
0
  2
*D579
 70
     1
 10
0.0
 20
0.0
 30
0.0
  3
*D579
  1

  0
LINE
  5
346C
  8
DIMENSIONS
  6
BYBLOCK
 62
     0
 10
590.7955725536367
 20
956.8089919339943
 30
0.0
 11
653.1347180276564
 21
956.8089919339943
 31
0.0
  0
LINE
  5
346D
  8
DIMENSIONS
  6
BYBLOCK
 62
     0
 10
630.7955725536366
 20
421.8089919339943
 30
0.0
 11
653.1347180276564
 21
421.8089919339943
 31
0.0
  0
LINE
  5
346E
  8
DIMENSIONS
  6
BYBLOCK
 62
     0
 10
652.9547180276564
 20
951.8089919339943
 30
0.0
 11
652.9547180276564
 21
426.8089919339943
 31
0.0
  0
SOLID
  5
346F
  8
DIMENSIONS
 62
     0
 10
653.7880513609898
 20
951.8089919339943
 30
0.0
 11
652.1213846943231
 21
951.8089919339943
 31
0.0
 12
652.9547180276564
 22
956.8089919339943
 32
0.0
 13
652.9547180276564
 23
956.8089919339943
 33
0.0
  0
SOLID
  5
3470
  8
DIMENSIONS
 62
     0
 10
652.1213846943231
 20
426.8089919339943
 30
0.0
 11
653.7880513609898
 21
426.8089919339943
 31
0.0
 12
652.9547180276564
 22
421.8089919339943
 32
0.0
 13
652.9547180276564
 23
421.8089919339943
 33
0.0
  0
TEXT
  5
3471
  8
DIMENSIONS
  6
CONTINUOUS
 62
     5
 10
650.5597180276565
 20
671.9314919339944
 30
0.0
 40
5.0
  1
535 [21.06]
 50
90.0
  0
POINT
  5
3472
  8
DEFPOINTS
 62
     0
 10
589.2955725536367
 20
956.8089919339943
 30
0.0
  0
POINT
  5
3473
  8
DEFPOINTS
 62
     0
 10
629.2955725536366
 20
421.8089919339943
 30
0.0
  0
POINT
  5
3474
  8
DEFPOINTS
 62
     0
 10
652.9547180276564
 20
421.8089919339943
 30
0.0
  0
ENDBLK
  5
346B
  8
0
  0
BLOCK
  8
0
  2
*D580
 70
     1
 10
0.0
 20
0.0
 30
0.0
  3
*D580
  1

  0
LINE
  5
347B
  8
DIMENSIONS
  6
BYBLOCK
 62
     0
 10
170.7955725536369
 20
1971.808991933994
 30
0.0
 11
126.0754202329197
 21
1971.808991933994
 31
0.0
  0
LINE
  5
347C
  8
DIMENSIONS
  6
BYBLOCK
 62
     0
 10
170.7955725536366
 20
421.8089919339943
 30
0.0
 11
126.0754202329196
 21
421.8089919339943
 31
0.0
  0
LINE
  5
347D
  8
DIMENSIONS
  6
BYBLOCK
 62
     0
 10
126.2554202329197
 20
1966.808991933994
 30
0.0
 11
126.2554202329196
 21
426.8089919339943
 31
0.0
  0
SOLID
  5
347E
  8
DIMENSIONS
 62
     0
 10
127.0887535662531
 20
1966.808991933994
 30
0.0
 11
125.4220868995864
 21
1966.808991933994
 31
0.0
 12
126.2554202329197
 22
1971.808991933994
 32
0.0
 13
126.2554202329197
 23
1971.808991933994
 33
0.0
  0
SOLID
  5
347F
  8
DIMENSIONS
 62
     0
 10
125.4220868995863
 20
426.8089919339943
 30
0.0
 11
127.088753566253
 21
426.8089919339943
 31
0.0
 12
126.2554202329196
 22
421.8089919339943
 32
0.0
 13
126.2554202329196
 23
421.8089919339943
 33
0.0
  0
TEXT
  5
3480
  8
DIMENSIONS
  6
CONTINUOUS
 62
     5
 10
123.8604202329195
 20
1177.256491933994
 30
0.0
 40
5.0
  1
1550 [61.02]
 50
90.0
  0
POINT
  5
3481
  8
DEFPOINTS
 62
     0
 10
172.2955725536369
 20
1971.808991933994
 30
0.0
  0
POINT
  5
3482
  8
DEFPOINTS
 62
     0
 10
172.2955725536366
 20
421.8089919339943
 30
0.0
  0
POINT
  5
3483
  8
DEFPOINTS
 62
     0
 10
126.2554202329196
 20
421.8089919339943
 30
0.0
  0
ENDBLK
  5
347A
  8
0
  0
ENDSEC
  0
SECTION
  2
ENTITIES
  0
TEXT
  5
25BF
  8
DIMENSIONS
  6
BYBLOCK
 10
177.0453220085568
 20
400.943812311563
 30
0.0
 40
5.0
  1
Note:
  0
TEXT
  5
25C0
  8
DIMENSIONS
  6
BYBLOCK
 10
177.1792480488423
 20
390.4148444635699
 30
0.0
 40
5.0
  1
Primary dimensions in millimeters.
  0
TEXT
  5
25C1
  8
DIMENSIONS
  6
BYBLOCK
 10
177.4006619852323
 20
379.8428188547859
 30
0.0
 40
5.0
  1
Secondary dimensions in inches.
  0
LINE
  5
3378
  8
0
  6
CONTINUOUS
 10
172.2955725536369
 20
1971.808991933994
 30
0.0
 11
629.2955725536369
 21
1971.808991933994
 31
0.0
  0
LINE
  5
3379
  8
0
  6
CONTINUOUS
 10
212.2955725536369
 20
1921.808991933994
 30
0.0
 11
589.2955725536368
 21
1921.808991933994
 31
0.0
  0
LINE
  5
337A
  8
0
  6
CONTINUOUS
 10
589.2955725536367
 20
1596.808991933994
 30
0.0
 11
212.2955725536368
 21
1596.808991933994
 31
0.0
  0
LINE
  5
337B
  8
0
  6
CONTINUOUS
 10
172.2955725536366
 20
421.8089919339943
 30
0.0
 11
172.2955725536369
 21
1971.808991933994
 31
0.0
  0
LINE
  5
337C
  8
0
  6
CONTINUOUS
 10
212.2955725536367
 20
956.8089919339943
 30
0.0
 11
212.2955725536368
 21
1291.808991933994
 31
0.0
  0
LINE
  5
337D
  8
0
  6
CONTINUOUS
 10
212.2955725536368
 20
1596.808991933994
 30
0.0
 11
212.2955725536369
 21
1921.808991933994
 31
0.0
  0
LINE
  5
337E
  8
0
  6
CONTINUOUS
 10
212.2955725536368
 20
1291.808991933994
 30
0.0
 11
589.2955725536367
 21
1291.808991933994
 31
0.0
  0
LINE
  5
337F
  8
0
  6
CONTINUOUS
 10
589.2955725536368
 20
1921.808991933994
 30
0.0
 11
589.2955725536367
 21
1596.808991933994
 31
0.0
  0
LINE
  5
3380
  8
0
  6
CONTINUOUS
 10
589.2955725536367
 20
1291.808991933994
 30
0.0
 11
589.2955725536367
 21
956.8089919339943
 31
0.0
  0
LINE
  5
3381
  8
0
  6
CONTINUOUS
 10
589.2955725536367
 20
956.8089919339943
 30
0.0
 11
212.2955725536367
 21
956.8089919339943
 31
0.0
  0
LINE
  5
3382
  8
0
  6
CONTINUOUS
 10
629.2955725536369
 20
1971.808991933994
 30
0.0
 11
629.2955725536366
 21
421.8089919339943
 31
0.0
  0
LINE
  5
3383
  8
0
  6
CONTINUOUS
 10
629.2955725536366
 20
421.8089919339943
 30
0.0
 11
172.2955725536366
 21
421.8089919339943
 31
0.0
  0
CIRCLE
  5
3384
  8
0
  6
CONTINUOUS
 10
605.7955725536368
 20
1946.808991933994
 30
0.0
 40
3.25
  0
CIRCLE
  5
3385
  8
0
  6
CONTINUOUS
 10
195.7955725536369
 20
1946.808991933994
 30
0.0
 40
3.25
  0
CIRCLE
  5
3386
  8
0
  6
CONTINUOUS
 10
605.7955725536367
 20
1611.808991933994
 30
0.0
 40
3.25
  0
CIRCLE
  5
3387
  8
0
  6
CONTINUOUS
 10
195.7955725536368
 20
1611.808991933994
 30
0.0
 40
3.25
  0
CIRCLE
  5
3388
  8
0
  6
CONTINUOUS
 10
605.7955725536367
 20
1326.808991933994
 30
0.0
 40
3.25
  0
CIRCLE
  5
3389
  8
0
  6
CONTINUOUS
 10
195.7955725536368
 20
1326.808991933994
 30
0.0
 40
3.25
  0
CIRCLE
  5
338A
  8
0
  6
CONTINUOUS
 10
605.7955725536367
 20
956.8089919339943
 30
0.0
 40
3.25
  0
CIRCLE
  5
338B
  8
0
  6
CONTINUOUS
 10
195.7955725536367
 20
956.8089919339943
 30
0.0
 40
3.25
  0
CIRCLE
  5
338C
  8
0
  6
CONTINUOUS
 10
605.7955725536366
 20
596.8089919339943
 30
0.0
 40
3.25
  0
CIRCLE
  5
338D
  8
0
  6
CONTINUOUS
 10
195.7955725536366
 20
596.8089919339943
 30
0.0
 40
3.25
  0
CIRCLE
  5
338E
  8
0
  6
CONTINUOUS
 10
400.7955725536368
 20
1946.808991933994
 30
0.0
 40
3.25
  0
DIMENSION
  5
338F
  8
DIMENSIONS
  6
BYBLOCK
  2
*D565
 10
589.2955725536368
 20
1987.677777929914
 30
0.0
 11
400.7955725536368
 21
1991.880277929914
 31
0.0
 70
    32
  3
DUAL-DIM
 13
212.2955725536369
 23
1921.808991933994
 33
0.0
 14
589.2955725536368
 24
1921.808991933994
 34
0.0
1001
ACAD
1000
DSTYLE
1002
{
1070
   287
1070
     5
1070
   279
1070
     2
1002
}
  0
DIMENSION
  5
339E
  8
DIMENSIONS
  6
BYBLOCK
  2
*D566
 10
195.7955725536369
 20
2003.927640959621
 30
0.0
 11
400.7955725536368
 21
2008.130140959621
 31
0.0
 70
    32
  3
DUAL-DIM
 13
605.7955725536368
 23
1946.808991933994
 33
0.0
 14
195.7955725536369
 24
1946.808991933994
 34
0.0
1001
ACAD
1000
DSTYLE
1002
{
1070
   287
1070
     5
1070
   279
1070
     2
1002
}
  0
DIMENSION
  5
33AD
  8
DIMENSIONS
  6
BYBLOCK
  2
*D567
 10
629.2955725536369
 20
2019.318072808824
 30
0.0
 11
400.7955725536369
 21
2023.520572808824
 31
0.0
 70
    32
  3
DUAL-DIM
 13
172.2955725536369
 23
1971.808991933994
 33
0.0
 14
629.2955725536369
 24
1971.808991933994
 34
0.0
1001
ACAD
1000
DSTYLE
1002
{
1070
   287
1070
     5
1070
   279
1070
     2
1002
}
  0
DIMENSION
  5
33BC
  8
DIMENSIONS
  6
BYBLOCK
  2
*D568
 10
140.964241587395
 20
1946.808991933994
 30
0.0
 11
140.964241587395
 21
1927.558991933994
 31
0.0
 70
   160
  3
DUAL-DIM
 13
172.2955725536369
 23
1971.808991933994
 33
0.0
 14
195.7955725536369
 24
1946.808991933994
 34
0.0
 50
90.0
1001
ACAD
1000
DSTYLE
1002
{
1070
   287
1070
     3
1070
   279
1070
     0
1002
}
  0
DIMENSION
  5
33CB
  8
DIMENSIONS
  6
BYBLOCK
  2
*D569
 10
155.896121042853
 20
1611.808991933994
 30
0.0
 11
151.693621042853
 21
1779.308991933994
 31
0.0
 70
    32
  3
DUAL-DIM
 13
195.7955725536369
 23
1946.808991933994
 33
0.0
 14
195.7955725536368
 24
1611.808991933994
 34
0.0
 50
90.0
1001
ACAD
1000
DSTYLE
1002
{
1070
   287
1070
     5
1070
   279
1070
     2
1002
}
  0
DIMENSION
  5
33DA
  8
DIMENSIONS
  6
BYBLOCK
  2
*D570
 10
155.896121042853
 20
1326.808991933994
 30
0.0
 11
151.6936210428529
 21
1469.308991933994
 31
0.0
 70
    32
  3
DUAL-DIM
 13
195.7955725536368
 23
1611.808991933994
 33
0.0
 14
195.7955725536368
 24
1326.808991933994
 34
0.0
 50
90.0
1001
ACAD
1000
DSTYLE
1002
{
1070
   287
1070
     5
1070
   279
1070
     2
1002
}
  0
DIMENSION
  5
33E9
  8
DIMENSIONS
  6
BYBLOCK
  2
*D571
 10
155.896121042853
 20
956.8089919339943
 30
0.0
 11
151.6936210428529
 21
1141.808991933994
 31
0.0
 70
    32
  3
DUAL-DIM
 13
195.7955725536368
 23
1326.808991933994
 33
0.0
 14
195.7955725536367
 24
956.8089919339943
 34
0.0
 50
90.0
1001
ACAD
1000
DSTYLE
1002
{
1070
   287
1070
     5
1070
   279
1070
     2
1002
}
  0
DIMENSION
  5
33F8
  8
DIMENSIONS
  6
BYBLOCK
  2
*D572
 10
155.8961210428529
 20
596.8089919339943
 30
0.0
 11
151.693621042853
 21
776.8089919339943
 31
0.0
 70
    32
  3
DUAL-DIM
 13
195.7955725536367
 23
956.8089919339943
 33
0.0
 14
195.7955725536366
 24
596.8089919339943
 34
0.0
 50
90.0
1001
ACAD
1000
DSTYLE
1002
{
1070
   287
1070
     5
1070
   279
1070
     2
1002
}
  0
DIMENSION
  5
3407
  8
DIMENSIONS
  6
BYBLOCK
  2
*D573
 10
155.8961210428529
 20
421.8089919339943
 30
0.0
 11
151.693621042853
 21
509.3089919339943
 31
0.0
 70
    32
  3
DUAL-DIM
 13
195.7955725536366
 23
596.8089919339943
 33
0.0
 14
172.2955725536366
 24
421.8089919339943
 34
0.0
 50
90.0
1001
ACAD
1000
DSTYLE
1002
{
1070
   287
1070
     5
1070
   279
1070
     2
1002
}
  0
DIMENSION
  5
3416
  8
DIMENSIONS
  6
BYBLOCK
  2
*D574
 10
609.0455712088711
 20
596.811948447671
 30
0.0
 11
571.9330865650575
 21
596.778187335724
 31
0.0
 70
   163
  1
<>
  3
DUAL-DIM
 15
602.545573898402
 25
596.8060354203176
 35
0.0
 40
0.0
1001
ACAD
1000
DSTYLE
1002
{
1070
   287
1070
     3
1070
   279
1070
     0
1002
}
1001
ACAD_DSTYLE_DIMRADIAL_EXT0
1070
   387
1070
     1
1070
   388
1040
0.0
1070
   390
1040
6.283185307179586
  0
DIMENSION
  5
3426
  8
DIMENSIONS
  6
BYBLOCK
  2
*D575
 10
652.9547180276564
 20
1921.808991933994
 30
0.0
 11
648.7522180276563
 21
1946.808991933994
 31
0.0
 70
    32
  3
DUAL-DIM
 13
629.2955725536369
 23
1971.808991933994
 33
0.0
 14
589.2955725536368
 24
1921.808991933994
 34
0.0
 50
90.0
1001
ACAD
1000
DSTYLE
1002
{
1070
   287
1070
     5
1070
   279
1070
     2
1002
}
  0
DIMENSION
  5
3439
  8
DIMENSIONS
  6
BYBLOCK
  2
*D576
 10
652.9547180276564
 20
1596.808991933994
 30
0.0
 11
648.7522180276563
 21
1759.308991933994
 31
0.0
 70
    32
  3
DUAL-DIM
 13
589.2955725536368
 23
1921.808991933994
 33
0.0
 14
589.2955725536367
 24
1596.808991933994
 34
0.0
 50
90.0
1001
ACAD
1000
DSTYLE
1002
{
1070
   287
1070
     5
1070
   279
1070
     2
1002
}
  0
DIMENSION
  5
3448
  8
DIMENSIONS
  6
BYBLOCK
  2
*D577
 10
652.9547180276564
 20
1291.808991933994
 30
0.0
 11
648.7522180276563
 21
1444.308991933994
 31
0.0
 70
    32
  3
DUAL-DIM
 13
589.2955725536367
 23
1596.808991933994
 33
0.0
 14
589.2955725536367
 24
1291.808991933994
 34
0.0
 50
90.0
1001
ACAD
1000
DSTYLE
1002
{
1070
   287
1070
     5
1070
   279
1070
     2
1002
}
  0
DIMENSION
  5
3457
  8
DIMENSIONS
  6
BYBLOCK
  2
*D578
 10
652.9547180276564
 20
956.8089919339943
 30
0.0
 11
648.7522180276563
 21
1124.308991933994
 31
0.0
 70
    32
  3
DUAL-DIM
 13
589.2955725536367
 23
1291.808991933994
 33
0.0
 14
589.2955725536367
 24
956.8089919339943
 34
0.0
 50
90.0
1001
ACAD
1000
DSTYLE
1002
{
1070
   287
1070
     5
1070
   279
1070
     2
1002
}
  0
DIMENSION
  5
3466
  8
DIMENSIONS
  6
BYBLOCK
  2
*D579
 10
652.9547180276564
 20
421.8089919339943
 30
0.0
 11
648.7522180276565
 21
689.3089919339943
 31
0.0
 70
    32
  3
DUAL-DIM
 13
589.2955725536367
 23
956.8089919339943
 33
0.0
 14
629.2955725536366
 24
421.8089919339943
 34
0.0
 50
90.0
1001
ACAD
1000
DSTYLE
1002
{
1070
   287
1070
     5
1070
   279
1070
     2
1002
}
  0
DIMENSION
  5
3475
  8
DIMENSIONS
  6
BYBLOCK
  2
*D580
 10
126.2554202329196
 20
421.8089919339943
 30
0.0
 11
122.0529202329196
 21
1196.808991933994
 31
0.0
 70
    32
  3
DUAL-DIM
 13
172.2955725536369
 23
1971.808991933994
 33
0.0
 14
172.2955725536366
 24
421.8089919339943
 34
0.0
 50
90.0
1001
ACAD
1000
DSTYLE
1002
{
1070
   287
1070
     5
1070
   279
1070
     2
1002
}
  0
POLYLINE
  5
3484
  8
0
  6
BYBLOCK
 66
     1
 10
0.0
 20
0.0
 30
0.0
 70
     1
  0
VERTEX
  5
3485
  8
0
  6
BYBLOCK
 10
78.83395448027716
 20
365.1514638056788
 30
0.0
  0
VERTEX
  5
3486
  8
0
  6
BYBLOCK
 10
78.83395448027716
 20
2068.547843875016
 30
0.0
  0
VERTEX
  5
3487
  8
0
  6
BYBLOCK
 10
705.2138505229333
 20
2068.547843875016
 30
0.0
  0
VERTEX
  5
3488
  8
0
  6
BYBLOCK
 10
705.2138505229333
 20
365.1514638056788
 30
0.0
  0
SEQEND
  5
3489
  8
0
  6
BYBLOCK
  0
VIEWPORT
  5
B1C
 67
     1
  8
0
 10
5.25
 20
3.5
 30
0.0
 40
12.6
 41
8.4
 68
     1
 69
     1
1001
ACAD
1000
MVIEW
1002
{
1070
    16
1010
0.0
1020
0.0
1030
0.0
1010
0.0
1020
0.0
1030
1.0
1040
0.0
1040
8.4
1040
5.25
1040
3.5
1040
50.0
1040
0.0
1040
0.0
1070
     0
1070
   100
1070
     0
1070
     3
1070
     0
1070
     0
1070
     0
1070
     0
1040
0.0
1040
0.0
1040
0.0
1040
0.5
1040
0.5
1040
0.0
1040
0.0
1070
     0
1002
{
1002
}
1002
}
  0
VIEWPORT
  5
B1D
 67
     1
  8
0
 10
5.25
 20
3.5
 30
0.0
 40
8.4
 41
5.600000000000001
 68
     2
 69
     2
1001
ACAD
1000
MVIEW
1002
{
1070
    16
1010
0.0
1020
0.0
1030
0.0
1010
0.0
1020
0.0
1030
1.0
1040
0.0
1040
278.6419840998563
1040
207.1268606538857
1040
36.27547653054833
1040
50.0
1040
0.0
1040
0.0
1070
     0
1070
   100
1070
     0
1070
     3
1070
     0
1070
     0
1070
     0
1070
     0
1040
0.0
1040
0.0
1040
0.0
1040
0.5
1040
0.5
1040
0.0
1040
0.0
1070
     0
1002
{
1002
}
1002
}
  0
ENDSEC
  0
EOF
