999
DXF file: 48053.dxf
999
Pro/ENGINEER 2018500 by Parametric Technology Corporation
  0
SECTION
  2
HEADER
  9
$ACADVER
  1
AC1032
  9
$DWGCODEPAGE
  3
ANSI_1252
  9
$EXTMAX
 10
297.0
 20
420.0
 30
0.0
  9
$EXTMIN
 10
0.0
 20
0.0
 30
0.0
  9
$LIMMIN
 10
0.0
 20
0.0
  9
$LIMMAX
 10
297.0
 20
420.0
  9
$VIEWCTR
 10
148.5
 20
210.0
  9
$VIEWSIZE
 40
420.0
  9
$CLAYER
  8
0
  9
$LTSCALE
 40
27.3777777778
  9
$CELTYPE
  6
BYLAYER
  9
$DIMSCALE
 40
1.0
  9
$DIMASZ
 40
2.5
  9
$DIMEXO
 40
0.0625
  9
$DIMDLI
 40
18.9155555556
  9
$DIMEXE
 40
1.0
  9
$DIMCEN
 40
4.48
  9
$DIMLFAC
 40
1.0
  9
$DIMBLK
  1
_FILLED
  9
$DIMALT
 70
1
  9
$DIMALTD
 70
1
  9
$DIMALTTD
 70
2
  9
$DIMALTF
 40
0.0393700787
  9
$DIMTXT
 40
3.5
  9
$DIMTOL
 70
0
  9
$DIMLIM
 70
0
  9
$DIMTFAC
 40
1.0
  9
$DIMGAP
 40
0.625
  9
$DIMDSEP
 70
46
  9
$AUNITS
 70
0
  9
$PDMODE
 70
3
  9
$PDSIZE
 40
0.3125
  9
$HANDSEED
  5
4BE
  9
$TILEMODE
 70
1
  9
$MEASUREMENT
 70
1
  9
$INSUNITS
 70
4
  0
ENDSEC
  0
SECTION
  2
CLASSES
  0
CLASS
  1
ACDBDICTIONARYWDFLT
  2
AcDbDictionaryWithDefault
  3
AutoCAD 2000
 90
0
 91
1
280
0
281
0
  0
CLASS
  1
ACDBPLACEHOLDER
  2
AcDbPlaceHolder
  3
AutoCAD 2000
 90
0
 91
1
280
0
281
0
  0
CLASS
  1
LAYOUT
  2
AcDbLayout
  3
AutoCAD 2000
 90
0
 91
0
280
0
281
0
  0
ENDSEC
  0
SECTION
  2
TABLES
  0
TABLE
  2
VPORT
  5
8
100
AcDbSymbolTable
 70
2
  0
VPORT
  5
1F4
100
AcDbSymbolTableRecord
100
AcDbViewportTableRecord
  2
*ACTIVE
 70
0
 10
0.0
 20
0.0
 11
1.0
 21
1.0
 12
148.5
 22
210.0
 13
0.0
 23
0.0
 14
1.0
 24
1.0
 15
0.0
 25
0.0
 16
0.0
 26
0.0
 36
1.0
 17
0.0
 27
0.0
 37
0.0
 40
420.0
 41
0.7071428571
 42
50.0
 43
0.0
 44
0.0
 50
0.0
 51
0.0
 71
0
 72
100
 73
1
 74
1
 75
0
 76
0
 77
0
 78
0
  0
ENDTAB
  0
TABLE
  2
LTYPE
  5
5
100
AcDbSymbolTable
 70
6
  0
LTYPE
  5
14
100
AcDbSymbolTableRecord
100
AcDbLinetypeTableRecord
  2
BYBLOCK
 70
0
  3

 72
65
 73
0
 40
0.0
  0
LTYPE
  5
15
100
AcDbSymbolTableRecord
100
AcDbLinetypeTableRecord
  2
BYLAYER
 70
0
  3

 72
65
 73
0
 40
0.0
  0
LTYPE
  5
16
100
AcDbSymbolTableRecord
100
AcDbLinetypeTableRecord
  2
CONTINUOUS
 70
64
  3
Solid line
 72
65
 73
0
 40
0.0
  0
LTYPE
  5
1F5
100
AcDbSymbolTableRecord
100
AcDbLinetypeTableRecord
  2
CENTER
 70
64
  3
____ _ ____ _ ____ _ ____ _ ____ _ ____ _ ____
 72
65
 73
4
 40
0.6
 49
0.375
 74
0
 49
-0.075
 74
0
 49
0.075
 74
0
 49
-0.075
 74
0
  0
LTYPE
  5
1F6
100
AcDbSymbolTableRecord
100
AcDbLinetypeTableRecord
  2
HIDDEN
 70
64
  3
- - - - - - - - - - - - - - - - - - - -
 72
65
 73
2
 40
0.2
 49
0.1
 74
0
 49
-0.1
 74
0
  0
LTYPE
  5
1F7
100
AcDbSymbolTableRecord
100
AcDbLinetypeTableRecord
  2
PHANTOM
 70
64
  3
_____ _ _ _____ _ _ _____ _ _ _____
 72
65
 73
6
 40
0.8
 49
0.45
 74
0
 49
-0.05
 74
0
 49
0.1
 74
0
 49
-0.05
 74
0
 49
0.1
 74
0
 49
-0.05
 74
0
  0
LTYPE
  5
1F8
100
AcDbSymbolTableRecord
100
AcDbLinetypeTableRecord
  2
DOT
 70
64
  3
. . . . . . . . . . . . . . . . . . . .
 72
65
 73
2
 40
0.2
 49
0.1
 74
0
 49
-0.1
 74
0
  0
LTYPE
  5
1F9
100
AcDbSymbolTableRecord
100
AcDbLinetypeTableRecord
  2
DASHED
 70
64
  3
- - - - - - - - - - - - - - - - - - - -
 72
65
 73
2
 40
0.2
 49
0.1
 74
0
 49
-0.1
 74
0
  0
ENDTAB
  0
TABLE
  2
LAYER
  5
2
100
AcDbSymbolTable
 70
36
  0
LAYER
  5
10
100
AcDbSymbolTableRecord
100
AcDbLayerTableRecord
  2
0
 70
0
 62
7
  6
CONTINUOUS
370
-3
390
F
  0
LAYER
  5
1FA
100
AcDbSymbolTableRecord
100
AcDbLayerTableRecord
  2
DEFAULT_1
 70
0
 62
7
  6
CENTER
370
-3
390
F
  0
LAYER
  5
1FB
100
AcDbSymbolTableRecord
100
AcDbLayerTableRecord
  2
DEFAULT_2
 70
0
 62
8
  6
HIDDEN
370
-3
390
F
  0
LAYER
  5
1FC
100
AcDbSymbolTableRecord
100
AcDbLayerTableRecord
  2
DEFAULT_3
 70
0
 62
7
  6
PHANTOM
370
-3
390
F
  0
LAYER
  5
1FD
100
AcDbSymbolTableRecord
100
AcDbLayerTableRecord
  2
01_ALL_DTM_PLN
 70
0
 62
7
  6
CONTINUOUS
370
-3
390
F
  0
LAYER
  5
1FE
100
AcDbSymbolTableRecord
100
AcDbLayerTableRecord
  2
01__ASM_ALL_DTM_PLN
 70
0
 62
7
  6
CONTINUOUS
370
-3
390
F
  0
LAYER
  5
1FF
100
AcDbSymbolTableRecord
100
AcDbLayerTableRecord
  2
01__ASM_DEF_DTM_PLN
 70
0
 62
7
  6
CONTINUOUS
370
-3
390
F
  0
LAYER
  5
200
100
AcDbSymbolTableRecord
100
AcDbLayerTableRecord
  2
01___PRT_ALL_DTM_PLN
 70
0
 62
7
  6
CONTINUOUS
370
-3
390
F
  0
LAYER
  5
201
100
AcDbSymbolTableRecord
100
AcDbLayerTableRecord
  2
01___PRT_DEF_DTM_PLN
 70
0
 62
7
  6
CONTINUOUS
370
-3
390
F
  0
LAYER
  5
202
100
AcDbSymbolTableRecord
100
AcDbLayerTableRecord
  2
02_ALL_AXES
 70
0
 62
7
  6
CONTINUOUS
370
-3
390
F
  0
LAYER
  5
203
100
AcDbSymbolTableRecord
100
AcDbLayerTableRecord
  2
02__ASM_ALL_AXES
 70
0
 62
7
  6
CONTINUOUS
370
-3
390
F
  0
LAYER
  5
204
100
AcDbSymbolTableRecord
100
AcDbLayerTableRecord
  2
02___PRT_ALL_AXES
 70
0
 62
7
  6
CONTINUOUS
370
-3
390
F
  0
LAYER
  5
205
100
AcDbSymbolTableRecord
100
AcDbLayerTableRecord
  2
03_ALL_CURVES
 70
0
 62
7
  6
CONTINUOUS
370
-3
390
F
  0
LAYER
  5
206
100
AcDbSymbolTableRecord
100
AcDbLayerTableRecord
  2
03__ASM_ALL_CURVES
 70
0
 62
7
  6
CONTINUOUS
370
-3
390
F
  0
LAYER
  5
207
100
AcDbSymbolTableRecord
100
AcDbLayerTableRecord
  2
03___PRT_ALL_CURVES
 70
0
 62
7
  6
CONTINUOUS
370
-3
390
F
  0
LAYER
  5
208
100
AcDbSymbolTableRecord
100
AcDbLayerTableRecord
  2
04_ALL_DTM_PNT
 70
0
 62
7
  6
CONTINUOUS
370
-3
390
F
  0
LAYER
  5
209
100
AcDbSymbolTableRecord
100
AcDbLayerTableRecord
  2
04__ASM_ALL_DTM_PNT
 70
0
 62
7
  6
CONTINUOUS
370
-3
390
F
  0
LAYER
  5
20A
100
AcDbSymbolTableRecord
100
AcDbLayerTableRecord
  2
04___PRT_ALL_DTM_PNT
 70
0
 62
7
  6
CONTINUOUS
370
-3
390
F
  0
LAYER
  5
20B
100
AcDbSymbolTableRecord
100
AcDbLayerTableRecord
  2
05_ALL_DTM_CSYS
 70
0
 62
7
  6
CONTINUOUS
370
-3
390
F
  0
LAYER
  5
20C
100
AcDbSymbolTableRecord
100
AcDbLayerTableRecord
  2
05__ASM_ALL_DTM_CSYS
 70
0
 62
7
  6
CONTINUOUS
370
-3
390
F
  0
LAYER
  5
20D
100
AcDbSymbolTableRecord
100
AcDbLayerTableRecord
  2
05__ASM_DEF_DTM_CSYS
 70
0
 62
7
  6
CONTINUOUS
370
-3
390
F
  0
LAYER
  5
20E
100
AcDbSymbolTableRecord
100
AcDbLayerTableRecord
  2
05___PRT_ALL_DTM_CSYS
 70
0
 62
7
  6
CONTINUOUS
370
-3
390
F
  0
LAYER
  5
20F
100
AcDbSymbolTableRecord
100
AcDbLayerTableRecord
  2
05___PRT_DEF_DTM_CSYS
 70
0
 62
7
  6
CONTINUOUS
370
-3
390
F
  0
LAYER
  5
210
100
AcDbSymbolTableRecord
100
AcDbLayerTableRecord
  2
06_ALL_SURFS
 70
0
 62
7
  6
CONTINUOUS
370
-3
390
F
  0
LAYER
  5
211
100
AcDbSymbolTableRecord
100
AcDbLayerTableRecord
  2
06__ASM_ALL_SURFS
 70
0
 62
7
  6
CONTINUOUS
370
-3
390
F
  0
LAYER
  5
212
100
AcDbSymbolTableRecord
100
AcDbLayerTableRecord
  2
06___PRT_ALL_SURFS
 70
0
 62
7
  6
CONTINUOUS
370
-3
390
F
  0
LAYER
  5
213
100
AcDbSymbolTableRecord
100
AcDbLayerTableRecord
  2
07__ASM_ALL_SKELETONS
 70
0
 62
7
  6
CONTINUOUS
370
-3
390
F
  0
LAYER
  5
214
100
AcDbSymbolTableRecord
100
AcDbLayerTableRecord
  2
3
 70
0
 62
7
  6
CONTINUOUS
370
-3
390
F
  0
LAYER
  5
215
100
AcDbSymbolTableRecord
100
AcDbLayerTableRecord
  2
CLOSED_SHELL
 70
0
 62
7
  6
CONTINUOUS
370
-3
390
F
  0
LAYER
  5
216
100
AcDbSymbolTableRecord
100
AcDbLayerTableRecord
  2
HIDE-FOR-DRAWING
 70
0
 62
7
  6
CONTINUOUS
370
-3
390
F
  0
LAYER
  5
217
100
AcDbSymbolTableRecord
100
AcDbLayerTableRecord
  2
HIDEFORDWG
 70
0
 62
7
  6
CONTINUOUS
370
-3
390
F
  0
LAYER
  5
218
100
AcDbSymbolTableRecord
100
AcDbLayerTableRecord
  2
XSEC_DATUMS
 70
0
 62
7
  6
CONTINUOUS
370
-3
390
F
  0
ENDTAB
  0
TABLE
  2
STYLE
  5
3
100
AcDbSymbolTable
 70
1
  0
STYLE
  5
11
100
AcDbSymbolTableRecord
100
AcDbTextStyleTableRecord
  2
STANDARD
 70
0
 40
0.0
 41
1.0
 50
0.0
 71
0
 42
0.2
  3
arial.ttf
  4

  0
STYLE
  5
219
100
AcDbSymbolTableRecord
100
AcDbTextStyleTableRecord
  2
TEXTSTYLE_1
 70
0
 40
0.0
 41
0.8
 50
0.0
 71
0
 42
0.2
  3
gdt
  4

  0
ENDTAB
  0
TABLE
  2
VIEW
  5
6
100
AcDbSymbolTable
 70
0
  0
ENDTAB
  0
TABLE
  2
UCS
  5
7
100
AcDbSymbolTable
 70
0
  0
ENDTAB
  0
TABLE
  2
APPID
  5
9
100
AcDbSymbolTable
 70
1
  0
APPID
  5
21A
100
AcDbSymbolTableRecord
100
AcDbRegAppTableRecord
  2
ACAD
 70
0
  0
ENDTAB
  0
TABLE
  2
BLOCK_RECORD
  5
1
100
AcDbSymbolTable
 70
0
  0
BLOCK_RECORD
  5
21B
100
AcDbSymbolTableRecord
100
AcDbBlockTableRecord
  2
*Model_Space
  0
BLOCK_RECORD
  5
21C
100
AcDbSymbolTableRecord
100
AcDbBlockTableRecord
  2
*Paper_Space
  0
BLOCK_RECORD
  5
21D
100
AcDbSymbolTableRecord
100
AcDbBlockTableRecord
  2
_FILLED
  0
BLOCK_RECORD
  5
21E
100
AcDbSymbolTableRecord
100
AcDbBlockTableRecord
  2
*D0
  0
BLOCK_RECORD
  5
21F
100
AcDbSymbolTableRecord
100
AcDbBlockTableRecord
  2
*D1
  0
BLOCK_RECORD
  5
220
100
AcDbSymbolTableRecord
100
AcDbBlockTableRecord
  2
*D2
  0
BLOCK_RECORD
  5
221
100
AcDbSymbolTableRecord
100
AcDbBlockTableRecord
  2
*D3
  0
BLOCK_RECORD
  5
222
100
AcDbSymbolTableRecord
100
AcDbBlockTableRecord
  2
*D4
  0
BLOCK_RECORD
  5
223
100
AcDbSymbolTableRecord
100
AcDbBlockTableRecord
  2
*D5
  0
BLOCK_RECORD
  5
224
100
AcDbSymbolTableRecord
100
AcDbBlockTableRecord
  2
*D6
  0
BLOCK_RECORD
  5
225
100
AcDbSymbolTableRecord
100
AcDbBlockTableRecord
  2
*D7
  0
BLOCK_RECORD
  5
226
100
AcDbSymbolTableRecord
100
AcDbBlockTableRecord
  2
*D8
  0
BLOCK_RECORD
  5
227
100
AcDbSymbolTableRecord
100
AcDbBlockTableRecord
  2
*D9
  0
ENDTAB
  0
TABLE
  2
DIMSTYLE
  5
A
100
AcDbSymbolTable
 70
1
100
AcDbDimStyleTable
 71
0
  0
DIMSTYLE
105
228
100
AcDbSymbolTableRecord
100
AcDbDimStyleTableRecord
  2
STANDARD
 70
0
  3

  4

 40
1.0
 41
2.5
 42
0.0625
 43
0.38
 44
1.0
 45
0.0
 46
0.0
 47
0.01
 48
0.01
140
3.5
141
0.09
142
0.0
143
0.0393700787
144
1.0
145
0.0
146
1.0
147
0.625
 71
0.0
 72
0.0
 73
0
 74
0
 75
0
 76
0
 77
1
 78
8
 79
2
170
1
171
1
172
0
173
0
174
0
175
0
176
0
177
0
178
5
270
2
179
2
271
2
272
2
273
2
274
2
275
0
280
0
281
0
282
0
283
1
284
8
285
0
286
0
287
3
288
0
340
11
278
46
341
21D
342
21D
343
21D
344
21D
  0
DIMSTYLE
105
229
100
AcDbSymbolTableRecord
100
AcDbDimStyleTableRecord
  2
DIMSTYLE_1
 70
0
  3

  4

 40
1.0
 41
2.5
 42
0.0625
 43
0.38
 44
1.0
 45
0.0
 46
0.0
 47
0.0
 48
0.0
140
3.5
141
0.09
142
0.0
143
0.0393700787
144
1.0
145
0.0
146
1.0
147
0.875
 71
0.0
 72
0.0
 73
0
 74
0
 75
0
 76
0
 77
1
 78
8
 79
2
170
1
171
2
172
0
173
0
174
0
175
0
176
0
177
0
178
5
270
2
179
2
271
2
272
2
273
2
274
2
275
0
280
0
281
0
282
0
283
1
284
8
285
0
286
0
287
3
288
0
340
11
278
46
341
21D
342
21D
343
21D
344
21D
  0
DIMSTYLE
105
22A
100
AcDbSymbolTableRecord
100
AcDbDimStyleTableRecord
  2
DIMSTYLE_2
 70
0
  3
<>
  4

 40
1.0
 41
2.5
 42
0.0625
 43
0.38
 44
1.0
 45
0.0
 46
0.0
 47
0.0
 48
0.0
140
3.5
141
0.09
142
0.0
143
0.0393700787
144
1.0
145
0.0
146
1.0
147
0.625
 71
0.0
 72
0.0
 73
0
 74
0
 75
0
 76
0
 77
1
 78
8
 79
2
170
1
171
2
172
0
173
0
174
0
175
0
176
0
177
0
178
5
270
2
179
2
271
2
272
2
273
2
274
2
275
0
280
0
281
0
282
0
283
1
284
8
285
0
286
0
287
3
288
1
340
11
278
46
289
1
341
21D
342
21D
343
21D
344
21D
  0
ENDTAB
  0
ENDSEC
  0
SECTION
  2
BLOCKS
  0
BLOCK
  5
20
100
AcDbEntity
  8
0
100
AcDbBlockBegin
  2
*Model_Space
 70
0
 10
0.0
 20
0.0
 30
0.0
  3
*Model_Space
  1

  0
ENDBLK
  5
21
100
AcDbEntity
  8
0
100
AcDbBlockEnd
  0
BLOCK
  5
1C
100
AcDbEntity
  8
0
100
AcDbBlockBegin
  2
*Paper_Space
 70
0
 10
0.0
 20
0.0
 30
0.0
  3
*Paper_Space
  1

  0
ENDBLK
  5
1D
100
AcDbEntity
  8
0
100
AcDbBlockEnd
  0
BLOCK
  5
22B
100
AcDbEntity
  8
0
100
AcDbBlockBegin
  2
_FILLED
 70
64
 10
0.0
 20
0.0
  3
_FILLED
  1

  0
SOLID
  5
22C
100
AcDbEntity
  8
0
  6
BYBLOCK
 62
0
100
AcDbTrace
 10
0.0
 20
0.0
 11
-1.0
 21
0.2
 12
-1.0
 22
-0.2
 13
-1.0
 23
-0.2
  0
ENDBLK
  5
22D
100
AcDbEntity
  8
0
  6
BYBLOCK
 62
0
100
AcDbBlockEnd
  0
BLOCK
  5
22E
100
AcDbEntity
  8
0
100
AcDbBlockBegin
 62
2
  6
CONTINUOUS
  2
*D0
 70
65
 10
0.0
 20
0.0
  3
*D0
  1

  0
MTEXT
  5
22F
100
AcDbEntity
  8
0
100
AcDbMText
 62
5
  6
CONTINUOUS
  7
STANDARD
 71
2
 72
1
 10
-202.1621158684
 20
341.9549256388
 30
0.0
 11
1.0
 21
0.0
 31
0.0
 73
2
 44
0.9
  1
170\P[6.69]
 40
3.5
 41
12.217472119
  0
LINE
  5
230
100
AcDbEntity
  8
0
100
AcDbLine
 62
2
  6
CONTINUOUS
 10
-115.1323760914
 20
317.1225720084
 11
-115.1323760914
 21
338.5799256388
  0
LINE
  5
231
100
AcDbEntity
  8
0
100
AcDbLine
 62
2
  6
CONTINUOUS
 10
-285.1323760914
 20
317.1225720084
 11
-285.1323760914
 21
338.5799256388
  0
LINE
  5
232
100
AcDbEntity
  8
0
100
AcDbLine
 62
2
  6
CONTINUOUS
 10
-115.1323760914
 20
337.5799256388
 11
-200.1323760914
 21
337.5799256388
  0
LINE
  5
233
100
AcDbEntity
  8
0
100
AcDbLine
 62
2
  6
CONTINUOUS
 10
-285.1323760914
 20
337.5799256388
 11
-200.1323760914
 21
337.5799256388
  0
INSERT
  5
234
100
AcDbEntity
  8
0
100
AcDbBlockReference
 62
2
  6
CONTINUOUS
  2
_FILLED
 10
-115.1323760914
 20
337.5799256388
 41
2.5
 42
2.5
 43
2.5
  0
INSERT
  5
235
100
AcDbEntity
  8
0
100
AcDbBlockReference
 62
2
  6
CONTINUOUS
  2
_FILLED
 10
-285.1323760914
 20
337.5799256388
 41
2.5
 42
2.5
 43
2.5
 50
180.0
  0
ENDBLK
  5
236
100
AcDbEntity
  8
0
  6
BYBLOCK
 62
0
100
AcDbBlockEnd
  0
BLOCK
  5
237
100
AcDbEntity
  8
0
100
AcDbBlockBegin
 62
2
  6
CONTINUOUS
  2
*D1
 70
65
 10
0.0
 20
0.0
  3
*D1
  1

  0
MTEXT
  5
238
100
AcDbEntity
  8
0
100
AcDbMText
 62
5
  6
CONTINUOUS
  7
STANDARD
 71
2
 72
1
 10
-92.5211643454
 20
194.0303322314
 30
0.0
 11
0.0
 21
1.0
 31
0.0
 73
2
 44
0.9
  1
230\P[9.06]
 40
3.5
 41
12.217472119
  0
LINE
  5
239
100
AcDbEntity
  8
0
100
AcDbLine
 62
2
  6
CONTINUOUS
 10
-109.598330383
 20
311.0600720084
 11
-87.1461643454
 21
311.0600720084
  0
LINE
  5
23A
100
AcDbEntity
  8
0
100
AcDbLine
 62
2
  6
CONTINUOUS
 10
-109.1737463086
 20
81.0600720084
 11
-87.1461643454
 21
81.0600720084
  0
LINE
  5
23B
100
AcDbEntity
  8
0
100
AcDbLine
 62
2
  6
CONTINUOUS
 10
-88.1461643454
 20
311.0600720084
 11
-88.1461643454
 21
196.0600720084
  0
LINE
  5
23C
100
AcDbEntity
  8
0
100
AcDbLine
 62
2
  6
CONTINUOUS
 10
-88.1461643454
 20
81.0600720084
 11
-88.1461643454
 21
196.0600720084
  0
INSERT
  5
23D
100
AcDbEntity
  8
0
100
AcDbBlockReference
 62
2
  6
CONTINUOUS
  2
_FILLED
 10
-88.1461643454
 20
311.0600720084
 41
2.5
 42
2.5
 43
2.5
 50
90.0
  0
INSERT
  5
23E
100
AcDbEntity
  8
0
100
AcDbBlockReference
 62
2
  6
CONTINUOUS
  2
_FILLED
 10
-88.1461643454
 20
81.0600720084
 41
2.5
 42
2.5
 43
2.5
 50
270.0
  0
ENDBLK
  5
23F
100
AcDbEntity
  8
0
  6
BYBLOCK
 62
0
100
AcDbBlockEnd
  0
BLOCK
  5
240
100
AcDbEntity
  8
0
100
AcDbBlockBegin
 62
2
  6
CONTINUOUS
  2
*D2
 70
65
 10
0.0
 20
0.0
  3
*D2
  1

  0
MTEXT
  5
241
100
AcDbEntity
  8
0
100
AcDbMText
 62
5
  6
CONTINUOUS
  7
TEXTSTYLE_1
 71
3
 72
1
 10
-131.6379033603
 20
75.4503967332
 30
0.0
 11
1.0
 21
0.0
 31
0.0
 73
2
 44
0.9
  1
{\fgdt;n}\fArial;8\P[.32]
 40
3.5
 41
9.4981412639
  0
LINE
  5
242
100
AcDbEntity
  8
0
100
AcDbLine
 62
2
  6
CONTINUOUS
 10
-117.1224799803
 20
77.590275687
 11
-120.8590929514
 21
71.0753967332
  0
LINE
  5
243
100
AcDbEntity
  8
0
100
AcDbLine
 62
2
  6
CONTINUOUS
 10
-120.8590929514
 20
71.0753967332
 11
-123.1090929514
 21
71.0753967332
  0
LINE
  5
244
100
AcDbEntity
  8
0
100
AcDbLine
 62
2
  6
CONTINUOUS
 10
-123.1090929514
 20
71.0753967332
 11
-139.898900882
 21
71.0753967332
  0
INSERT
  5
245
100
AcDbEntity
  8
0
100
AcDbBlockReference
 62
2
  6
CONTINUOUS
  2
_FILLED
 10
-117.1224799803
 20
77.590275687
 41
2.5
 42
2.5
 43
2.5
 50
60.1635458216
  0
ENDBLK
  5
246
100
AcDbEntity
  8
0
  6
BYBLOCK
 62
0
100
AcDbBlockEnd
  0
BLOCK
  5
247
100
AcDbEntity
  8
0
100
AcDbBlockBegin
 62
2
  6
CONTINUOUS
  2
*D3
 70
65
 10
0.0
 20
0.0
  3
*D3
  1

  0
MTEXT
  5
248
100
AcDbEntity
  8
0
100
AcDbMText
 62
5
  6
CONTINUOUS
  7
STANDARD
 71
2
 72
1
 10
-202.1621158684
 20
326.9661237919
 30
0.0
 11
1.0
 21
0.0
 31
0.0
 73
2
 44
0.9
  1
160\P[6.30]
 40
3.5
 41
12.217472119
  0
LINE
  5
249
100
AcDbEntity
  8
0
100
AcDbLine
 62
2
  6
CONTINUOUS
 10
-120.1323760914
 20
301.1225720084
 11
-120.1323760914
 21
323.5911237919
  0
LINE
  5
24A
100
AcDbEntity
  8
0
100
AcDbLine
 62
2
  6
CONTINUOUS
 10
-280.1323760914
 20
301.1225720084
 11
-280.1323760914
 21
323.5911237919
  0
LINE
  5
24B
100
AcDbEntity
  8
0
100
AcDbLine
 62
2
  6
CONTINUOUS
 10
-120.1323760914
 20
322.5911237919
 11
-200.1323760914
 21
322.5911237919
  0
LINE
  5
24C
100
AcDbEntity
  8
0
100
AcDbLine
 62
2
  6
CONTINUOUS
 10
-280.1323760914
 20
322.5911237919
 11
-200.1323760914
 21
322.5911237919
  0
INSERT
  5
24D
100
AcDbEntity
  8
0
100
AcDbBlockReference
 62
2
  6
CONTINUOUS
  2
_FILLED
 10
-120.1323760914
 20
322.5911237919
 41
2.5
 42
2.5
 43
2.5
  0
INSERT
  5
24E
100
AcDbEntity
  8
0
100
AcDbBlockReference
 62
2
  6
CONTINUOUS
  2
_FILLED
 10
-280.1323760914
 20
322.5911237919
 41
2.5
 42
2.5
 43
2.5
 50
180.0
  0
ENDBLK
  5
24F
100
AcDbEntity
  8
0
  6
BYBLOCK
 62
0
100
AcDbBlockEnd
  0
BLOCK
  5
250
100
AcDbEntity
  8
0
100
AcDbBlockBegin
 62
2
  6
CONTINUOUS
  2
*D4
 70
65
 10
0.0
 20
0.0
  3
*D4
  1

  0
MTEXT
  5
251
100
AcDbEntity
  8
0
100
AcDbMText
 62
5
  6
CONTINUOUS
  7
STANDARD
 71
2
 72
1
 10
-106.9921019627
 20
194.0303322314
 30
0.0
 11
0.0
 21
1.0
 31
0.0
 73
2
 44
0.9
  1
210\P[8.27]
 40
3.5
 41
12.217472119
  0
LINE
  5
252
100
AcDbEntity
  8
0
100
AcDbLine
 62
2
  6
CONTINUOUS
 10
-120.0698760914
 20
91.0600720084
 11
-101.6171019627
 21
91.0600720084
  0
LINE
  5
253
100
AcDbEntity
  8
0
100
AcDbLine
 62
2
  6
CONTINUOUS
 10
-120.0698760914
 20
301.0600720084
 11
-101.6171019627
 21
301.0600720084
  0
LINE
  5
254
100
AcDbEntity
  8
0
100
AcDbLine
 62
2
  6
CONTINUOUS
 10
-102.6171019627
 20
91.0600720084
 11
-102.6171019627
 21
196.0600720084
  0
LINE
  5
255
100
AcDbEntity
  8
0
100
AcDbLine
 62
2
  6
CONTINUOUS
 10
-102.6171019627
 20
301.0600720084
 11
-102.6171019627
 21
196.0600720084
  0
INSERT
  5
256
100
AcDbEntity
  8
0
100
AcDbBlockReference
 62
2
  6
CONTINUOUS
  2
_FILLED
 10
-102.6171019627
 20
91.0600720084
 41
2.5
 42
2.5
 43
2.5
 50
270.0
  0
INSERT
  5
257
100
AcDbEntity
  8
0
100
AcDbBlockReference
 62
2
  6
CONTINUOUS
  2
_FILLED
 10
-102.6171019627
 20
301.0600720084
 41
2.5
 42
2.5
 43
2.5
 50
90.0
  0
ENDBLK
  5
258
100
AcDbEntity
  8
0
  6
BYBLOCK
 62
0
100
AcDbBlockEnd
  0
BLOCK
  5
259
100
AcDbEntity
  8
0
100
AcDbBlockBegin
 62
2
  6
CONTINUOUS
  2
*D5
 70
65
 10
0.0
 20
0.0
  3
*D5
  1

  0
MTEXT
  5
25A
100
AcDbEntity
  8
0
100
AcDbMText
 62
5
  6
CONTINUOUS
  7
STANDARD
 71
2
 72
1
 10
134.3154439813
 20
400.9327823418
 30
0.0
 11
1.0
 21
0.0
 31
0.0
 73
2
 44
0.9
  1
196\P[7.72]
 40
3.5
 41
12.217472119
  0
LINE
  5
25B
100
AcDbEntity
  8
0
100
AcDbLine
 62
2
  6
CONTINUOUS
 10
38.3451837583
 20
343.7319741713
 11
38.3451837583
 21
397.5577823418
  0
LINE
  5
25C
100
AcDbEntity
  8
0
100
AcDbLine
 62
2
  6
CONTINUOUS
 10
234.3451837583
 20
343.7319741713
 11
234.3451837583
 21
397.5577823418
  0
LINE
  5
25D
100
AcDbEntity
  8
0
100
AcDbLine
 62
2
  6
CONTINUOUS
 10
38.3451837583
 20
396.5577823418
 11
136.3451837583
 21
396.5577823418
  0
LINE
  5
25E
100
AcDbEntity
  8
0
100
AcDbLine
 62
2
  6
CONTINUOUS
 10
234.3451837583
 20
396.5577823418
 11
136.3451837583
 21
396.5577823418
  0
INSERT
  5
25F
100
AcDbEntity
  8
0
100
AcDbBlockReference
 62
2
  6
CONTINUOUS
  2
_FILLED
 10
38.3451837583
 20
396.5577823418
 41
2.5
 42
2.5
 43
2.5
 50
180.0
  0
INSERT
  5
260
100
AcDbEntity
  8
0
100
AcDbBlockReference
 62
2
  6
CONTINUOUS
  2
_FILLED
 10
234.3451837583
 20
396.5577823418
 41
2.5
 42
2.5
 43
2.5
  0
ENDBLK
  5
261
100
AcDbEntity
  8
0
  6
BYBLOCK
 62
0
100
AcDbBlockEnd
  0
BLOCK
  5
262
100
AcDbEntity
  8
0
100
AcDbBlockBegin
 62
2
  6
CONTINUOUS
  2
*D6
 70
65
 10
0.0
 20
0.0
  3
*D6
  1

  0
MTEXT
  5
263
100
AcDbEntity
  8
0
100
AcDbMText
 62
5
  6
CONTINUOUS
  7
STANDARD
 71
2
 72
1
 10
134.3154439813
 20
381.3353474442
 30
0.0
 11
1.0
 21
0.0
 31
0.0
 73
2
 44
0.9
  1
181\P[7.13]
 40
3.5
 41
12.217472119
  0
LINE
  5
264
100
AcDbEntity
  8
0
100
AcDbLine
 62
2
  6
CONTINUOUS
 10
226.8451837583
 20
356.7319741713
 11
226.8451837583
 21
377.9603474442
  0
LINE
  5
265
100
AcDbEntity
  8
0
100
AcDbLine
 62
2
  6
CONTINUOUS
 10
45.8451837583
 20
356.7319741713
 11
45.8451837583
 21
377.9603474442
  0
LINE
  5
266
100
AcDbEntity
  8
0
100
AcDbLine
 62
2
  6
CONTINUOUS
 10
226.8451837583
 20
376.9603474442
 11
136.3451837583
 21
376.9603474442
  0
LINE
  5
267
100
AcDbEntity
  8
0
100
AcDbLine
 62
2
  6
CONTINUOUS
 10
45.8451837583
 20
376.9603474442
 11
136.3451837583
 21
376.9603474442
  0
INSERT
  5
268
100
AcDbEntity
  8
0
100
AcDbBlockReference
 62
2
  6
CONTINUOUS
  2
_FILLED
 10
226.8451837583
 20
376.9603474442
 41
2.5
 42
2.5
 43
2.5
  0
INSERT
  5
269
100
AcDbEntity
  8
0
100
AcDbBlockReference
 62
2
  6
CONTINUOUS
  2
_FILLED
 10
45.8451837583
 20
376.9603474442
 41
2.5
 42
2.5
 43
2.5
 50
180.0
  0
ENDBLK
  5
26A
100
AcDbEntity
  8
0
  6
BYBLOCK
 62
0
100
AcDbBlockEnd
  0
BLOCK
  5
26B
100
AcDbEntity
  8
0
100
AcDbBlockBegin
 62
2
  6
CONTINUOUS
  2
*D7
 70
65
 10
0.0
 20
0.0
  3
*D7
  1

  0
MTEXT
  5
26C
100
AcDbEntity
  8
0
100
AcDbMText
 62
5
  6
CONTINUOUS
  7
STANDARD
 71
2
 72
1
 10
269.8857664833
 20
194.2800689669
 30
0.0
 11
0.0
 21
1.0
 31
0.0
 73
2
 44
0.9
  1
318\P[12.52]
 40
3.5
 41
14.936802974
  0
LINE
  5
26D
100
AcDbEntity
  8
0
100
AcDbLine
 62
2
  6
CONTINUOUS
 10
234.4724461371
 20
38.6694741713
 11
275.2607664833
 21
38.6694741713
  0
LINE
  5
26E
100
AcDbEntity
  8
0
100
AcDbLine
 62
2
  6
CONTINUOUS
 10
226.9076837583
 20
356.6694741713
 11
275.2607664833
 21
356.6694741713
  0
LINE
  5
26F
100
AcDbEntity
  8
0
100
AcDbLine
 62
2
  6
CONTINUOUS
 10
274.2607664833
 20
38.6694741713
 11
274.2607664833
 21
197.6694741713
  0
LINE
  5
270
100
AcDbEntity
  8
0
100
AcDbLine
 62
2
  6
CONTINUOUS
 10
274.2607664833
 20
356.6694741713
 11
274.2607664833
 21
197.6694741713
  0
INSERT
  5
271
100
AcDbEntity
  8
0
100
AcDbBlockReference
 62
2
  6
CONTINUOUS
  2
_FILLED
 10
274.2607664833
 20
38.6694741713
 41
2.5
 42
2.5
 43
2.5
 50
270.0
  0
INSERT
  5
272
100
AcDbEntity
  8
0
100
AcDbBlockReference
 62
2
  6
CONTINUOUS
  2
_FILLED
 10
274.2607664833
 20
356.6694741713
 41
2.5
 42
2.5
 43
2.5
 50
90.0
  0
ENDBLK
  5
273
100
AcDbEntity
  8
0
  6
BYBLOCK
 62
0
100
AcDbBlockEnd
  0
BLOCK
  5
274
100
AcDbEntity
  8
0
100
AcDbBlockBegin
 62
2
  6
CONTINUOUS
  2
*D8
 70
65
 10
0.0
 20
0.0
  3
*D8
  1

  0
MTEXT
  5
275
100
AcDbEntity
  8
0
100
AcDbMText
 62
5
  6
CONTINUOUS
  7
STANDARD
 71
2
 72
1
 10
250.7793614311
 20
194.2800689669
 30
0.0
 11
0.0
 21
1.0
 31
0.0
 73
2
 44
0.9
  1
280\P[11.02]
 40
3.5
 41
14.936802974
  0
LINE
  5
276
100
AcDbEntity
  8
0
100
AcDbLine
 62
2
  6
CONTINUOUS
 10
240.4076837583
 20
337.6694741713
 11
256.1543614311
 21
337.6694741713
  0
LINE
  5
277
100
AcDbEntity
  8
0
100
AcDbLine
 62
2
  6
CONTINUOUS
 10
240.4076837583
 20
57.6694741713
 11
256.1543614311
 21
57.6694741713
  0
LINE
  5
278
100
AcDbEntity
  8
0
100
AcDbLine
 62
2
  6
CONTINUOUS
 10
255.1543614311
 20
337.6694741713
 11
255.1543614311
 21
197.6694741713
  0
LINE
  5
279
100
AcDbEntity
  8
0
100
AcDbLine
 62
2
  6
CONTINUOUS
 10
255.1543614311
 20
57.6694741713
 11
255.1543614311
 21
197.6694741713
  0
INSERT
  5
27A
100
AcDbEntity
  8
0
100
AcDbBlockReference
 62
2
  6
CONTINUOUS
  2
_FILLED
 10
255.1543614311
 20
337.6694741713
 41
2.5
 42
2.5
 43
2.5
 50
90.0
  0
INSERT
  5
27B
100
AcDbEntity
  8
0
100
AcDbBlockReference
 62
2
  6
CONTINUOUS
  2
_FILLED
 10
255.1543614311
 20
57.6694741713
 41
2.5
 42
2.5
 43
2.5
 50
270.0
  0
ENDBLK
  5
27C
100
AcDbEntity
  8
0
  6
BYBLOCK
 62
0
100
AcDbBlockEnd
  0
BLOCK
  5
27D
100
AcDbEntity
  8
0
100
AcDbBlockBegin
 62
2
  6
CONTINUOUS
  2
*D9
 70
65
 10
0.0
 20
0.0
  3
*D9
  1

  0
MTEXT
  5
27E
100
AcDbEntity
  8
0
100
AcDbMText
 62
5
  6
CONTINUOUS
  7
TEXTSTYLE_1
 71
3
 72
1
 10
217.0796704786
 20
28.5344645161
 30
0.0
 11
1.0
 21
0.0
 31
0.0
 73
2
 44
0.9
  1
{\fgdt;n}\fArial;8\P[.32]
 40
3.5
 41
9.4981412639
  0
LINE
  5
27F
100
AcDbEntity
  8
0
100
AcDbLine
 62
2
  6
CONTINUOUS
 10
233.5849950836
 20
53.7423743281
 11
227.8584808875
 21
24.1594645161
  0
LINE
  5
280
100
AcDbEntity
  8
0
100
AcDbLine
 62
2
  6
CONTINUOUS
 10
227.8584808875
 20
24.1594645161
 11
225.6084808875
 21
24.1594645161
  0
LINE
  5
281
100
AcDbEntity
  8
0
100
AcDbLine
 62
2
  6
CONTINUOUS
 10
225.6084808875
 20
24.1594645161
 11
208.8186729569
 21
24.1594645161
  0
INSERT
  5
282
100
AcDbEntity
  8
0
100
AcDbBlockReference
 62
2
  6
CONTINUOUS
  2
_FILLED
 10
233.5849950836
 20
53.7423743281
 41
2.5
 42
2.5
 43
2.5
 50
79.04446308
  0
ENDBLK
  5
283
100
AcDbEntity
  8
0
  6
BYBLOCK
 62
0
100
AcDbBlockEnd
  0
ENDSEC
  0
SECTION
  2
ENTITIES
  0
DIMENSION
  5
284
100
AcDbEntity
  8
0
100
AcDbDimension
 62
2
  6
CONTINUOUS
  2
*D0
 10
-285.1323760914
 20
337.5799256388
 11
-200.1323760914
 21
337.5799256388
 70
160
 71
2
 72
2
 41
0.9
 42
170.0
  1
<>\P[]
  3
DIMSTYLE_1
100
AcDbAlignedDimension
 13
-115.1323760914
 23
317.0600720084
 14
-285.1323760914
 24
317.0600720084
 50
180.0
100
AcDbRotatedDimension
  0
DIMENSION
  5
285
100
AcDbEntity
  8
0
100
AcDbDimension
 62
2
  6
CONTINUOUS
  2
*D1
 10
-88.1461643454
 20
81.0600720084
 11
-88.1461643454
 21
196.0600720084
 70
160
 71
2
 72
2
 41
0.9
 42
230.0
  1
<>\P[]
  3
DIMSTYLE_1
100
AcDbAlignedDimension
 13
-109.660830383
 23
311.0600720084
 14
-109.2362463086
 24
81.0600720084
 50
270.0
100
AcDbRotatedDimension
  0
DIMENSION
  5
286
100
AcDbEntity
  8
0
100
AcDbDimension
 62
2
  6
CONTINUOUS
  2
*D2
 10
-117.1224799803
 20
77.590275687
 11
-131.9414969167
 21
71.0753967332
 70
163
 71
3
 72
2
 41
0.9
 42
8.0
  1
%%c<>\P[]
  3
DIMSTYLE_2
100
AcDbDiametricDimension
 15
-113.1422722026
 25
84.5298683297
1001
ACAD
1000
DSTYLE
1002
{
1070
73
1070
1
1070
74
1070
1
1002
}
  0
DIMENSION
  5
287
100
AcDbEntity
  8
0
100
AcDbDimension
 62
2
  6
CONTINUOUS
  2
*D3
 10
-280.1323760914
 20
322.5911237919
 11
-200.1323760914
 21
322.5911237919
 70
160
 71
2
 72
2
 41
0.9
 42
160.0
  1
<>\P[]
  3
DIMSTYLE_1
100
AcDbAlignedDimension
 13
-120.1323760914
 23
301.0600720084
 14
-280.1323760914
 24
301.0600720084
 50
180.0
100
AcDbRotatedDimension
  0
DIMENSION
  5
288
100
AcDbEntity
  8
0
100
AcDbDimension
 62
2
  6
CONTINUOUS
  2
*D4
 10
-102.6171019627
 20
301.0600720084
 11
-102.6171019627
 21
196.0600720084
 70
160
 71
2
 72
2
 41
0.9
 42
210.0
  1
<>\P[]
  3
DIMSTYLE_1
100
AcDbAlignedDimension
 13
-120.1323760914
 23
91.0600720084
 14
-120.1323760914
 24
301.0600720084
 50
90.0
100
AcDbRotatedDimension
  0
DIMENSION
  5
289
100
AcDbEntity
  8
0
100
AcDbDimension
 62
2
  6
CONTINUOUS
  2
*D5
 10
234.3451837583
 20
396.5577823418
 11
136.3451837583
 21
396.5577823418
 70
160
 71
2
 72
2
 41
0.9
 42
196.0
  1
<>\P[]
  3
DIMSTYLE_1
100
AcDbAlignedDimension
 13
38.3451837583
 23
343.6694741713
 14
234.3451837583
 24
343.6694741713
100
AcDbRotatedDimension
  0
DIMENSION
  5
28A
100
AcDbEntity
  8
0
100
AcDbDimension
 62
2
  6
CONTINUOUS
  2
*D6
 10
45.8451837583
 20
376.9603474442
 11
136.3451837583
 21
376.9603474442
 70
160
 71
2
 72
2
 41
0.9
 42
181.0
  1
<>\P[]
  3
DIMSTYLE_1
100
AcDbAlignedDimension
 13
226.8451837583
 23
356.6694741713
 14
45.8451837583
 24
356.6694741713
 50
180.0
100
AcDbRotatedDimension
  0
DIMENSION
  5
28B
100
AcDbEntity
  8
0
100
AcDbDimension
 62
2
  6
CONTINUOUS
  2
*D7
 10
274.2607664833
 20
356.6694741713
 11
274.2607664833
 21
197.6694741713
 70
160
 71
2
 72
2
 41
0.9
 42
318.0
  1
<>\P[]
  3
DIMSTYLE_1
100
AcDbAlignedDimension
 13
234.4099461371
 23
38.6694741713
 14
226.8451837583
 24
356.6694741713
 50
90.0
100
AcDbRotatedDimension
  0
DIMENSION
  5
28C
100
AcDbEntity
  8
0
100
AcDbDimension
 62
2
  6
CONTINUOUS
  2
*D8
 10
255.1543614311
 20
57.6694741713
 11
255.1543614311
 21
197.6694741713
 70
160
 71
2
 72
2
 41
0.9
 42
280.0
  1
<>\P[]
  3
DIMSTYLE_1
100
AcDbAlignedDimension
 13
240.3451837583
 23
337.6694741713
 14
240.3451837583
 24
57.6694741713
 50
270.0
100
AcDbRotatedDimension
  0
DIMENSION
  5
28D
100
AcDbEntity
  8
0
100
AcDbDimension
 62
2
  6
CONTINUOUS
  2
*D9
 10
233.5849950836
 20
53.7423743281
 11
216.7760769222
 21
24.1594645161
 70
163
 71
3
 72
2
 41
0.9
 42
8.0
  1
%%c<>\P[]
  3
DIMSTYLE_2
100
AcDbDiametricDimension
 15
235.1053724329
 25
61.5965740146
1001
ACAD
1000
DSTYLE
1002
{
1070
73
1070
1
1070
74
1070
1
1002
}
  0
LINE
  5
28E
100
AcDbEntity
  8
0
100
AcDbLine
 62
7
  6
CONTINUOUS
 10
0.0
 20
0.0
 11
297.0
 21
0.0
  0
LINE
  5
28F
100
AcDbEntity
  8
0
100
AcDbLine
 62
7
  6
CONTINUOUS
 10
0.0
 20
0.0
 11
0.0
 21
420.0
  0
LINE
  5
290
100
AcDbEntity
  8
0
100
AcDbLine
 62
7
  6
CONTINUOUS
 10
297.0
 20
0.0
 11
297.0
 21
420.0
  0
LINE
  5
291
100
AcDbEntity
  8
0
100
AcDbLine
 62
7
  6
CONTINUOUS
 10
0.0
 20
420.0
 11
297.0
 21
420.0
  0
LINE
  5
292
100
AcDbEntity
  8
02___PRT_ALL_AXES
100
AcDbLine
 62
7
  6
CENTER
 10
-285.1323760914
 20
81.0600720084
 11
-279.1323760914
 21
81.0600720084
  0
LINE
  5
293
100
AcDbEntity
  8
02___PRT_ALL_AXES
100
AcDbLine
 62
7
  6
CENTER
 10
-115.1323760914
 20
81.0600720084
 11
-109.1323760914
 21
81.0600720084
  0
LINE
  5
294
100
AcDbEntity
  8
02___PRT_ALL_AXES
100
AcDbLine
 62
7
  6
CENTER
 10
-115.1323760914
 20
81.0600720084
 11
-121.1323760914
 21
81.0600720084
  0
LINE
  5
295
100
AcDbEntity
  8
02___PRT_ALL_AXES
100
AcDbLine
 62
7
  6
CENTER
 10
-285.1323760914
 20
81.0600720084
 11
-291.1323760914
 21
81.0600720084
  0
LINE
  5
296
100
AcDbEntity
  8
03___PRT_ALL_CURVES
100
AcDbLine
 62
4
  6
CONTINUOUS
 10
-238.5366316008
 20
287.1017347014
 11
-236.40897228
 21
289.1850720084
  0
LINE
  5
297
100
AcDbEntity
  8
03___PRT_ALL_CURVES
100
AcDbLine
 62
4
  6
CONTINUOUS
 10
-233.7493966388
 20
286.5809093153
 11
-235.3451426195
 21
286.0600720084
  0
LINE
  5
298
100
AcDbEntity
  8
0
100
AcDbLine
 62
7
  6
CONTINUOUS
 10
-280.1323760914
 20
91.0600720084
 11
-120.1323760914
 21
91.0600720084
  0
LINE
  5
299
100
AcDbEntity
  8
02___PRT_ALL_AXES
100
AcDbLine
 62
7
  6
CENTER
 10
-285.1323760914
 20
311.0600720084
 11
-285.1323760914
 21
305.0600720084
  0
LINE
  5
29A
100
AcDbEntity
  8
02___PRT_ALL_AXES
100
AcDbLine
 62
7
  6
CENTER
 10
-285.1323760914
 20
81.0600720084
 11
-285.1323760914
 21
75.0600720084
  0
LINE
  5
29B
100
AcDbEntity
  8
02___PRT_ALL_AXES
100
AcDbLine
 62
7
  6
CENTER
 10
-285.1323760914
 20
81.0600720084
 11
-285.1323760914
 21
87.0600720084
  0
LINE
  5
29C
100
AcDbEntity
  8
02___PRT_ALL_AXES
100
AcDbLine
 62
7
  6
CENTER
 10
-285.1323760914
 20
311.0600720084
 11
-285.1323760914
 21
317.0600720084
  0
LINE
  5
29D
100
AcDbEntity
  8
03___PRT_ALL_CURVES
100
AcDbLine
 62
4
  6
CONTINUOUS
 10
-235.3451426195
 20
286.0600720084
 11
-236.40897228
 21
284.4975720084
  0
LINE
  5
29E
100
AcDbEntity
  8
03___PRT_ALL_CURVES
100
AcDbLine
 62
4
  6
CONTINUOUS
 10
-221.515354799
 20
273.0392347014
 11
-219.9196103083
 21
274.0809093153
  0
LINE
  5
29F
100
AcDbEntity
  8
03___PRT_ALL_CURVES
100
AcDbLine
 62
4
  6
CONTINUOUS
 10
-182.4728019404
 20
101.0600720084
 11
-185.1323760914
 21
101.0600720084
  0
LINE
  5
2A0
100
AcDbEntity
  8
03___PRT_ALL_CURVES
100
AcDbLine
 62
4
  6
CONTINUOUS
 10
-160.1323760914
 20
109.39340559
 11
-182.4728019404
 21
109.39340559
  0
LINE
  5
2A1
100
AcDbEntity
  8
0
100
AcDbLine
 62
7
  6
CONTINUOUS
 10
-280.1323760914
 20
301.0600720084
 11
-280.1323760914
 21
91.0600720084
  0
LINE
  5
2A2
100
AcDbEntity
  8
03___PRT_ALL_CURVES
100
AcDbLine
 62
4
  6
CONTINUOUS
 10
-239.6004612612
 20
285.0184093153
 11
-238.5366316008
 21
287.1017347014
  0
LINE
  5
2A3
100
AcDbEntity
  8
03___PRT_ALL_CURVES
100
AcDbLine
 62
4
  6
CONTINUOUS
 10
-216.7281207683
 20
273.0392347014
 11
-218.8557802754
 21
270.9559093153
  0
LINE
  5
2A4
100
AcDbEntity
  8
03___PRT_ALL_CURVES
100
AcDbLine
 62
4
  6
CONTINUOUS
 10
-240.1323760914
 20
249.0809093153
 11
-218.8557802754
 21
262.1017347014
  0
LINE
  5
2A5
100
AcDbEntity
  8
03___PRT_ALL_CURVES
100
AcDbLine
 62
4
  6
CONTINUOUS
 10
-218.8557802754
 20
270.9559093153
 11
-220.9834399688
 21
269.9142347014
  0
LINE
  5
2A6
100
AcDbEntity
  8
03___PRT_ALL_CURVES
100
AcDbLine
 62
4
  6
CONTINUOUS
 10
-215.1323760914
 20
111.0600720084
 11
-240.1323760914
 21
111.0600720084
  0
LINE
  5
2A7
100
AcDbEntity
  8
03___PRT_ALL_CURVES
100
AcDbLine
 62
4
  6
CONTINUOUS
 10
-182.4728019404
 20
112.51840559
 11
-160.1323760914
 21
112.51840559
  0
LINE
  5
2A8
100
AcDbEntity
  8
03___PRT_ALL_CURVES
100
AcDbLine
 62
4
  6
CONTINUOUS
 10
-234.8132277893
 20
114.1850720084
 11
-215.1323760914
 21
114.1850720084
  0
LINE
  5
2A9
100
AcDbEntity
  8
03___PRT_ALL_CURVES
100
AcDbLine
 62
4
  6
CONTINUOUS
 10
-185.1323760914
 20
120.8517391717
 11
-182.4728019404
 21
120.8517391717
  0
LINE
  5
2AA
100
AcDbEntity
  8
03___PRT_ALL_CURVES
100
AcDbLine
 62
4
  6
CONTINUOUS
 10
-217.791950615
 20
123.5600720084
 11
-240.1323760914
 21
131.3725720084
  0
LINE
  5
2AB
100
AcDbEntity
  8
03___PRT_ALL_CURVES
100
AcDbLine
 62
4
  6
CONTINUOUS
 10
-240.1323760914
 20
282.4142347014
 11
-239.6004612612
 21
285.0184093153
  0
LINE
  5
2AC
100
AcDbEntity
  8
03___PRT_ALL_CURVES
100
AcDbLine
 62
4
  6
CONTINUOUS
 10
-236.40897228
 20
284.4975720084
 11
-236.9408871102
 21
282.4142347014
  0
LINE
  5
2AD
100
AcDbEntity
  8
03___PRT_ALL_CURVES
100
AcDbLine
 62
4
  6
CONTINUOUS
 10
-219.9196103083
 20
274.0809093153
 11
-218.8557802754
 21
275.6434093153
  0
LINE
  5
2AE
100
AcDbEntity
  8
03___PRT_ALL_CURVES
100
AcDbLine
 62
4
  6
CONTINUOUS
 10
-215.1323760914
 20
260.5392347014
 11
-236.9408871102
 21
247.5184093153
  0
LINE
  5
2AF
100
AcDbEntity
  8
03___PRT_ALL_CURVES
100
AcDbLine
 62
4
  6
CONTINUOUS
 10
-160.1323760914
 20
125.018404845
 11
-185.1323760914
 21
125.018404845
  0
LINE
  5
2B0
100
AcDbEntity
  8
03___PRT_ALL_CURVES
100
AcDbLine
 62
4
  6
CONTINUOUS
 10
-181.9408871102
 20
128.1434063351
 11
-175.0259928273
 21
128.1434063351
  0
LINE
  5
2B1
100
AcDbEntity
  8
03___PRT_ALL_CURVES
100
AcDbLine
 62
4
  6
CONTINUOUS
 10
-171.8345038461
 20
128.1434063351
 11
-163.3238654452
 21
128.1434063351
  0
LINE
  5
2B2
100
AcDbEntity
  8
03___PRT_ALL_CURVES
100
AcDbLine
 62
4
  6
CONTINUOUS
 10
-215.1323760914
 20
132.9350720084
 11
-234.8132277893
 21
132.9350720084
  0
LINE
  5
2B3
100
AcDbEntity
  8
03___PRT_ALL_CURVES
100
AcDbLine
 62
4
  6
CONTINUOUS
 10
-234.8132277893
 20
132.9350720084
 11
-215.1323760914
 21
125.643404845
  0
LINE
  5
2B4
100
AcDbEntity
  8
03___PRT_ALL_CURVES
100
AcDbLine
 62
4
  6
CONTINUOUS
 10
-234.2813129591
 20
140.7475720084
 11
-236.40897228
 21
141.7892376816
  0
LINE
  5
2B5
100
AcDbEntity
  8
03___PRT_ALL_CURVES
100
AcDbLine
 62
4
  6
CONTINUOUS
 10
-233.7493966388
 20
143.8725720084
 11
-235.3451426195
 21
144.9142376816
  0
LINE
  5
2B6
100
AcDbEntity
  8
03___PRT_ALL_CURVES
100
AcDbLine
 62
4
  6
CONTINUOUS
 10
-236.40897228
 20
141.7892376816
 11
-238.5366316008
 21
143.8725720084
  0
LINE
  5
2B7
100
AcDbEntity
  8
03___PRT_ALL_CURVES
100
AcDbLine
 62
4
  6
CONTINUOUS
 10
-215.6642909682
 20
275.1225720084
 11
-216.7281207683
 21
273.0392347014
  0
LINE
  5
2B8
100
AcDbEntity
  8
03___PRT_ALL_CURVES
100
AcDbLine
 62
4
  6
CONTINUOUS
 10
-240.1323760914
 20
136.0600720084
 11
-215.1323760914
 21
136.0600720084
  0
LINE
  5
2B9
100
AcDbEntity
  8
03___PRT_ALL_CURVES
100
AcDbLine
 62
4
  6
CONTINUOUS
 10
-223.6430141198
 20
140.2267376816
 11
-231.621737318
 21
140.2267376816
  0
LINE
  5
2BA
100
AcDbEntity
  8
03___PRT_ALL_CURVES
100
AcDbLine
 62
4
  6
CONTINUOUS
 10
-175.0259928273
 20
141.6850720084
 11
-171.8345038461
 21
141.6850720084
  0
LINE
  5
2BB
100
AcDbEntity
  8
03___PRT_ALL_CURVES
100
AcDbLine
 62
4
  6
CONTINUOUS
 10
-223.6430141198
 20
143.3517376816
 11
-231.621737318
 21
143.3517376816
  0
LINE
  5
2BC
100
AcDbEntity
  8
03___PRT_ALL_CURVES
100
AcDbLine
 62
4
  6
CONTINUOUS
 10
-185.1323760914
 20
143.7684063351
 11
-181.9408871102
 21
143.7684063351
  0
LINE
  5
2BD
100
AcDbEntity
  8
03___PRT_ALL_CURVES
100
AcDbLine
 62
4
  6
CONTINUOUS
 10
-163.3238654452
 20
143.7684063351
 11
-160.1323760914
 21
143.7684063351
  0
LINE
  5
2BE
100
AcDbEntity
  8
03___PRT_ALL_CURVES
100
AcDbLine
 62
4
  6
CONTINUOUS
 10
-231.621737318
 20
140.2267376816
 11
-234.2813129591
 21
140.7475720084
  0
LINE
  5
2BF
100
AcDbEntity
  8
03___PRT_ALL_CURVES
100
AcDbLine
 62
4
  6
CONTINUOUS
 10
-231.621737318
 20
143.3517376816
 11
-233.7493966388
 21
143.8725720084
  0
LINE
  5
2C0
100
AcDbEntity
  8
03___PRT_ALL_CURVES
100
AcDbLine
 62
4
  6
CONTINUOUS
 10
-235.3451426195
 20
144.9142376816
 11
-236.40897228
 21
146.4767376816
  0
LINE
  5
2C1
100
AcDbEntity
  8
03___PRT_ALL_CURVES
100
AcDbLine
 62
4
  6
CONTINUOUS
 10
-238.5366316008
 20
143.8725720084
 11
-239.6004612612
 21
145.9559063351
  0
LINE
  5
2C2
100
AcDbEntity
  8
03___PRT_ALL_CURVES
100
AcDbLine
 62
4
  6
CONTINUOUS
 10
-236.40897228
 20
146.4767376816
 11
-236.9408871102
 21
148.5600720084
  0
LINE
  5
2C3
100
AcDbEntity
  8
03___PRT_ALL_CURVES
100
AcDbLine
 62
4
  6
CONTINUOUS
 10
-239.6004612612
 20
145.9559063351
 11
-240.1323760914
 21
148.5600720084
  0
LINE
  5
2C4
100
AcDbEntity
  8
03___PRT_ALL_CURVES
100
AcDbLine
 62
4
  6
CONTINUOUS
 10
-240.1323760914
 20
183.9767406618
 11
-240.1323760914
 21
180.8517406618
  0
LINE
  5
2C5
100
AcDbEntity
  8
03___PRT_ALL_CURVES
100
AcDbLine
 62
4
  6
CONTINUOUS
 10
-240.1323760914
 20
168.3517406618
 11
-240.1323760914
 21
165.2267406618
  0
LINE
  5
2C6
100
AcDbEntity
  8
03___PRT_ALL_CURVES
100
AcDbLine
 62
4
  6
CONTINUOUS
 10
-240.1323760914
 20
111.0600720084
 11
-240.1323760914
 21
115.7475720084
  0
LINE
  5
2C7
100
AcDbEntity
  8
03___PRT_ALL_CURVES
100
AcDbLine
 62
4
  6
CONTINUOUS
 10
-240.1323760914
 20
131.3725720084
 11
-240.1323760914
 21
136.0600720084
  0
LINE
  5
2C8
100
AcDbEntity
  8
03___PRT_ALL_CURVES
100
AcDbLine
 62
4
  6
CONTINUOUS
 10
-240.1323760914
 20
148.5600720084
 11
-240.1323760914
 21
152.7267376816
  0
LINE
  5
2C9
100
AcDbEntity
  8
03___PRT_ALL_CURVES
100
AcDbLine
 62
4
  6
CONTINUOUS
 10
-240.1323760914
 20
188.1434033549
 11
-240.1323760914
 21
192.8309033549
  0
LINE
  5
2CA
100
AcDbEntity
  8
03___PRT_ALL_CURVES
100
AcDbLine
 62
4
  6
CONTINUOUS
 10
-240.1323760914
 20
205.8517406618
 11
-240.1323760914
 21
208.9767406618
  0
LINE
  5
2CB
100
AcDbEntity
  8
03___PRT_ALL_CURVES
100
AcDbLine
 62
4
  6
CONTINUOUS
 10
-240.1323760914
 20
213.1434093153
 11
-240.1323760914
 21
232.9350720084
  0
LINE
  5
2CC
100
AcDbEntity
  8
03___PRT_ALL_CURVES
100
AcDbLine
 62
4
  6
CONTINUOUS
 10
-240.1323760914
 20
237.1017347014
 11
-240.1323760914
 21
240.2267347014
  0
LINE
  5
2CD
100
AcDbEntity
  8
03___PRT_ALL_CURVES
100
AcDbLine
 62
4
  6
CONTINUOUS
 10
-240.1323760914
 20
244.3934093153
 11
-240.1323760914
 21
249.0809093153
  0
LINE
  5
2CE
100
AcDbEntity
  8
03___PRT_ALL_CURVES
100
AcDbLine
 62
4
  6
CONTINUOUS
 10
-240.1323760914
 20
262.1017347014
 11
-240.1323760914
 21
265.2267347014
  0
LINE
  5
2CF
100
AcDbEntity
  8
03___PRT_ALL_CURVES
100
AcDbLine
 62
4
  6
CONTINUOUS
 10
-240.1323760914
 20
277.7267347014
 11
-240.1323760914
 21
282.4142347014
  0
LINE
  5
2D0
100
AcDbEntity
  8
03___PRT_ALL_CURVES
100
AcDbLine
 62
4
  6
CONTINUOUS
 10
-237.4728019404
 20
232.9350720084
 11
-237.4728019404
 21
224.6017347014
  0
LINE
  5
2D1
100
AcDbEntity
  8
03___PRT_ALL_CURVES
100
AcDbLine
 62
4
  6
CONTINUOUS
 10
-237.4728019404
 20
221.4767347014
 11
-237.4728019404
 21
213.1434093153
  0
LINE
  5
2D2
100
AcDbEntity
  8
03___PRT_ALL_CURVES
100
AcDbLine
 62
4
  6
CONTINUOUS
 10
-236.9408871102
 20
282.4142347014
 11
-236.9408871102
 21
277.7267347014
  0
LINE
  5
2D3
100
AcDbEntity
  8
03___PRT_ALL_CURVES
100
AcDbLine
 62
4
  6
CONTINUOUS
 10
-236.9408871102
 20
148.5600720084
 11
-236.9408871102
 21
152.7267376816
  0
LINE
  5
2D4
100
AcDbEntity
  8
03___PRT_ALL_CURVES
100
AcDbLine
 62
4
  6
CONTINUOUS
 10
-233.7493966388
 20
289.7059093153
 11
-233.7493966388
 21
286.5809093153
  0
LINE
  5
2D5
100
AcDbEntity
  8
03___PRT_ALL_CURVES
100
AcDbLine
 62
4
  6
CONTINUOUS
 10
-218.8557802754
 20
275.6434093153
 11
-218.3238654452
 21
277.7267347014
  0
LINE
  5
2D6
100
AcDbEntity
  8
03___PRT_ALL_CURVES
100
AcDbLine
 62
4
  6
CONTINUOUS
 10
-185.1323760914
 20
235.9559093153
 11
-160.1323760914
 21
244.2892347014
  0
LINE
  5
2D7
100
AcDbEntity
  8
03___PRT_ALL_CURVES
100
AcDbLine
 62
4
  6
CONTINUOUS
 10
-183.0047167706
 20
233.8725720084
 11
-168.6430141198
 21
238.5600720084
  0
LINE
  5
2D8
100
AcDbEntity
  8
03___PRT_ALL_CURVES
100
AcDbLine
 62
4
  6
CONTINUOUS
 10
-160.1323760914
 20
241.1642347014
 11
-166.515354799
 21
239.0809093153
  0
LINE
  5
2D9
100
AcDbEntity
  8
03___PRT_ALL_CURVES
100
AcDbLine
 62
4
  6
CONTINUOUS
 10
-221.515354799
 20
143.8725720084
 11
-223.6430141198
 21
143.3517376816
  0
LINE
  5
2DA
100
AcDbEntity
  8
03___PRT_ALL_CURVES
100
AcDbLine
 62
4
  6
CONTINUOUS
 10
-220.9834399688
 20
140.7475720084
 11
-223.6430141198
 21
140.2267376816
  0
LINE
  5
2DB
100
AcDbEntity
  8
03___PRT_ALL_CURVES
100
AcDbLine
 62
4
  6
CONTINUOUS
 10
-160.1323760914
 20
147.9350720084
 11
-185.1323760914
 21
147.9350720084
  0
LINE
  5
2DC
100
AcDbEntity
  8
03___PRT_ALL_CURVES
100
AcDbLine
 62
4
  6
CONTINUOUS
 10
-179.8132277893
 20
151.0600720084
 11
-160.1323760914
 21
151.0600720084
  0
LINE
  5
2DD
100
AcDbEntity
  8
03___PRT_ALL_CURVES
100
AcDbLine
 62
4
  6
CONTINUOUS
 10
-223.6430141198
 20
157.9350720084
 11
-221.515354799
 21
157.4142376816
  0
LINE
  5
2DE
100
AcDbEntity
  8
03___PRT_ALL_CURVES
100
AcDbLine
 62
4
  6
CONTINUOUS
 10
-220.9834399688
 20
160.5392376816
 11
-218.8557802754
 21
159.4975720084
  0
LINE
  5
2DF
100
AcDbEntity
  8
03___PRT_ALL_CURVES
100
AcDbLine
 62
4
  6
CONTINUOUS
 10
-221.515354799
 20
157.4142376816
 11
-219.9196103083
 21
156.3725720084
  0
LINE
  5
2E0
100
AcDbEntity
  8
03___PRT_ALL_CURVES
100
AcDbLine
 62
4
  6
CONTINUOUS
 10
-218.8557802754
 20
159.4975720084
 11
-216.7281207683
 21
157.4142376816
  0
LINE
  5
2E1
100
AcDbEntity
  8
03___PRT_ALL_CURVES
100
AcDbLine
 62
4
  6
CONTINUOUS
 10
-219.9196103083
 20
156.3725720084
 11
-218.8557802754
 21
154.8100720084
  0
LINE
  5
2E2
100
AcDbEntity
  8
03___PRT_ALL_CURVES
100
AcDbLine
 62
4
  6
CONTINUOUS
 10
-228.9621631669
 20
281.8934093153
 11
-228.9621631669
 21
289.7059093153
  0
LINE
  5
2E3
100
AcDbEntity
  8
03___PRT_ALL_CURVES
100
AcDbLine
 62
4
  6
CONTINUOUS
 10
-225.7706741857
 20
286.5809093153
 11
-225.7706741857
 21
281.8934093153
  0
LINE
  5
2E4
100
AcDbEntity
  8
03___PRT_ALL_CURVES
100
AcDbLine
 62
4
  6
CONTINUOUS
 10
-215.1323760914
 20
277.7267347014
 11
-215.6642909682
 21
275.1225720084
  0
LINE
  5
2E5
100
AcDbEntity
  8
03___PRT_ALL_CURVES
100
AcDbLine
 62
4
  6
CONTINUOUS
 10
-240.1323760914
 20
152.7267376816
 11
-239.6004612612
 21
155.3309063351
  0
LINE
  5
2E6
100
AcDbEntity
  8
03___PRT_ALL_CURVES
100
AcDbLine
 62
4
  6
CONTINUOUS
 10
-236.9408871102
 20
152.7267376816
 11
-236.40897228
 21
154.8100720084
  0
LINE
  5
2E7
100
AcDbEntity
  8
03___PRT_ALL_CURVES
100
AcDbLine
 62
4
  6
CONTINUOUS
 10
-240.1323760914
 20
192.8309033549
 11
-218.8557802754
 21
205.8517406618
  0
LINE
  5
2E8
100
AcDbEntity
  8
03___PRT_ALL_CURVES
100
AcDbLine
 62
4
  6
CONTINUOUS
 10
-233.7493966388
 20
157.4142376816
 11
-231.621737318
 21
157.9350720084
  0
LINE
  5
2E9
100
AcDbEntity
  8
03___PRT_ALL_CURVES
100
AcDbLine
 62
4
  6
CONTINUOUS
 10
-234.2813129591
 20
160.5392376816
 11
-231.621737318
 21
161.0600720084
  0
LINE
  5
2EA
100
AcDbEntity
  8
03___PRT_ALL_CURVES
100
AcDbLine
 62
4
  6
CONTINUOUS
 10
-231.621737318
 20
157.9350720084
 11
-223.6430141198
 21
157.9350720084
  0
LINE
  5
2EB
100
AcDbEntity
  8
03___PRT_ALL_CURVES
100
AcDbLine
 62
4
  6
CONTINUOUS
 10
-231.621737318
 20
161.0600720084
 11
-223.6430141198
 21
161.0600720084
  0
LINE
  5
2EC
100
AcDbEntity
  8
03___PRT_ALL_CURVES
100
AcDbLine
 62
4
  6
CONTINUOUS
 10
-240.1323760914
 20
165.2267406618
 11
-223.6430141198
 21
165.2267406618
  0
LINE
  5
2ED
100
AcDbEntity
  8
03___PRT_ALL_CURVES
100
AcDbLine
 62
4
  6
CONTINUOUS
 10
-223.6430141198
 20
168.3517406618
 11
-240.1323760914
 21
168.3517406618
  0
LINE
  5
2EE
100
AcDbEntity
  8
03___PRT_ALL_CURVES
100
AcDbLine
 62
4
  6
CONTINUOUS
 10
-223.6430141198
 20
161.0600720084
 11
-220.9834399688
 21
160.5392376816
  0
LINE
  5
2EF
100
AcDbEntity
  8
03___PRT_ALL_CURVES
100
AcDbLine
 62
4
  6
CONTINUOUS
 10
-219.9196103083
 20
179.2892406618
 11
-218.8557802754
 21
177.7267406618
  0
LINE
  5
2F0
100
AcDbEntity
  8
03___PRT_ALL_CURVES
100
AcDbLine
 62
4
  6
CONTINUOUS
 10
-216.7281207683
 20
157.4142376816
 11
-215.6642909682
 21
155.3309063351
  0
LINE
  5
2F1
100
AcDbEntity
  8
03___PRT_ALL_CURVES
100
AcDbLine
 62
4
  6
CONTINUOUS
 10
-218.8557802754
 20
154.8100720084
 11
-218.3238654452
 21
152.7267376816
  0
LINE
  5
2F2
100
AcDbEntity
  8
03___PRT_ALL_CURVES
100
AcDbLine
 62
4
  6
CONTINUOUS
 10
-218.8557802754
 20
177.7267406618
 11
-218.3238654452
 21
175.6434033549
  0
LINE
  5
2F3
100
AcDbEntity
  8
03___PRT_ALL_CURVES
100
AcDbLine
 62
4
  6
CONTINUOUS
 10
-215.6642909682
 20
155.3309063351
 11
-215.1323760914
 21
152.7267376816
  0
LINE
  5
2F4
100
AcDbEntity
  8
03___PRT_ALL_CURVES
100
AcDbLine
 62
4
  6
CONTINUOUS
 10
-239.6004612612
 20
275.1225720084
 11
-240.1323760914
 21
277.7267347014
  0
LINE
  5
2F5
100
AcDbEntity
  8
03___PRT_ALL_CURVES
100
AcDbLine
 62
4
  6
CONTINUOUS
 10
-218.3238654452
 20
175.6434033549
 11
-218.3238654452
 21
173.5600720084
  0
LINE
  5
2F6
100
AcDbEntity
  8
03___PRT_ALL_CURVES
100
AcDbLine
 62
4
  6
CONTINUOUS
 10
-218.3238654452
 20
152.7267376816
 11
-218.3238654452
 21
148.5600720084
  0
LINE
  5
2F7
100
AcDbEntity
  8
03___PRT_ALL_CURVES
100
AcDbLine
 62
4
  6
CONTINUOUS
 10
-218.3238654452
 20
277.7267347014
 11
-218.3238654452
 21
282.4142347014
  0
LINE
  5
2F8
100
AcDbEntity
  8
03___PRT_ALL_CURVES
100
AcDbLine
 62
4
  6
CONTINUOUS
 10
-215.1323760914
 20
282.4142347014
 11
-215.1323760914
 21
277.7267347014
  0
LINE
  5
2F9
100
AcDbEntity
  8
03___PRT_ALL_CURVES
100
AcDbLine
 62
4
  6
CONTINUOUS
 10
-215.1323760914
 20
265.2267347014
 11
-215.1323760914
 21
260.5392347014
  0
LINE
  5
2FA
100
AcDbEntity
  8
03___PRT_ALL_CURVES
100
AcDbLine
 62
4
  6
CONTINUOUS
 10
-215.1323760914
 20
247.5184093153
 11
-215.1323760914
 21
244.3934093153
  0
LINE
  5
2FB
100
AcDbEntity
  8
03___PRT_ALL_CURVES
100
AcDbLine
 62
4
  6
CONTINUOUS
 10
-215.1323760914
 20
240.2267347014
 11
-215.1323760914
 21
237.1017347014
  0
LINE
  5
2FC
100
AcDbEntity
  8
03___PRT_ALL_CURVES
100
AcDbLine
 62
4
  6
CONTINUOUS
 10
-215.1323760914
 20
224.6017347014
 11
-215.1323760914
 21
221.4767347014
  0
LINE
  5
2FD
100
AcDbEntity
  8
03___PRT_ALL_CURVES
100
AcDbLine
 62
4
  6
CONTINUOUS
 10
-215.1323760914
 20
208.9767406618
 11
-215.1323760914
 21
204.2892406618
  0
LINE
  5
2FE
100
AcDbEntity
  8
03___PRT_ALL_CURVES
100
AcDbLine
 62
4
  6
CONTINUOUS
 10
-215.1323760914
 20
191.2684033549
 11
-215.1323760914
 21
188.1434033549
  0
LINE
  5
2FF
100
AcDbEntity
  8
03___PRT_ALL_CURVES
100
AcDbLine
 62
4
  6
CONTINUOUS
 10
-215.1323760914
 20
152.7267376816
 11
-215.1323760914
 21
148.5600720084
  0
LINE
  5
300
100
AcDbEntity
  8
03___PRT_ALL_CURVES
100
AcDbLine
 62
4
  6
CONTINUOUS
 10
-215.1323760914
 20
136.0600720084
 11
-215.1323760914
 21
132.9350720084
  0
LINE
  5
301
100
AcDbEntity
  8
03___PRT_ALL_CURVES
100
AcDbLine
 62
4
  6
CONTINUOUS
 10
-215.1323760914
 20
125.643404845
 11
-215.1323760914
 21
121.4767384267
  0
LINE
  5
302
100
AcDbEntity
  8
03___PRT_ALL_CURVES
100
AcDbLine
 62
4
  6
CONTINUOUS
 10
-215.1323760914
 20
114.1850720084
 11
-215.1323760914
 21
111.0600720084
  0
LINE
  5
303
100
AcDbEntity
  8
03___PRT_ALL_CURVES
100
AcDbLine
 62
4
  6
CONTINUOUS
 10
-215.1323760914
 20
173.5600720084
 11
-215.1323760914
 21
175.6434033549
  0
LINE
  5
304
100
AcDbEntity
  8
03___PRT_ALL_CURVES
100
AcDbLine
 62
4
  6
CONTINUOUS
 10
-215.6642909682
 20
170.9559033549
 11
-215.1323760914
 21
173.5600720084
  0
LINE
  5
305
100
AcDbEntity
  8
03___PRT_ALL_CURVES
100
AcDbLine
 62
4
  6
CONTINUOUS
 10
-218.3238654452
 20
173.5600720084
 11
-218.8557802754
 21
171.4767406618
  0
LINE
  5
306
100
AcDbEntity
  8
03___PRT_ALL_CURVES
100
AcDbLine
 62
4
  6
CONTINUOUS
 10
-239.6004612612
 20
155.3309063351
 11
-238.5366316008
 21
157.4142376816
  0
LINE
  5
307
100
AcDbEntity
  8
03___PRT_ALL_CURVES
100
AcDbLine
 62
4
  6
CONTINUOUS
 10
-236.40897228
 20
154.8100720084
 11
-235.3451426195
 21
156.3725720084
  0
LINE
  5
308
100
AcDbEntity
  8
03___PRT_ALL_CURVES
100
AcDbLine
 62
4
  6
CONTINUOUS
 10
-215.1323760914
 20
204.2892406618
 11
-236.9408871102
 21
191.2684033549
  0
LINE
  5
309
100
AcDbEntity
  8
03___PRT_ALL_CURVES
100
AcDbLine
 62
4
  6
CONTINUOUS
 10
-221.515354799
 20
168.8725720084
 11
-223.6430141198
 21
168.3517406618
  0
LINE
  5
30A
100
AcDbEntity
  8
03___PRT_ALL_CURVES
100
AcDbLine
 62
4
  6
CONTINUOUS
 10
-223.6430141198
 20
165.2267406618
 11
-220.9834399688
 21
165.7475720084
  0
LINE
  5
30B
100
AcDbEntity
  8
03___PRT_ALL_CURVES
100
AcDbLine
 62
4
  6
CONTINUOUS
 10
-160.1323760914
 20
169.8100720084
 11
-179.8132277893
 21
169.8100720084
  0
LINE
  5
30C
100
AcDbEntity
  8
03___PRT_ALL_CURVES
100
AcDbLine
 62
4
  6
CONTINUOUS
 10
-185.1323760914
 20
172.9350720084
 11
-160.1323760914
 21
172.9350720084
  0
LINE
  5
30D
100
AcDbEntity
  8
03___PRT_ALL_CURVES
100
AcDbLine
 62
4
  6
CONTINUOUS
 10
-160.1323760914
 20
177.1017406618
 11
-185.1323760914
 21
177.1017406618
  0
LINE
  5
30E
100
AcDbEntity
  8
03___PRT_ALL_CURVES
100
AcDbLine
 62
4
  6
CONTINUOUS
 10
-182.4728019404
 20
180.2267406618
 11
-174.4940779971
 21
180.2267406618
  0
LINE
  5
30F
100
AcDbEntity
  8
03___PRT_ALL_CURVES
100
AcDbLine
 62
4
  6
CONTINUOUS
 10
-171.3025890159
 20
180.2267406618
 11
-160.1323760914
 21
180.2267406618
  0
LINE
  5
310
100
AcDbEntity
  8
03___PRT_ALL_CURVES
100
AcDbLine
 62
4
  6
CONTINUOUS
 10
-220.9834399688
 20
183.4559033549
 11
-223.6430141198
 21
183.9767406618
  0
LINE
  5
311
100
AcDbEntity
  8
03___PRT_ALL_CURVES
100
AcDbLine
 62
4
  6
CONTINUOUS
 10
-223.6430141198
 20
180.8517406618
 11
-221.515354799
 21
180.3309033549
  0
LINE
  5
312
100
AcDbEntity
  8
03___PRT_ALL_CURVES
100
AcDbLine
 62
4
  6
CONTINUOUS
 10
-162.791950615
 20
160.4350720084
 11
-185.1323760914
 21
168.2475720084
  0
LINE
  5
313
100
AcDbEntity
  8
03___PRT_ALL_CURVES
100
AcDbLine
 62
4
  6
CONTINUOUS
 10
-179.8132277893
 20
169.8100720084
 11
-160.1323760914
 21
162.5184033549
  0
LINE
  5
314
100
AcDbEntity
  8
03___PRT_ALL_CURVES
100
AcDbLine
 62
4
  6
CONTINUOUS
 10
-218.8557802754
 20
182.4142406618
 11
-220.9834399688
 21
183.4559033549
  0
LINE
  5
315
100
AcDbEntity
  8
03___PRT_ALL_CURVES
100
AcDbLine
 62
4
  6
CONTINUOUS
 10
-221.515354799
 20
180.3309033549
 11
-219.9196103083
 21
179.2892406618
  0
LINE
  5
316
100
AcDbEntity
  8
03___PRT_ALL_CURVES
100
AcDbLine
 62
4
  6
CONTINUOUS
 10
-216.7281207683
 20
180.3309033549
 11
-218.8557802754
 21
182.4142406618
  0
LINE
  5
317
100
AcDbEntity
  8
03___PRT_ALL_CURVES
100
AcDbLine
 62
4
  6
CONTINUOUS
 10
-215.6642909682
 20
178.2475720084
 11
-216.7281207683
 21
180.3309033549
  0
LINE
  5
318
100
AcDbEntity
  8
03___PRT_ALL_CURVES
100
AcDbLine
 62
4
  6
CONTINUOUS
 10
-236.9408871102
 20
277.7267347014
 11
-236.40897228
 21
275.6434093153
  0
LINE
  5
319
100
AcDbEntity
  8
03___PRT_ALL_CURVES
100
AcDbLine
 62
4
  6
CONTINUOUS
 10
-215.1323760914
 20
175.6434033549
 11
-215.6642909682
 21
178.2475720084
  0
LINE
  5
31A
100
AcDbEntity
  8
03___PRT_ALL_CURVES
100
AcDbLine
 62
4
  6
CONTINUOUS
 10
-215.1323760914
 20
148.5600720084
 11
-215.6642909682
 21
145.9559063351
  0
LINE
  5
31B
100
AcDbEntity
  8
03___PRT_ALL_CURVES
100
AcDbLine
 62
4
  6
CONTINUOUS
 10
-218.3238654452
 20
148.5600720084
 11
-218.8557802754
 21
146.4767376816
  0
LINE
  5
31C
100
AcDbEntity
  8
03___PRT_ALL_CURVES
100
AcDbLine
 62
4
  6
CONTINUOUS
 10
-216.7281207683
 20
168.8725720084
 11
-215.6642909682
 21
170.9559033549
  0
LINE
  5
31D
100
AcDbEntity
  8
03___PRT_ALL_CURVES
100
AcDbLine
 62
4
  6
CONTINUOUS
 10
-218.8557802754
 20
171.4767406618
 11
-219.9196103083
 21
169.9142406618
  0
LINE
  5
31E
100
AcDbEntity
  8
03___PRT_ALL_CURVES
100
AcDbLine
 62
4
  6
CONTINUOUS
 10
-238.5366316008
 20
157.4142376816
 11
-236.40897228
 21
159.4975720084
  0
LINE
  5
31F
100
AcDbEntity
  8
03___PRT_ALL_CURVES
100
AcDbLine
 62
4
  6
CONTINUOUS
 10
-180.8770574497
 20
195.8517406618
 11
-179.2813129591
 21
196.3725720084
  0
LINE
  5
320
100
AcDbEntity
  8
03___PRT_ALL_CURVES
100
AcDbLine
 62
4
  6
CONTINUOUS
 10
-240.1323760914
 20
180.8517406618
 11
-223.6430141198
 21
180.8517406618
  0
LINE
  5
321
100
AcDbEntity
  8
03___PRT_ALL_CURVES
100
AcDbLine
 62
4
  6
CONTINUOUS
 10
-223.6430141198
 20
183.9767406618
 11
-240.1323760914
 21
183.9767406618
  0
LINE
  5
322
100
AcDbEntity
  8
03___PRT_ALL_CURVES
100
AcDbLine
 62
4
  6
CONTINUOUS
 10
-215.1323760914
 20
188.1434033549
 11
-240.1323760914
 21
188.1434033549
  0
LINE
  5
323
100
AcDbEntity
  8
03___PRT_ALL_CURVES
100
AcDbLine
 62
4
  6
CONTINUOUS
 10
-236.9408871102
 20
191.2684033549
 11
-215.1323760914
 21
191.2684033549
  0
LINE
  5
324
100
AcDbEntity
  8
03___PRT_ALL_CURVES
100
AcDbLine
 62
4
  6
CONTINUOUS
 10
-215.6642909682
 20
145.9559063351
 11
-216.7281207683
 21
143.8725720084
  0
LINE
  5
325
100
AcDbEntity
  8
03___PRT_ALL_CURVES
100
AcDbLine
 62
4
  6
CONTINUOUS
 10
-218.8557802754
 20
146.4767376816
 11
-219.9196103083
 21
144.9142376816
  0
LINE
  5
326
100
AcDbEntity
  8
03___PRT_ALL_CURVES
100
AcDbLine
 62
4
  6
CONTINUOUS
 10
-184.6004612612
 20
192.2059033549
 11
-183.0047167706
 21
194.2892406618
  0
LINE
  5
327
100
AcDbEntity
  8
03___PRT_ALL_CURVES
100
AcDbLine
 62
4
  6
CONTINUOUS
 10
-218.8557802754
 20
166.7892406618
 11
-216.7281207683
 21
168.8725720084
  0
LINE
  5
328
100
AcDbEntity
  8
03___PRT_ALL_CURVES
100
AcDbLine
 62
4
  6
CONTINUOUS
 10
-180.8770574497
 20
192.7267406618
 11
-181.9408871102
 21
191.6850720084
  0
LINE
  5
329
100
AcDbEntity
  8
03___PRT_ALL_CURVES
100
AcDbLine
 62
4
  6
CONTINUOUS
 10
-183.0047167706
 20
194.2892406618
 11
-180.8770574497
 21
195.8517406618
  0
LINE
  5
32A
100
AcDbEntity
  8
03___PRT_ALL_CURVES
100
AcDbLine
 62
4
  6
CONTINUOUS
 10
-219.9196103083
 20
169.9142406618
 11
-221.515354799
 21
168.8725720084
  0
LINE
  5
32B
100
AcDbEntity
  8
03___PRT_ALL_CURVES
100
AcDbLine
 62
4
  6
CONTINUOUS
 10
-235.3451426195
 20
156.3725720084
 11
-233.7493966388
 21
157.4142376816
  0
LINE
  5
32C
100
AcDbEntity
  8
03___PRT_ALL_CURVES
100
AcDbLine
 62
4
  6
CONTINUOUS
 10
-236.40897228
 20
159.4975720084
 11
-234.2813129591
 21
160.5392376816
  0
LINE
  5
32D
100
AcDbEntity
  8
03___PRT_ALL_CURVES
100
AcDbLine
 62
4
  6
CONTINUOUS
 10
-220.9834399688
 20
165.7475720084
 11
-218.8557802754
 21
166.7892406618
  0
LINE
  5
32E
100
AcDbEntity
  8
03___PRT_ALL_CURVES
100
AcDbLine
 62
4
  6
CONTINUOUS
 10
-179.2813129591
 20
193.2475720084
 11
-180.8770574497
 21
192.7267406618
  0
LINE
  5
32F
100
AcDbEntity
  8
03___PRT_ALL_CURVES
100
AcDbLine
 62
4
  6
CONTINUOUS
 10
-177.6855669784
 20
193.2475720084
 11
-179.2813129591
 21
193.2475720084
  0
LINE
  5
330
100
AcDbEntity
  8
03___PRT_ALL_CURVES
100
AcDbLine
 62
4
  6
CONTINUOUS
 10
-179.2813129591
 20
196.3725720084
 11
-177.1536521482
 21
196.3725720084
  0
LINE
  5
331
100
AcDbEntity
  8
03___PRT_ALL_CURVES
100
AcDbLine
 62
4
  6
CONTINUOUS
 10
-160.1323760914
 20
200.5392406618
 11
-185.1323760914
 21
200.5392406618
  0
LINE
  5
332
100
AcDbEntity
  8
03___PRT_ALL_CURVES
100
AcDbLine
 62
4
  6
CONTINUOUS
 10
-185.1323760914
 20
203.6642347014
 11
-163.3238654452
 21
203.6642347014
  0
LINE
  5
333
100
AcDbEntity
  8
03___PRT_ALL_CURVES
100
AcDbLine
 62
4
  6
CONTINUOUS
 10
-176.0898224878
 20
192.7267406618
 11
-177.6855669784
 21
193.2475720084
  0
LINE
  5
334
100
AcDbEntity
  8
03___PRT_ALL_CURVES
100
AcDbLine
 62
4
  6
CONTINUOUS
 10
-177.1536521482
 20
196.3725720084
 11
-175.5579076576
 21
195.8517406618
  0
LINE
  5
335
100
AcDbEntity
  8
03___PRT_ALL_CURVES
100
AcDbLine
 62
4
  6
CONTINUOUS
 10
-238.5366316008
 20
273.0392347014
 11
-239.6004612612
 21
275.1225720084
  0
LINE
  5
336
100
AcDbEntity
  8
03___PRT_ALL_CURVES
100
AcDbLine
 62
4
  6
CONTINUOUS
 10
-218.3238654452
 20
282.4142347014
 11
-218.8557802754
 21
284.4975720084
  0
LINE
  5
337
100
AcDbEntity
  8
03___PRT_ALL_CURVES
100
AcDbLine
 62
4
  6
CONTINUOUS
 10
-215.6642909682
 20
285.0184093153
 11
-215.1323760914
 21
282.4142347014
  0
LINE
  5
338
100
AcDbEntity
  8
03___PRT_ALL_CURVES
100
AcDbLine
 62
4
  6
CONTINUOUS
 10
-185.1323760914
 20
101.0600720084
 11
-185.1323760914
 21
120.8517391717
  0
LINE
  5
339
100
AcDbEntity
  8
03___PRT_ALL_CURVES
100
AcDbLine
 62
4
  6
CONTINUOUS
 10
-185.1323760914
 20
125.018404845
 11
-185.1323760914
 21
143.7684063351
  0
LINE
  5
33A
100
AcDbEntity
  8
03___PRT_ALL_CURVES
100
AcDbLine
 62
4
  6
CONTINUOUS
 10
-185.1323760914
 20
147.9350720084
 11
-185.1323760914
 21
152.6225720084
  0
LINE
  5
33B
100
AcDbEntity
  8
03___PRT_ALL_CURVES
100
AcDbLine
 62
4
  6
CONTINUOUS
 10
-185.1323760914
 20
168.2475720084
 11
-185.1323760914
 21
172.9350720084
  0
LINE
  5
33C
100
AcDbEntity
  8
03___PRT_ALL_CURVES
100
AcDbLine
 62
4
  6
CONTINUOUS
 10
-185.1323760914
 20
177.1017406618
 11
-185.1323760914
 21
189.6017406618
  0
LINE
  5
33D
100
AcDbEntity
  8
03___PRT_ALL_CURVES
100
AcDbLine
 62
4
  6
CONTINUOUS
 10
-185.1323760914
 20
200.5392406618
 11
-185.1323760914
 21
203.6642347014
  0
LINE
  5
33E
100
AcDbEntity
  8
03___PRT_ALL_CURVES
100
AcDbLine
 62
4
  6
CONTINUOUS
 10
-185.1323760914
 20
231.7892347014
 11
-185.1323760914
 21
235.9559093153
  0
LINE
  5
33F
100
AcDbEntity
  8
03___PRT_ALL_CURVES
100
AcDbLine
 62
4
  6
CONTINUOUS
 10
-185.1323760914
 20
248.4559093153
 11
-185.1323760914
 21
268.2475720084
  0
LINE
  5
340
100
AcDbEntity
  8
03___PRT_ALL_CURVES
100
AcDbLine
 62
4
  6
CONTINUOUS
 10
-185.1323760914
 20
272.4142347014
 11
-185.1323760914
 21
291.1642347014
  0
LINE
  5
341
100
AcDbEntity
  8
03___PRT_ALL_CURVES
100
AcDbLine
 62
4
  6
CONTINUOUS
 10
-182.4728019404
 20
268.2475720084
 11
-182.4728019404
 21
259.9142347014
  0
LINE
  5
342
100
AcDbEntity
  8
03___PRT_ALL_CURVES
100
AcDbLine
 62
4
  6
CONTINUOUS
 10
-182.4728019404
 20
256.7892347014
 11
-182.4728019404
 21
248.4559093153
  0
LINE
  5
343
100
AcDbEntity
  8
03___PRT_ALL_CURVES
100
AcDbLine
 62
4
  6
CONTINUOUS
 10
-182.4728019404
 20
190.1225720084
 11
-182.4728019404
 21
180.2267406618
  0
LINE
  5
344
100
AcDbEntity
  8
03___PRT_ALL_CURVES
100
AcDbLine
 62
4
  6
CONTINUOUS
 10
-182.4728019404
 20
120.8517391717
 11
-182.4728019404
 21
112.51840559
  0
LINE
  5
345
100
AcDbEntity
  8
03___PRT_ALL_CURVES
100
AcDbLine
 62
4
  6
CONTINUOUS
 10
-182.4728019404
 20
109.39340559
 11
-182.4728019404
 21
101.0600720084
  0
LINE
  5
346
100
AcDbEntity
  8
03___PRT_ALL_CURVES
100
AcDbLine
 62
4
  6
CONTINUOUS
 10
-181.9408871102
 20
291.1642347014
 11
-181.9408871102
 21
275.5392347014
  0
LINE
  5
347
100
AcDbEntity
  8
03___PRT_ALL_CURVES
100
AcDbLine
 62
4
  6
CONTINUOUS
 10
-181.9408871102
 20
143.7684063351
 11
-181.9408871102
 21
128.1434063351
  0
LINE
  5
348
100
AcDbEntity
  8
03___PRT_ALL_CURVES
100
AcDbLine
 62
4
  6
CONTINUOUS
 10
-175.0259928273
 20
128.1434063351
 11
-175.0259928273
 21
141.6850720084
  0
LINE
  5
349
100
AcDbEntity
  8
03___PRT_ALL_CURVES
100
AcDbLine
 62
4
  6
CONTINUOUS
 10
-175.0259928273
 20
275.5392347014
 11
-175.0259928273
 21
289.0809093153
  0
LINE
  5
34A
100
AcDbEntity
  8
03___PRT_ALL_CURVES
100
AcDbLine
 62
4
  6
CONTINUOUS
 10
-174.4940779971
 20
180.2267406618
 11
-174.4940779971
 21
190.1225720084
  0
LINE
  5
34B
100
AcDbEntity
  8
03___PRT_ALL_CURVES
100
AcDbLine
 62
4
  6
CONTINUOUS
 10
-185.1323760914
 20
189.6017406618
 11
-184.6004612612
 21
192.2059033549
  0
LINE
  5
34C
100
AcDbEntity
  8
03___PRT_ALL_CURVES
100
AcDbLine
 62
4
  6
CONTINUOUS
 10
-181.9408871102
 20
191.6850720084
 11
-182.4728019404
 21
190.1225720084
  0
LINE
  5
34D
100
AcDbEntity
  8
03___PRT_ALL_CURVES
100
AcDbLine
 62
4
  6
CONTINUOUS
 10
-216.7281207683
 20
143.8725720084
 11
-218.8557802754
 21
141.7892376816
  0
LINE
  5
34E
100
AcDbEntity
  8
03___PRT_ALL_CURVES
100
AcDbLine
 62
4
  6
CONTINUOUS
 10
-218.8557802754
 20
205.8517406618
 11
-240.1323760914
 21
205.8517406618
  0
LINE
  5
34F
100
AcDbEntity
  8
03___PRT_ALL_CURVES
100
AcDbLine
 62
4
  6
CONTINUOUS
 10
-240.1323760914
 20
208.9767406618
 11
-215.1323760914
 21
208.9767406618
  0
LINE
  5
350
100
AcDbEntity
  8
03___PRT_ALL_CURVES
100
AcDbLine
 62
4
  6
CONTINUOUS
 10
-237.4728019404
 20
213.1434093153
 11
-240.1323760914
 21
213.1434093153
  0
LINE
  5
351
100
AcDbEntity
  8
03___PRT_ALL_CURVES
100
AcDbLine
 62
4
  6
CONTINUOUS
 10
-175.5579076576
 20
195.8517406618
 11
-173.4302483367
 21
194.2892406618
  0
LINE
  5
352
100
AcDbEntity
  8
03___PRT_ALL_CURVES
100
AcDbLine
 62
4
  6
CONTINUOUS
 10
-175.0259928273
 20
191.6850720084
 11
-176.0898224878
 21
192.7267406618
  0
LINE
  5
353
100
AcDbEntity
  8
03___PRT_ALL_CURVES
100
AcDbLine
 62
4
  6
CONTINUOUS
 10
-173.4302483367
 20
194.2892406618
 11
-171.8345038461
 21
192.2059033549
  0
LINE
  5
354
100
AcDbEntity
  8
03___PRT_ALL_CURVES
100
AcDbLine
 62
4
  6
CONTINUOUS
 10
-236.40897228
 20
275.6434093153
 11
-235.3451426195
 21
274.0809093153
  0
LINE
  5
355
100
AcDbEntity
  8
03___PRT_ALL_CURVES
100
AcDbLine
 62
4
  6
CONTINUOUS
 10
-174.4940779971
 20
190.1225720084
 11
-175.0259928273
 21
191.6850720084
  0
LINE
  5
356
100
AcDbEntity
  8
03___PRT_ALL_CURVES
100
AcDbLine
 62
4
  6
CONTINUOUS
 10
-171.8345038461
 20
289.0809093153
 11
-171.8345038461
 21
275.5392347014
  0
LINE
  5
357
100
AcDbEntity
  8
03___PRT_ALL_CURVES
100
AcDbLine
 62
4
  6
CONTINUOUS
 10
-171.8345038461
 20
141.6850720084
 11
-171.8345038461
 21
128.1434063351
  0
LINE
  5
358
100
AcDbEntity
  8
03___PRT_ALL_CURVES
100
AcDbLine
 62
4
  6
CONTINUOUS
 10
-171.3025890159
 20
189.6017406618
 11
-171.3025890159
 21
180.2267406618
  0
LINE
  5
359
100
AcDbEntity
  8
03___PRT_ALL_CURVES
100
AcDbLine
 62
4
  6
CONTINUOUS
 10
-168.6430141198
 20
238.5600720084
 11
-168.6430141198
 21
229.1850720084
  0
LINE
  5
35A
100
AcDbEntity
  8
03___PRT_ALL_CURVES
100
AcDbLine
 62
4
  6
CONTINUOUS
 10
-166.515354799
 20
239.0809093153
 11
-166.515354799
 21
228.6642347014
  0
LINE
  5
35B
100
AcDbEntity
  8
03___PRT_ALL_CURVES
100
AcDbLine
 62
4
  6
CONTINUOUS
 10
-163.3238654452
 20
128.1434063351
 11
-163.3238654452
 21
143.7684063351
  0
LINE
  5
35C
100
AcDbEntity
  8
03___PRT_ALL_CURVES
100
AcDbLine
 62
4
  6
CONTINUOUS
 10
-163.3238654452
 20
203.6642347014
 11
-163.3238654452
 21
219.2892347014
  0
LINE
  5
35D
100
AcDbEntity
  8
03___PRT_ALL_CURVES
100
AcDbLine
 62
4
  6
CONTINUOUS
 10
-163.3238654452
 20
275.5392347014
 11
-163.3238654452
 21
291.1642347014
  0
LINE
  5
35E
100
AcDbEntity
  8
03___PRT_ALL_CURVES
100
AcDbLine
 62
4
  6
CONTINUOUS
 10
-219.9196103083
 20
144.9142376816
 11
-221.515354799
 21
143.8725720084
  0
LINE
  5
35F
100
AcDbEntity
  8
03___PRT_ALL_CURVES
100
AcDbLine
 62
4
  6
CONTINUOUS
 10
-218.8557802754
 20
141.7892376816
 11
-220.9834399688
 21
140.7475720084
  0
LINE
  5
360
100
AcDbEntity
  8
03___PRT_ALL_CURVES
100
AcDbLine
 62
4
  6
CONTINUOUS
 10
-163.3238654452
 20
219.2892347014
 11
-160.1323760914
 21
219.2892347014
  0
LINE
  5
361
100
AcDbEntity
  8
03___PRT_ALL_CURVES
100
AcDbLine
 62
4
  6
CONTINUOUS
 10
-215.1323760914
 20
221.4767347014
 11
-237.4728019404
 21
221.4767347014
  0
LINE
  5
362
100
AcDbEntity
  8
03___PRT_ALL_CURVES
100
AcDbLine
 62
4
  6
CONTINUOUS
 10
-237.4728019404
 20
224.6017347014
 11
-215.1323760914
 21
224.6017347014
  0
LINE
  5
363
100
AcDbEntity
  8
03___PRT_ALL_CURVES
100
AcDbLine
 62
4
  6
CONTINUOUS
 10
-236.40897228
 20
270.9559093153
 11
-238.5366316008
 21
273.0392347014
  0
LINE
  5
364
100
AcDbEntity
  8
03___PRT_ALL_CURVES
100
AcDbLine
 62
4
  6
CONTINUOUS
 10
-218.8557802754
 20
284.4975720084
 11
-219.9196103083
 21
286.0600720084
  0
LINE
  5
365
100
AcDbEntity
  8
03___PRT_ALL_CURVES
100
AcDbLine
 62
4
  6
CONTINUOUS
 10
-216.7281207683
 20
287.1017347014
 11
-215.6642909682
 21
285.0184093153
  0
LINE
  5
366
100
AcDbEntity
  8
03___PRT_ALL_CURVES
100
AcDbLine
 62
4
  6
CONTINUOUS
 10
-171.8345038461
 20
192.2059033549
 11
-171.3025890159
 21
189.6017406618
  0
LINE
  5
367
100
AcDbEntity
  8
03___PRT_ALL_CURVES
100
AcDbLine
 62
4
  6
CONTINUOUS
 10
-160.1323760914
 20
291.1642347014
 11
-160.1323760914
 21
272.4142347014
  0
LINE
  5
368
100
AcDbEntity
  8
03___PRT_ALL_CURVES
100
AcDbLine
 62
4
  6
CONTINUOUS
 10
-160.1323760914
 20
259.9142347014
 11
-160.1323760914
 21
256.7892347014
  0
LINE
  5
369
100
AcDbEntity
  8
03___PRT_ALL_CURVES
100
AcDbLine
 62
4
  6
CONTINUOUS
 10
-160.1323760914
 20
244.2892347014
 11
-160.1323760914
 21
241.1642347014
  0
LINE
  5
36A
100
AcDbEntity
  8
03___PRT_ALL_CURVES
100
AcDbLine
 62
4
  6
CONTINUOUS
 10
-160.1323760914
 20
226.5809093153
 11
-160.1323760914
 21
223.4559093153
  0
LINE
  5
36B
100
AcDbEntity
  8
03___PRT_ALL_CURVES
100
AcDbLine
 62
4
  6
CONTINUOUS
 10
-160.1323760914
 20
219.2892347014
 11
-160.1323760914
 21
200.5392406618
  0
LINE
  5
36C
100
AcDbEntity
  8
03___PRT_ALL_CURVES
100
AcDbLine
 62
4
  6
CONTINUOUS
 10
-160.1323760914
 20
180.2267406618
 11
-160.1323760914
 21
177.1017406618
  0
LINE
  5
36D
100
AcDbEntity
  8
03___PRT_ALL_CURVES
100
AcDbLine
 62
4
  6
CONTINUOUS
 10
-160.1323760914
 20
172.9350720084
 11
-160.1323760914
 21
169.8100720084
  0
LINE
  5
36E
100
AcDbEntity
  8
03___PRT_ALL_CURVES
100
AcDbLine
 62
4
  6
CONTINUOUS
 10
-160.1323760914
 20
162.5184033549
 11
-160.1323760914
 21
158.3517406618
  0
LINE
  5
36F
100
AcDbEntity
  8
03___PRT_ALL_CURVES
100
AcDbLine
 62
4
  6
CONTINUOUS
 10
-160.1323760914
 20
151.0600720084
 11
-160.1323760914
 21
147.9350720084
  0
LINE
  5
370
100
AcDbEntity
  8
03___PRT_ALL_CURVES
100
AcDbLine
 62
4
  6
CONTINUOUS
 10
-160.1323760914
 20
143.7684063351
 11
-160.1323760914
 21
125.018404845
  0
LINE
  5
371
100
AcDbEntity
  8
03___PRT_ALL_CURVES
100
AcDbLine
 62
4
  6
CONTINUOUS
 10
-160.1323760914
 20
112.51840559
 11
-160.1323760914
 21
109.39340559
  0
LINE
  5
372
100
AcDbEntity
  8
03___PRT_ALL_CURVES
100
AcDbLine
 62
4
  6
CONTINUOUS
 10
-160.1323760914
 20
158.3517406618
 11
-179.8132277893
 21
151.0600720084
  0
LINE
  5
373
100
AcDbEntity
  8
03___PRT_ALL_CURVES
100
AcDbLine
 62
4
  6
CONTINUOUS
 10
-185.1323760914
 20
152.6225720084
 11
-162.791950615
 21
160.4350720084
  0
LINE
  5
374
100
AcDbEntity
  8
03___PRT_ALL_CURVES
100
AcDbLine
 62
4
  6
CONTINUOUS
 10
-240.1323760914
 20
232.9350720084
 11
-237.4728019404
 21
232.9350720084
  0
LINE
  5
375
100
AcDbEntity
  8
03___PRT_ALL_CURVES
100
AcDbLine
 62
4
  6
CONTINUOUS
 10
-215.1323760914
 20
237.1017347014
 11
-240.1323760914
 21
237.1017347014
  0
LINE
  5
376
100
AcDbEntity
  8
03___PRT_ALL_CURVES
100
AcDbLine
 62
4
  6
CONTINUOUS
 10
-168.6430141198
 20
229.1850720084
 11
-183.0047167706
 21
233.8725720084
  0
LINE
  5
377
100
AcDbEntity
  8
03___PRT_ALL_CURVES
100
AcDbLine
 62
4
  6
CONTINUOUS
 10
-166.515354799
 20
228.6642347014
 11
-160.1323760914
 21
226.5809093153
  0
LINE
  5
378
100
AcDbEntity
  8
03___PRT_ALL_CURVES
100
AcDbLine
 62
4
  6
CONTINUOUS
 10
-160.1323760914
 20
223.4559093153
 11
-185.1323760914
 21
231.7892347014
  0
LINE
  5
379
100
AcDbEntity
  8
03___PRT_ALL_CURVES
100
AcDbLine
 62
4
  6
CONTINUOUS
 10
-215.1323760914
 20
121.4767384267
 11
-234.8132277893
 21
114.1850720084
  0
LINE
  5
37A
100
AcDbEntity
  8
03___PRT_ALL_CURVES
100
AcDbLine
 62
4
  6
CONTINUOUS
 10
-240.1323760914
 20
115.7475720084
 11
-217.791950615
 21
123.5600720084
  0
LINE
  5
37B
100
AcDbEntity
  8
03___PRT_ALL_CURVES
100
AcDbLine
 62
4
  6
CONTINUOUS
 10
-240.1323760914
 20
240.2267347014
 11
-215.1323760914
 21
240.2267347014
  0
LINE
  5
37C
100
AcDbEntity
  8
03___PRT_ALL_CURVES
100
AcDbLine
 62
4
  6
CONTINUOUS
 10
-215.1323760914
 20
244.3934093153
 11
-240.1323760914
 21
244.3934093153
  0
LINE
  5
37D
100
AcDbEntity
  8
03___PRT_ALL_CURVES
100
AcDbLine
 62
4
  6
CONTINUOUS
 10
-236.9408871102
 20
247.5184093153
 11
-215.1323760914
 21
247.5184093153
  0
LINE
  5
37E
100
AcDbEntity
  8
03___PRT_ALL_CURVES
100
AcDbLine
 62
4
  6
CONTINUOUS
 10
-182.4728019404
 20
248.4559093153
 11
-185.1323760914
 21
248.4559093153
  0
LINE
  5
37F
100
AcDbEntity
  8
03___PRT_ALL_CURVES
100
AcDbLine
 62
4
  6
CONTINUOUS
 10
-234.2813129591
 20
269.9142347014
 11
-236.40897228
 21
270.9559093153
  0
LINE
  5
380
100
AcDbEntity
  8
03___PRT_ALL_CURVES
100
AcDbLine
 62
4
  6
CONTINUOUS
 10
-235.3451426195
 20
274.0809093153
 11
-233.7493966388
 21
273.0392347014
  0
LINE
  5
381
100
AcDbEntity
  8
03___PRT_ALL_CURVES
100
AcDbLine
 62
4
  6
CONTINUOUS
 10
-218.8557802754
 20
289.1850720084
 11
-216.7281207683
 21
287.1017347014
  0
LINE
  5
382
100
AcDbEntity
  8
03___PRT_ALL_CURVES
100
AcDbLine
 62
4
  6
CONTINUOUS
 10
-160.1323760914
 20
256.7892347014
 11
-182.4728019404
 21
256.7892347014
  0
LINE
  5
383
100
AcDbEntity
  8
03___PRT_ALL_CURVES
100
AcDbLine
 62
4
  6
CONTINUOUS
 10
-182.4728019404
 20
259.9142347014
 11
-160.1323760914
 21
259.9142347014
  0
LINE
  5
384
100
AcDbEntity
  8
03___PRT_ALL_CURVES
100
AcDbLine
 62
4
  6
CONTINUOUS
 10
-218.8557802754
 20
262.1017347014
 11
-240.1323760914
 21
262.1017347014
  0
LINE
  5
385
100
AcDbEntity
  8
03___PRT_ALL_CURVES
100
AcDbLine
 62
4
  6
CONTINUOUS
 10
-231.621737318
 20
269.3934093153
 11
-234.2813129591
 21
269.9142347014
  0
LINE
  5
386
100
AcDbEntity
  8
03___PRT_ALL_CURVES
100
AcDbLine
 62
4
  6
CONTINUOUS
 10
-233.7493966388
 20
273.0392347014
 11
-231.621737318
 21
272.5184093153
  0
LINE
  5
387
100
AcDbEntity
  8
0
100
AcDbLine
 62
7
  6
CONTINUOUS
 10
-120.1323760914
 20
91.0600720084
 11
-120.1323760914
 21
301.0600720084
  0
LINE
  5
388
100
AcDbEntity
  8
02___PRT_ALL_AXES
100
AcDbLine
 62
7
  6
CENTER
 10
-115.1323760914
 20
311.0600720084
 11
-115.1323760914
 21
305.0600720084
  0
LINE
  5
389
100
AcDbEntity
  8
02___PRT_ALL_AXES
100
AcDbLine
 62
7
  6
CENTER
 10
-115.1323760914
 20
81.0600720084
 11
-115.1323760914
 21
75.0600720084
  0
LINE
  5
38A
100
AcDbEntity
  8
02___PRT_ALL_AXES
100
AcDbLine
 62
7
  6
CENTER
 10
-115.1323760914
 20
81.0600720084
 11
-115.1323760914
 21
87.0600720084
  0
LINE
  5
38B
100
AcDbEntity
  8
02___PRT_ALL_AXES
100
AcDbLine
 62
7
  6
CENTER
 10
-115.1323760914
 20
311.0600720084
 11
-115.1323760914
 21
317.0600720084
  0
LINE
  5
38C
100
AcDbEntity
  8
03___PRT_ALL_CURVES
100
AcDbLine
 62
4
  6
CONTINUOUS
 10
-220.9834399688
 20
269.9142347014
 11
-223.6430141198
 21
269.3934093153
  0
LINE
  5
38D
100
AcDbEntity
  8
03___PRT_ALL_CURVES
100
AcDbLine
 62
4
  6
CONTINUOUS
 10
-240.1323760914
 20
265.2267347014
 11
-215.1323760914
 21
265.2267347014
  0
LINE
  5
38E
100
AcDbEntity
  8
03___PRT_ALL_CURVES
100
AcDbLine
 62
4
  6
CONTINUOUS
 10
-185.1323760914
 20
268.2475720084
 11
-182.4728019404
 21
268.2475720084
  0
LINE
  5
38F
100
AcDbEntity
  8
03___PRT_ALL_CURVES
100
AcDbLine
 62
4
  6
CONTINUOUS
 10
-223.6430141198
 20
269.3934093153
 11
-231.621737318
 21
269.3934093153
  0
LINE
  5
390
100
AcDbEntity
  8
03___PRT_ALL_CURVES
100
AcDbLine
 62
4
  6
CONTINUOUS
 10
-160.1323760914
 20
272.4142347014
 11
-185.1323760914
 21
272.4142347014
  0
LINE
  5
391
100
AcDbEntity
  8
03___PRT_ALL_CURVES
100
AcDbLine
 62
4
  6
CONTINUOUS
 10
-231.621737318
 20
272.5184093153
 11
-223.6430141198
 21
272.5184093153
  0
LINE
  5
392
100
AcDbEntity
  8
03___PRT_ALL_CURVES
100
AcDbLine
 62
4
  6
CONTINUOUS
 10
-219.9196103083
 20
286.0600720084
 11
-221.515354799
 21
286.5809093153
  0
LINE
  5
393
100
AcDbEntity
  8
03___PRT_ALL_CURVES
100
AcDbLine
 62
4
  6
CONTINUOUS
 10
-223.6430141198
 20
272.5184093153
 11
-221.515354799
 21
273.0392347014
  0
LINE
  5
394
100
AcDbEntity
  8
03___PRT_ALL_CURVES
100
AcDbLine
 62
4
  6
CONTINUOUS
 10
-181.9408871102
 20
275.5392347014
 11
-175.0259928273
 21
275.5392347014
  0
LINE
  5
395
100
AcDbEntity
  8
03___PRT_ALL_CURVES
100
AcDbLine
 62
4
  6
CONTINUOUS
 10
-171.8345038461
 20
275.5392347014
 11
-163.3238654452
 21
275.5392347014
  0
LINE
  5
396
100
AcDbEntity
  8
03___PRT_ALL_CURVES
100
AcDbLine
 62
4
  6
CONTINUOUS
 10
-225.7706741857
 20
281.8934093153
 11
-228.9621631669
 21
281.8934093153
  0
LINE
  5
397
100
AcDbEntity
  8
03___PRT_ALL_CURVES
100
AcDbLine
 62
4
  6
CONTINUOUS
 10
-221.515354799
 20
286.5809093153
 11
-225.7706741857
 21
286.5809093153
  0
LINE
  5
398
100
AcDbEntity
  8
03___PRT_ALL_CURVES
100
AcDbLine
 62
4
  6
CONTINUOUS
 10
-220.9834399688
 20
289.7059093153
 11
-218.8557802754
 21
289.1850720084
  0
LINE
  5
399
100
AcDbEntity
  8
03___PRT_ALL_CURVES
100
AcDbLine
 62
4
  6
CONTINUOUS
 10
-236.40897228
 20
289.1850720084
 11
-233.7493966388
 21
289.7059093153
  0
LINE
  5
39A
100
AcDbEntity
  8
03___PRT_ALL_CURVES
100
AcDbLine
 62
4
  6
CONTINUOUS
 10
-175.0259928273
 20
289.0809093153
 11
-171.8345038461
 21
289.0809093153
  0
LINE
  5
39B
100
AcDbEntity
  8
03___PRT_ALL_CURVES
100
AcDbLine
 62
4
  6
CONTINUOUS
 10
-228.9621631669
 20
289.7059093153
 11
-220.9834399688
 21
289.7059093153
  0
LINE
  5
39C
100
AcDbEntity
  8
03___PRT_ALL_CURVES
100
AcDbLine
 62
4
  6
CONTINUOUS
 10
-185.1323760914
 20
291.1642347014
 11
-181.9408871102
 21
291.1642347014
  0
LINE
  5
39D
100
AcDbEntity
  8
03___PRT_ALL_CURVES
100
AcDbLine
 62
4
  6
CONTINUOUS
 10
-163.3238654452
 20
291.1642347014
 11
-160.1323760914
 21
291.1642347014
  0
LINE
  5
39E
100
AcDbEntity
  8
0
100
AcDbLine
 62
7
  6
CONTINUOUS
 10
-120.1323760914
 20
301.0600720084
 11
-280.1323760914
 21
301.0600720084
  0
LINE
  5
39F
100
AcDbEntity
  8
02___PRT_ALL_AXES
100
AcDbLine
 62
7
  6
CENTER
 10
-285.1323760914
 20
311.0600720084
 11
-279.1323760914
 21
311.0600720084
  0
LINE
  5
3A0
100
AcDbEntity
  8
02___PRT_ALL_AXES
100
AcDbLine
 62
7
  6
CENTER
 10
-115.1323760914
 20
311.0600720084
 11
-109.1323760914
 21
311.0600720084
  0
LINE
  5
3A1
100
AcDbEntity
  8
02___PRT_ALL_AXES
100
AcDbLine
 62
7
  6
CENTER
 10
-115.1323760914
 20
311.0600720084
 11
-121.1323760914
 21
311.0600720084
  0
LINE
  5
3A2
100
AcDbEntity
  8
02___PRT_ALL_AXES
100
AcDbLine
 62
7
  6
CENTER
 10
-285.1323760914
 20
311.0600720084
 11
-291.1323760914
 21
311.0600720084
  0
LINE
  5
3A3
100
AcDbEntity
  8
0
100
AcDbLine
 62
7
  6
CONTINUOUS
 10
45.8451837583
 20
38.6694741713
 11
226.8451837583
 21
38.6694741713
  0
LINE
  5
3A4
100
AcDbEntity
  8
02___PRT_ALL_AXES
100
AcDbLine
 62
7
  6
CENTER
 10
234.3451837583
 20
57.6694741713
 11
228.3451837583
 21
57.6694741713
  0
LINE
  5
3A5
100
AcDbEntity
  8
02___PRT_ALL_AXES
100
AcDbLine
 62
7
  6
CENTER
 10
38.3451837583
 20
57.6694741713
 11
32.3451837583
 21
57.6694741713
  0
LINE
  5
3A6
100
AcDbEntity
  8
02___PRT_ALL_AXES
100
AcDbLine
 62
7
  6
CENTER
 10
38.3451837583
 20
57.6694741713
 11
44.3451837583
 21
57.6694741713
  0
LINE
  5
3A7
100
AcDbEntity
  8
02___PRT_ALL_AXES
100
AcDbLine
 62
7
  6
CENTER
 10
234.3451837583
 20
57.6694741713
 11
240.3451837583
 21
57.6694741713
  0
LINE
  5
3A8
100
AcDbEntity
  8
02___PRT_ALL_AXES
100
AcDbLine
 62
7
  6
CENTER
 10
38.3451837583
 20
337.6694741713
 11
38.3451837583
 21
331.6694741713
  0
LINE
  5
3A9
100
AcDbEntity
  8
02___PRT_ALL_AXES
100
AcDbLine
 62
7
  6
CENTER
 10
38.3451837583
 20
57.6694741713
 11
38.3451837583
 21
51.6694741713
  0
LINE
  5
3AA
100
AcDbEntity
  8
02___PRT_ALL_AXES
100
AcDbLine
 62
7
  6
CENTER
 10
38.3451837583
 20
57.6694741713
 11
38.3451837583
 21
63.6694741713
  0
LINE
  5
3AB
100
AcDbEntity
  8
02___PRT_ALL_AXES
100
AcDbLine
 62
7
  6
CENTER
 10
38.3451837583
 20
337.6694741713
 11
38.3451837583
 21
343.6694741713
  0
LINE
  5
3AC
100
AcDbEntity
  8
0
100
AcDbLine
 62
7
  6
CONTINUOUS
 10
45.8451837583
 20
356.6694741713
 11
45.8451837583
 21
38.6694741713
  0
LINE
  5
3AD
100
AcDbEntity
  8
03___PRT_ALL_CURVES
100
AcDbLine
 62
4
  6
CONTINUOUS
 10
97.9409282489
 20
288.7111368644
 11
100.0685875697
 21
290.7944741713
  0
LINE
  5
3AE
100
AcDbEntity
  8
03___PRT_ALL_CURVES
100
AcDbLine
 62
4
  6
CONTINUOUS
 10
102.7281632109
 20
288.1903114783
 11
101.1324172302
 21
287.6694741713
  0
LINE
  5
3AF
100
AcDbEntity
  8
03___PRT_ALL_CURVES
100
AcDbLine
 62
4
  6
CONTINUOUS
 10
154.0047579093
 20
102.6694741713
 11
151.3451837583
 21
102.6694741713
  0
LINE
  5
3B0
100
AcDbEntity
  8
03___PRT_ALL_CURVES
100
AcDbLine
 62
4
  6
CONTINUOUS
 10
176.3451837583
 20
111.002807753
 11
154.0047579093
 21
111.002807753
  0
LINE
  5
3B1
100
AcDbEntity
  8
03___PRT_ALL_CURVES
100
AcDbLine
 62
4
  6
CONTINUOUS
 10
121.3451837583
 20
112.6694741713
 11
96.3451837583
 21
112.6694741713
  0
LINE
  5
3B2
100
AcDbEntity
  8
03___PRT_ALL_CURVES
100
AcDbLine
 62
4
  6
CONTINUOUS
 10
154.0047579093
 20
114.127807753
 11
176.3451837583
 21
114.127807753
  0
LINE
  5
3B3
100
AcDbEntity
  8
03___PRT_ALL_CURVES
100
AcDbLine
 62
4
  6
CONTINUOUS
 10
96.8770985885
 20
286.6278114783
 11
97.9409282489
 21
288.7111368644
  0
LINE
  5
3B4
100
AcDbEntity
  8
03___PRT_ALL_CURVES
100
AcDbLine
 62
4
  6
CONTINUOUS
 10
101.1324172302
 20
287.6694741713
 11
100.0685875697
 21
286.1069741713
  0
LINE
  5
3B5
100
AcDbEntity
  8
03___PRT_ALL_CURVES
100
AcDbLine
 62
4
  6
CONTINUOUS
 10
101.6643320604
 20
115.7944741713
 11
121.3451837583
 21
115.7944741713
  0
LINE
  5
3B6
100
AcDbEntity
  8
03___PRT_ALL_CURVES
100
AcDbLine
 62
4
  6
CONTINUOUS
 10
151.3451837583
 20
122.4611413347
 11
154.0047579093
 21
122.4611413347
  0
LINE
  5
3B7
100
AcDbEntity
  8
03___PRT_ALL_CURVES
100
AcDbLine
 62
4
  6
CONTINUOUS
 10
176.3451837583
 20
126.627807008
 11
151.3451837583
 21
126.627807008
  0
LINE
  5
3B8
100
AcDbEntity
  8
03___PRT_ALL_CURVES
100
AcDbLine
 62
4
  6
CONTINUOUS
 10
118.6856092347
 20
125.1694741713
 11
96.3451837583
 21
132.9819741713
  0
LINE
  5
3B9
100
AcDbEntity
  8
03___PRT_ALL_CURVES
100
AcDbLine
 62
4
  6
CONTINUOUS
 10
101.6643320604
 20
134.5444741713
 11
121.3451837583
 21
127.252807008
  0
LINE
  5
3BA
100
AcDbEntity
  8
03___PRT_ALL_CURVES
100
AcDbLine
 62
4
  6
CONTINUOUS
 10
116.5579495414
 20
275.6903114783
 11
117.6217795743
 21
277.2528114783
  0
LINE
  5
3BB
100
AcDbEntity
  8
03___PRT_ALL_CURVES
100
AcDbLine
 62
4
  6
CONTINUOUS
 10
119.7494390814
 20
274.6486368644
 11
117.6217795743
 21
272.5653114783
  0
LINE
  5
3BC
100
AcDbEntity
  8
03___PRT_ALL_CURVES
100
AcDbLine
 62
4
  6
CONTINUOUS
 10
114.9622050507
 20
274.6486368644
 11
116.5579495414
 21
275.6903114783
  0
LINE
  5
3BD
100
AcDbEntity
  8
03___PRT_ALL_CURVES
100
AcDbLine
 62
4
  6
CONTINUOUS
 10
96.3451837583
 20
250.6903114783
 11
117.6217795743
 21
263.7111368644
  0
LINE
  5
3BE
100
AcDbEntity
  8
03___PRT_ALL_CURVES
100
AcDbLine
 62
4
  6
CONTINUOUS
 10
121.3451837583
 20
262.1486368644
 11
99.5366727395
 21
249.1278114783
  0
LINE
  5
3BF
100
AcDbEntity
  8
03___PRT_ALL_CURVES
100
AcDbLine
 62
4
  6
CONTINUOUS
 10
117.6217795743
 20
272.5653114783
 11
115.4941198809
 21
271.5236368644
  0
LINE
  5
3C0
100
AcDbEntity
  8
03___PRT_ALL_CURVES
100
AcDbLine
 62
4
  6
CONTINUOUS
 10
154.5366727395
 20
129.7528084981
 11
161.4515670224
 21
129.7528084981
  0
LINE
  5
3C1
100
AcDbEntity
  8
03___PRT_ALL_CURVES
100
AcDbLine
 62
4
  6
CONTINUOUS
 10
164.6430560036
 20
129.7528084981
 11
173.1536944045
 21
129.7528084981
  0
LINE
  5
3C2
100
AcDbEntity
  8
03___PRT_ALL_CURVES
100
AcDbLine
 62
4
  6
CONTINUOUS
 10
121.3451837583
 20
134.5444741713
 11
101.6643320604
 21
134.5444741713
  0
LINE
  5
3C3
100
AcDbEntity
  8
03___PRT_ALL_CURVES
100
AcDbLine
 62
4
  6
CONTINUOUS
 10
96.3451837583
 20
137.6694741713
 11
121.3451837583
 21
137.6694741713
  0
LINE
  5
3C4
100
AcDbEntity
  8
03___PRT_ALL_CURVES
100
AcDbLine
 62
4
  6
CONTINUOUS
 10
112.8345457299
 20
141.8361398446
 11
104.8558225317
 21
141.8361398446
  0
LINE
  5
3C5
100
AcDbEntity
  8
03___PRT_ALL_CURVES
100
AcDbLine
 62
4
  6
CONTINUOUS
 10
161.4515670224
 20
143.2944741713
 11
164.6430560036
 21
143.2944741713
  0
LINE
  5
3C6
100
AcDbEntity
  8
03___PRT_ALL_CURVES
100
AcDbLine
 62
4
  6
CONTINUOUS
 10
104.8558225317
 20
141.8361398446
 11
102.1962468906
 21
142.3569741713
  0
LINE
  5
3C7
100
AcDbEntity
  8
03___PRT_ALL_CURVES
100
AcDbLine
 62
4
  6
CONTINUOUS
 10
104.8558225317
 20
144.9611398446
 11
102.7281632109
 21
145.4819741713
  0
LINE
  5
3C8
100
AcDbEntity
  8
03___PRT_ALL_CURVES
100
AcDbLine
 62
4
  6
CONTINUOUS
 10
102.1962468906
 20
142.3569741713
 11
100.0685875697
 21
143.3986398446
  0
LINE
  5
3C9
100
AcDbEntity
  8
03___PRT_ALL_CURVES
100
AcDbLine
 62
4
  6
CONTINUOUS
 10
102.7281632109
 20
145.4819741713
 11
101.1324172302
 21
146.5236398446
  0
LINE
  5
3CA
100
AcDbEntity
  8
03___PRT_ALL_CURVES
100
AcDbLine
 62
4
  6
CONTINUOUS
 10
100.0685875697
 20
143.3986398446
 11
97.9409282489
 21
145.4819741713
  0
LINE
  5
3CB
100
AcDbEntity
  8
03___PRT_ALL_CURVES
100
AcDbLine
 62
4
  6
CONTINUOUS
 10
101.1324172302
 20
146.5236398446
 11
100.0685875697
 21
148.0861398446
  0
LINE
  5
3CC
100
AcDbEntity
  8
03___PRT_ALL_CURVES
100
AcDbLine
 62
4
  6
CONTINUOUS
 10
97.9409282489
 20
145.4819741713
 11
96.8770985885
 21
147.5653084981
  0
LINE
  5
3CD
100
AcDbEntity
  8
03___PRT_ALL_CURVES
100
AcDbLine
 62
4
  6
CONTINUOUS
 10
96.3451837583
 20
284.0236368644
 11
96.8770985885
 21
286.6278114783
  0
LINE
  5
3CE
100
AcDbEntity
  8
03___PRT_ALL_CURVES
100
AcDbLine
 62
4
  6
CONTINUOUS
 10
100.0685875697
 20
286.1069741713
 11
99.5366727395
 21
284.0236368644
  0
LINE
  5
3CF
100
AcDbEntity
  8
03___PRT_ALL_CURVES
100
AcDbLine
 62
4
  6
CONTINUOUS
 10
120.8132688815
 20
276.7319741713
 11
119.7494390814
 21
274.6486368644
  0
LINE
  5
3D0
100
AcDbEntity
  8
03___PRT_ALL_CURVES
100
AcDbLine
 62
4
  6
CONTINUOUS
 10
114.9622050507
 20
145.4819741713
 11
112.8345457299
 21
144.9611398446
  0
LINE
  5
3D1
100
AcDbEntity
  8
03___PRT_ALL_CURVES
100
AcDbLine
 62
4
  6
CONTINUOUS
 10
115.4941198809
 20
142.3569741713
 11
112.8345457299
 21
141.8361398446
  0
LINE
  5
3D2
100
AcDbEntity
  8
03___PRT_ALL_CURVES
100
AcDbLine
 62
4
  6
CONTINUOUS
 10
112.8345457299
 20
144.9611398446
 11
104.8558225317
 21
144.9611398446
  0
LINE
  5
3D3
100
AcDbEntity
  8
03___PRT_ALL_CURVES
100
AcDbLine
 62
4
  6
CONTINUOUS
 10
151.3451837583
 20
145.3778084981
 11
154.5366727395
 21
145.3778084981
  0
LINE
  5
3D4
100
AcDbEntity
  8
03___PRT_ALL_CURVES
100
AcDbLine
 62
4
  6
CONTINUOUS
 10
173.1536944045
 20
145.3778084981
 11
176.3451837583
 21
145.3778084981
  0
LINE
  5
3D5
100
AcDbEntity
  8
03___PRT_ALL_CURVES
100
AcDbLine
 62
4
  6
CONTINUOUS
 10
176.3451837583
 20
149.5444741713
 11
151.3451837583
 21
149.5444741713
  0
LINE
  5
3D6
100
AcDbEntity
  8
03___PRT_ALL_CURVES
100
AcDbLine
 62
4
  6
CONTINUOUS
 10
156.6643320604
 20
152.6694741713
 11
176.3451837583
 21
152.6694741713
  0
LINE
  5
3D7
100
AcDbEntity
  8
03___PRT_ALL_CURVES
100
AcDbLine
 62
4
  6
CONTINUOUS
 10
112.8345457299
 20
162.6694741713
 11
115.4941198809
 21
162.1486398446
  0
LINE
  5
3D8
100
AcDbEntity
  8
03___PRT_ALL_CURVES
100
AcDbLine
 62
4
  6
CONTINUOUS
 10
112.8345457299
 20
159.5444741713
 11
114.9622050507
 21
159.0236398446
  0
LINE
  5
3D9
100
AcDbEntity
  8
03___PRT_ALL_CURVES
100
AcDbLine
 62
4
  6
CONTINUOUS
 10
115.4941198809
 20
162.1486398446
 11
117.6217795743
 21
161.1069741713
  0
LINE
  5
3DA
100
AcDbEntity
  8
03___PRT_ALL_CURVES
100
AcDbLine
 62
4
  6
CONTINUOUS
 10
114.9622050507
 20
159.0236398446
 11
116.5579495414
 21
157.9819741713
  0
LINE
  5
3DB
100
AcDbEntity
  8
03___PRT_ALL_CURVES
100
AcDbLine
 62
4
  6
CONTINUOUS
 10
117.6217795743
 20
161.1069741713
 11
119.7494390814
 21
159.0236398446
  0
LINE
  5
3DC
100
AcDbEntity
  8
03___PRT_ALL_CURVES
100
AcDbLine
 62
4
  6
CONTINUOUS
 10
100.0685875697
 20
148.0861398446
 11
99.5366727395
 21
150.1694741713
  0
LINE
  5
3DD
100
AcDbEntity
  8
03___PRT_ALL_CURVES
100
AcDbLine
 62
4
  6
CONTINUOUS
 10
96.8770985885
 20
147.5653084981
 11
96.3451837583
 21
150.1694741713
  0
LINE
  5
3DE
100
AcDbEntity
  8
03___PRT_ALL_CURVES
100
AcDbLine
 62
4
  6
CONTINUOUS
 10
96.3451837583
 20
185.5861428248
 11
96.3451837583
 21
182.4611428248
  0
LINE
  5
3DF
100
AcDbEntity
  8
03___PRT_ALL_CURVES
100
AcDbLine
 62
4
  6
CONTINUOUS
 10
96.3451837583
 20
169.9611428248
 11
96.3451837583
 21
166.8361428248
  0
LINE
  5
3E0
100
AcDbEntity
  8
03___PRT_ALL_CURVES
100
AcDbLine
 62
4
  6
CONTINUOUS
 10
96.3451837583
 20
112.6694741713
 11
96.3451837583
 21
117.3569741713
  0
LINE
  5
3E1
100
AcDbEntity
  8
03___PRT_ALL_CURVES
100
AcDbLine
 62
4
  6
CONTINUOUS
 10
96.3451837583
 20
132.9819741713
 11
96.3451837583
 21
137.6694741713
  0
LINE
  5
3E2
100
AcDbEntity
  8
03___PRT_ALL_CURVES
100
AcDbLine
 62
4
  6
CONTINUOUS
 10
96.3451837583
 20
150.1694741713
 11
96.3451837583
 21
154.3361398446
  0
LINE
  5
3E3
100
AcDbEntity
  8
03___PRT_ALL_CURVES
100
AcDbLine
 62
4
  6
CONTINUOUS
 10
96.3451837583
 20
189.7528055178
 11
96.3451837583
 21
194.4403055178
  0
LINE
  5
3E4
100
AcDbEntity
  8
03___PRT_ALL_CURVES
100
AcDbLine
 62
4
  6
CONTINUOUS
 10
96.3451837583
 20
207.4611428248
 11
96.3451837583
 21
210.5861428248
  0
LINE
  5
3E5
100
AcDbEntity
  8
03___PRT_ALL_CURVES
100
AcDbLine
 62
4
  6
CONTINUOUS
 10
96.3451837583
 20
214.7528114783
 11
96.3451837583
 21
234.5444741713
  0
LINE
  5
3E6
100
AcDbEntity
  8
03___PRT_ALL_CURVES
100
AcDbLine
 62
4
  6
CONTINUOUS
 10
96.3451837583
 20
238.7111368644
 11
96.3451837583
 21
241.8361368644
  0
LINE
  5
3E7
100
AcDbEntity
  8
03___PRT_ALL_CURVES
100
AcDbLine
 62
4
  6
CONTINUOUS
 10
96.3451837583
 20
246.0028114783
 11
96.3451837583
 21
250.6903114783
  0
LINE
  5
3E8
100
AcDbEntity
  8
03___PRT_ALL_CURVES
100
AcDbLine
 62
4
  6
CONTINUOUS
 10
96.3451837583
 20
263.7111368644
 11
96.3451837583
 21
266.8361368644
  0
LINE
  5
3E9
100
AcDbEntity
  8
03___PRT_ALL_CURVES
100
AcDbLine
 62
4
  6
CONTINUOUS
 10
96.3451837583
 20
279.3361368644
 11
96.3451837583
 21
284.0236368644
  0
LINE
  5
3EA
100
AcDbEntity
  8
03___PRT_ALL_CURVES
100
AcDbLine
 62
4
  6
CONTINUOUS
 10
99.0047579093
 20
234.5444741713
 11
99.0047579093
 21
226.2111368644
  0
LINE
  5
3EB
100
AcDbEntity
  8
03___PRT_ALL_CURVES
100
AcDbLine
 62
4
  6
CONTINUOUS
 10
99.0047579093
 20
223.0861368644
 11
99.0047579093
 21
214.7528114783
  0
LINE
  5
3EC
100
AcDbEntity
  8
03___PRT_ALL_CURVES
100
AcDbLine
 62
4
  6
CONTINUOUS
 10
99.5366727395
 20
284.0236368644
 11
99.5366727395
 21
279.3361368644
  0
LINE
  5
3ED
100
AcDbEntity
  8
03___PRT_ALL_CURVES
100
AcDbLine
 62
4
  6
CONTINUOUS
 10
99.5366727395
 20
150.1694741713
 11
99.5366727395
 21
154.3361398446
  0
LINE
  5
3EE
100
AcDbEntity
  8
03___PRT_ALL_CURVES
100
AcDbLine
 62
4
  6
CONTINUOUS
 10
102.7281632109
 20
291.3153114783
 11
102.7281632109
 21
288.1903114783
  0
LINE
  5
3EF
100
AcDbEntity
  8
03___PRT_ALL_CURVES
100
AcDbLine
 62
4
  6
CONTINUOUS
 10
107.5153966828
 20
283.5028114783
 11
107.5153966828
 21
291.3153114783
  0
LINE
  5
3F0
100
AcDbEntity
  8
03___PRT_ALL_CURVES
100
AcDbLine
 62
4
  6
CONTINUOUS
 10
121.3451837583
 20
279.3361368644
 11
120.8132688815
 21
276.7319741713
  0
LINE
  5
3F1
100
AcDbEntity
  8
03___PRT_ALL_CURVES
100
AcDbLine
 62
4
  6
CONTINUOUS
 10
96.3451837583
 20
154.3361398446
 11
96.8770985885
 21
156.9403084981
  0
LINE
  5
3F2
100
AcDbEntity
  8
03___PRT_ALL_CURVES
100
AcDbLine
 62
4
  6
CONTINUOUS
 10
117.6217795743
 20
277.2528114783
 11
118.1536944045
 21
279.3361368644
  0
LINE
  5
3F3
100
AcDbEntity
  8
03___PRT_ALL_CURVES
100
AcDbLine
 62
4
  6
CONTINUOUS
 10
151.3451837583
 20
237.5653114783
 11
176.3451837583
 21
245.8986368644
  0
LINE
  5
3F4
100
AcDbEntity
  8
03___PRT_ALL_CURVES
100
AcDbLine
 62
4
  6
CONTINUOUS
 10
102.7281632109
 20
159.0236398446
 11
104.8558225317
 21
159.5444741713
  0
LINE
  5
3F5
100
AcDbEntity
  8
03___PRT_ALL_CURVES
100
AcDbLine
 62
4
  6
CONTINUOUS
 10
102.1962468906
 20
162.1486398446
 11
104.8558225317
 21
162.6694741713
  0
LINE
  5
3F6
100
AcDbEntity
  8
03___PRT_ALL_CURVES
100
AcDbLine
 62
4
  6
CONTINUOUS
 10
112.8345457299
 20
166.8361428248
 11
115.4941198809
 21
167.3569741713
  0
LINE
  5
3F7
100
AcDbEntity
  8
03___PRT_ALL_CURVES
100
AcDbLine
 62
4
  6
CONTINUOUS
 10
104.8558225317
 20
159.5444741713
 11
112.8345457299
 21
159.5444741713
  0
LINE
  5
3F8
100
AcDbEntity
  8
03___PRT_ALL_CURVES
100
AcDbLine
 62
4
  6
CONTINUOUS
 10
104.8558225317
 20
162.6694741713
 11
112.8345457299
 21
162.6694741713
  0
LINE
  5
3F9
100
AcDbEntity
  8
03___PRT_ALL_CURVES
100
AcDbLine
 62
4
  6
CONTINUOUS
 10
96.3451837583
 20
166.8361428248
 11
112.8345457299
 21
166.8361428248
  0
LINE
  5
3FA
100
AcDbEntity
  8
03___PRT_ALL_CURVES
100
AcDbLine
 62
4
  6
CONTINUOUS
 10
112.8345457299
 20
169.9611428248
 11
96.3451837583
 21
169.9611428248
  0
LINE
  5
3FB
100
AcDbEntity
  8
03___PRT_ALL_CURVES
100
AcDbLine
 62
4
  6
CONTINUOUS
 10
176.3451837583
 20
171.4194741713
 11
156.6643320604
 21
171.4194741713
  0
LINE
  5
3FC
100
AcDbEntity
  8
03___PRT_ALL_CURVES
100
AcDbLine
 62
4
  6
CONTINUOUS
 10
114.9622050507
 20
181.9403055178
 11
116.5579495414
 21
180.8986428248
  0
LINE
  5
3FD
100
AcDbEntity
  8
03___PRT_ALL_CURVES
100
AcDbLine
 62
4
  6
CONTINUOUS
 10
116.5579495414
 20
157.9819741713
 11
117.6217795743
 21
156.4194741713
  0
LINE
  5
3FE
100
AcDbEntity
  8
03___PRT_ALL_CURVES
100
AcDbLine
 62
4
  6
CONTINUOUS
 10
116.5579495414
 20
180.8986428248
 11
117.6217795743
 21
179.3361428248
  0
LINE
  5
3FF
100
AcDbEntity
  8
03___PRT_ALL_CURVES
100
AcDbLine
 62
4
  6
CONTINUOUS
 10
119.7494390814
 20
159.0236398446
 11
120.8132688815
 21
156.9403084981
  0
LINE
  5
400
100
AcDbEntity
  8
03___PRT_ALL_CURVES
100
AcDbLine
 62
4
  6
CONTINUOUS
 10
117.6217795743
 20
156.4194741713
 11
118.1536944045
 21
154.3361398446
  0
LINE
  5
401
100
AcDbEntity
  8
03___PRT_ALL_CURVES
100
AcDbLine
 62
4
  6
CONTINUOUS
 10
110.706885664
 20
288.1903114783
 11
110.706885664
 21
283.5028114783
  0
LINE
  5
402
100
AcDbEntity
  8
03___PRT_ALL_CURVES
100
AcDbLine
 62
4
  6
CONTINUOUS
 10
118.1536944045
 20
177.2528055178
 11
118.1536944045
 21
175.1694741713
  0
LINE
  5
403
100
AcDbEntity
  8
03___PRT_ALL_CURVES
100
AcDbLine
 62
4
  6
CONTINUOUS
 10
118.1536944045
 20
154.3361398446
 11
118.1536944045
 21
150.1694741713
  0
LINE
  5
404
100
AcDbEntity
  8
03___PRT_ALL_CURVES
100
AcDbLine
 62
4
  6
CONTINUOUS
 10
118.1536944045
 20
279.3361368644
 11
118.1536944045
 21
284.0236368644
  0
LINE
  5
405
100
AcDbEntity
  8
03___PRT_ALL_CURVES
100
AcDbLine
 62
4
  6
CONTINUOUS
 10
121.3451837583
 20
284.0236368644
 11
121.3451837583
 21
279.3361368644
  0
LINE
  5
406
100
AcDbEntity
  8
03___PRT_ALL_CURVES
100
AcDbLine
 62
4
  6
CONTINUOUS
 10
121.3451837583
 20
266.8361368644
 11
121.3451837583
 21
262.1486368644
  0
LINE
  5
407
100
AcDbEntity
  8
03___PRT_ALL_CURVES
100
AcDbLine
 62
4
  6
CONTINUOUS
 10
121.3451837583
 20
249.1278114783
 11
121.3451837583
 21
246.0028114783
  0
LINE
  5
408
100
AcDbEntity
  8
03___PRT_ALL_CURVES
100
AcDbLine
 62
4
  6
CONTINUOUS
 10
121.3451837583
 20
241.8361368644
 11
121.3451837583
 21
238.7111368644
  0
LINE
  5
409
100
AcDbEntity
  8
03___PRT_ALL_CURVES
100
AcDbLine
 62
4
  6
CONTINUOUS
 10
121.3451837583
 20
226.2111368644
 11
121.3451837583
 21
223.0861368644
  0
LINE
  5
40A
100
AcDbEntity
  8
03___PRT_ALL_CURVES
100
AcDbLine
 62
4
  6
CONTINUOUS
 10
121.3451837583
 20
210.5861428248
 11
121.3451837583
 21
205.8986428248
  0
LINE
  5
40B
100
AcDbEntity
  8
03___PRT_ALL_CURVES
100
AcDbLine
 62
4
  6
CONTINUOUS
 10
121.3451837583
 20
192.8778055178
 11
121.3451837583
 21
189.7528055178
  0
LINE
  5
40C
100
AcDbEntity
  8
03___PRT_ALL_CURVES
100
AcDbLine
 62
4
  6
CONTINUOUS
 10
121.3451837583
 20
154.3361398446
 11
121.3451837583
 21
150.1694741713
  0
LINE
  5
40D
100
AcDbEntity
  8
03___PRT_ALL_CURVES
100
AcDbLine
 62
4
  6
CONTINUOUS
 10
121.3451837583
 20
137.6694741713
 11
121.3451837583
 21
134.5444741713
  0
LINE
  5
40E
100
AcDbEntity
  8
03___PRT_ALL_CURVES
100
AcDbLine
 62
4
  6
CONTINUOUS
 10
121.3451837583
 20
127.252807008
 11
121.3451837583
 21
123.0861405896
  0
LINE
  5
40F
100
AcDbEntity
  8
03___PRT_ALL_CURVES
100
AcDbLine
 62
4
  6
CONTINUOUS
 10
121.3451837583
 20
115.7944741713
 11
121.3451837583
 21
112.6694741713
  0
LINE
  5
410
100
AcDbEntity
  8
03___PRT_ALL_CURVES
100
AcDbLine
 62
4
  6
CONTINUOUS
 10
121.3451837583
 20
175.1694741713
 11
121.3451837583
 21
177.2528055178
  0
LINE
  5
411
100
AcDbEntity
  8
03___PRT_ALL_CURVES
100
AcDbLine
 62
4
  6
CONTINUOUS
 10
99.5366727395
 20
154.3361398446
 11
100.0685875697
 21
156.4194741713
  0
LINE
  5
412
100
AcDbEntity
  8
03___PRT_ALL_CURVES
100
AcDbLine
 62
4
  6
CONTINUOUS
 10
96.8770985885
 20
156.9403084981
 11
97.9409282489
 21
159.0236398446
  0
LINE
  5
413
100
AcDbEntity
  8
03___PRT_ALL_CURVES
100
AcDbLine
 62
4
  6
CONTINUOUS
 10
96.3451837583
 20
194.4403055178
 11
117.6217795743
 21
207.4611428248
  0
LINE
  5
414
100
AcDbEntity
  8
03___PRT_ALL_CURVES
100
AcDbLine
 62
4
  6
CONTINUOUS
 10
153.4728430791
 20
235.4819741713
 11
167.8345457299
 21
240.1694741713
  0
LINE
  5
415
100
AcDbEntity
  8
03___PRT_ALL_CURVES
100
AcDbLine
 62
4
  6
CONTINUOUS
 10
176.3451837583
 20
242.7736368644
 11
169.9622050507
 21
240.6903114783
  0
LINE
  5
416
100
AcDbEntity
  8
03___PRT_ALL_CURVES
100
AcDbLine
 62
4
  6
CONTINUOUS
 10
114.9622050507
 20
170.4819741713
 11
112.8345457299
 21
169.9611428248
  0
LINE
  5
417
100
AcDbEntity
  8
03___PRT_ALL_CURVES
100
AcDbLine
 62
4
  6
CONTINUOUS
 10
151.3451837583
 20
174.5444741713
 11
176.3451837583
 21
174.5444741713
  0
LINE
  5
418
100
AcDbEntity
  8
03___PRT_ALL_CURVES
100
AcDbLine
 62
4
  6
CONTINUOUS
 10
176.3451837583
 20
178.7111428248
 11
151.3451837583
 21
178.7111428248
  0
LINE
  5
419
100
AcDbEntity
  8
03___PRT_ALL_CURVES
100
AcDbLine
 62
4
  6
CONTINUOUS
 10
154.0047579093
 20
181.8361428248
 11
161.9834818526
 21
181.8361428248
  0
LINE
  5
41A
100
AcDbEntity
  8
03___PRT_ALL_CURVES
100
AcDbLine
 62
4
  6
CONTINUOUS
 10
165.1749708338
 20
181.8361428248
 11
176.3451837583
 21
181.8361428248
  0
LINE
  5
41B
100
AcDbEntity
  8
03___PRT_ALL_CURVES
100
AcDbLine
 62
4
  6
CONTINUOUS
 10
96.3451837583
 20
182.4611428248
 11
112.8345457299
 21
182.4611428248
  0
LINE
  5
41C
100
AcDbEntity
  8
03___PRT_ALL_CURVES
100
AcDbLine
 62
4
  6
CONTINUOUS
 10
112.8345457299
 20
185.5861428248
 11
96.3451837583
 21
185.5861428248
  0
LINE
  5
41D
100
AcDbEntity
  8
03___PRT_ALL_CURVES
100
AcDbLine
 62
4
  6
CONTINUOUS
 10
115.4941198809
 20
185.0653055178
 11
112.8345457299
 21
185.5861428248
  0
LINE
  5
41E
100
AcDbEntity
  8
03___PRT_ALL_CURVES
100
AcDbLine
 62
4
  6
CONTINUOUS
 10
112.8345457299
 20
182.4611428248
 11
114.9622050507
 21
181.9403055178
  0
LINE
  5
41F
100
AcDbEntity
  8
03___PRT_ALL_CURVES
100
AcDbLine
 62
4
  6
CONTINUOUS
 10
173.6856092347
 20
162.0444741713
 11
151.3451837583
 21
169.8569741713
  0
LINE
  5
420
100
AcDbEntity
  8
03___PRT_ALL_CURVES
100
AcDbLine
 62
4
  6
CONTINUOUS
 10
156.6643320604
 20
171.4194741713
 11
176.3451837583
 21
164.1278055178
  0
LINE
  5
421
100
AcDbEntity
  8
03___PRT_ALL_CURVES
100
AcDbLine
 62
4
  6
CONTINUOUS
 10
117.6217795743
 20
184.0236428248
 11
115.4941198809
 21
185.0653055178
  0
LINE
  5
422
100
AcDbEntity
  8
03___PRT_ALL_CURVES
100
AcDbLine
 62
4
  6
CONTINUOUS
 10
119.7494390814
 20
181.9403055178
 11
117.6217795743
 21
184.0236428248
  0
LINE
  5
423
100
AcDbEntity
  8
03___PRT_ALL_CURVES
100
AcDbLine
 62
4
  6
CONTINUOUS
 10
120.8132688815
 20
179.8569741713
 11
119.7494390814
 21
181.9403055178
  0
LINE
  5
424
100
AcDbEntity
  8
03___PRT_ALL_CURVES
100
AcDbLine
 62
4
  6
CONTINUOUS
 10
117.6217795743
 20
179.3361428248
 11
118.1536944045
 21
177.2528055178
  0
LINE
  5
425
100
AcDbEntity
  8
03___PRT_ALL_CURVES
100
AcDbLine
 62
4
  6
CONTINUOUS
 10
99.5366727395
 20
279.3361368644
 11
100.0685875697
 21
277.2528114783
  0
LINE
  5
426
100
AcDbEntity
  8
03___PRT_ALL_CURVES
100
AcDbLine
 62
4
  6
CONTINUOUS
 10
120.8132688815
 20
156.9403084981
 11
121.3451837583
 21
154.3361398446
  0
LINE
  5
427
100
AcDbEntity
  8
03___PRT_ALL_CURVES
100
AcDbLine
 62
4
  6
CONTINUOUS
 10
96.8770985885
 20
276.7319741713
 11
96.3451837583
 21
279.3361368644
  0
LINE
  5
428
100
AcDbEntity
  8
03___PRT_ALL_CURVES
100
AcDbLine
 62
4
  6
CONTINUOUS
 10
121.3451837583
 20
177.2528055178
 11
120.8132688815
 21
179.8569741713
  0
LINE
  5
429
100
AcDbEntity
  8
03___PRT_ALL_CURVES
100
AcDbLine
 62
4
  6
CONTINUOUS
 10
120.8132688815
 20
172.5653055178
 11
121.3451837583
 21
175.1694741713
  0
LINE
  5
42A
100
AcDbEntity
  8
03___PRT_ALL_CURVES
100
AcDbLine
 62
4
  6
CONTINUOUS
 10
121.3451837583
 20
150.1694741713
 11
120.8132688815
 21
147.5653084981
  0
LINE
  5
42B
100
AcDbEntity
  8
03___PRT_ALL_CURVES
100
AcDbLine
 62
4
  6
CONTINUOUS
 10
118.1536944045
 20
175.1694741713
 11
117.6217795743
 21
173.0861428248
  0
LINE
  5
42C
100
AcDbEntity
  8
03___PRT_ALL_CURVES
100
AcDbLine
 62
4
  6
CONTINUOUS
 10
118.1536944045
 20
150.1694741713
 11
117.6217795743
 21
148.0861398446
  0
LINE
  5
42D
100
AcDbEntity
  8
03___PRT_ALL_CURVES
100
AcDbLine
 62
4
  6
CONTINUOUS
 10
119.7494390814
 20
170.4819741713
 11
120.8132688815
 21
172.5653055178
  0
LINE
  5
42E
100
AcDbEntity
  8
03___PRT_ALL_CURVES
100
AcDbLine
 62
4
  6
CONTINUOUS
 10
100.0685875697
 20
156.4194741713
 11
101.1324172302
 21
157.9819741713
  0
LINE
  5
42F
100
AcDbEntity
  8
03___PRT_ALL_CURVES
100
AcDbLine
 62
4
  6
CONTINUOUS
 10
117.6217795743
 20
173.0861428248
 11
116.5579495414
 21
171.5236428248
  0
LINE
  5
430
100
AcDbEntity
  8
03___PRT_ALL_CURVES
100
AcDbLine
 62
4
  6
CONTINUOUS
 10
121.3451837583
 20
205.8986428248
 11
99.5366727395
 21
192.8778055178
  0
LINE
  5
431
100
AcDbEntity
  8
03___PRT_ALL_CURVES
100
AcDbLine
 62
4
  6
CONTINUOUS
 10
121.3451837583
 20
189.7528055178
 11
96.3451837583
 21
189.7528055178
  0
LINE
  5
432
100
AcDbEntity
  8
03___PRT_ALL_CURVES
100
AcDbLine
 62
4
  6
CONTINUOUS
 10
99.5366727395
 20
192.8778055178
 11
121.3451837583
 21
192.8778055178
  0
LINE
  5
433
100
AcDbEntity
  8
03___PRT_ALL_CURVES
100
AcDbLine
 62
4
  6
CONTINUOUS
 10
158.7919928713
 20
194.8569741713
 11
157.1962468906
 21
194.8569741713
  0
LINE
  5
434
100
AcDbEntity
  8
03___PRT_ALL_CURVES
100
AcDbLine
 62
4
  6
CONTINUOUS
 10
157.1962468906
 20
197.9819741713
 11
159.3239077015
 21
197.9819741713
  0
LINE
  5
435
100
AcDbEntity
  8
03___PRT_ALL_CURVES
100
AcDbLine
 62
4
  6
CONTINUOUS
 10
176.3451837583
 20
202.1486428248
 11
151.3451837583
 21
202.1486428248
  0
LINE
  5
436
100
AcDbEntity
  8
03___PRT_ALL_CURVES
100
AcDbLine
 62
4
  6
CONTINUOUS
 10
160.3877373619
 20
194.3361428248
 11
158.7919928713
 21
194.8569741713
  0
LINE
  5
437
100
AcDbEntity
  8
03___PRT_ALL_CURVES
100
AcDbLine
 62
4
  6
CONTINUOUS
 10
97.9409282489
 20
274.6486368644
 11
96.8770985885
 21
276.7319741713
  0
LINE
  5
438
100
AcDbEntity
  8
03___PRT_ALL_CURVES
100
AcDbLine
 62
4
  6
CONTINUOUS
 10
118.1536944045
 20
284.0236368644
 11
117.6217795743
 21
286.1069741713
  0
LINE
  5
439
100
AcDbEntity
  8
03___PRT_ALL_CURVES
100
AcDbLine
 62
4
  6
CONTINUOUS
 10
120.8132688815
 20
286.6278114783
 11
121.3451837583
 21
284.0236368644
  0
LINE
  5
43A
100
AcDbEntity
  8
03___PRT_ALL_CURVES
100
AcDbLine
 62
4
  6
CONTINUOUS
 10
151.3451837583
 20
102.6694741713
 11
151.3451837583
 21
122.4611413347
  0
LINE
  5
43B
100
AcDbEntity
  8
03___PRT_ALL_CURVES
100
AcDbLine
 62
4
  6
CONTINUOUS
 10
151.3451837583
 20
126.627807008
 11
151.3451837583
 21
145.3778084981
  0
LINE
  5
43C
100
AcDbEntity
  8
03___PRT_ALL_CURVES
100
AcDbLine
 62
4
  6
CONTINUOUS
 10
151.3451837583
 20
149.5444741713
 11
151.3451837583
 21
154.2319741713
  0
LINE
  5
43D
100
AcDbEntity
  8
03___PRT_ALL_CURVES
100
AcDbLine
 62
4
  6
CONTINUOUS
 10
151.3451837583
 20
169.8569741713
 11
151.3451837583
 21
174.5444741713
  0
LINE
  5
43E
100
AcDbEntity
  8
03___PRT_ALL_CURVES
100
AcDbLine
 62
4
  6
CONTINUOUS
 10
151.3451837583
 20
178.7111428248
 11
151.3451837583
 21
191.2111428248
  0
LINE
  5
43F
100
AcDbEntity
  8
03___PRT_ALL_CURVES
100
AcDbLine
 62
4
  6
CONTINUOUS
 10
151.3451837583
 20
202.1486428248
 11
151.3451837583
 21
205.2736368644
  0
LINE
  5
440
100
AcDbEntity
  8
03___PRT_ALL_CURVES
100
AcDbLine
 62
4
  6
CONTINUOUS
 10
151.3451837583
 20
233.3986368644
 11
151.3451837583
 21
237.5653114783
  0
LINE
  5
441
100
AcDbEntity
  8
03___PRT_ALL_CURVES
100
AcDbLine
 62
4
  6
CONTINUOUS
 10
151.3451837583
 20
250.0653114783
 11
151.3451837583
 21
269.8569741713
  0
LINE
  5
442
100
AcDbEntity
  8
03___PRT_ALL_CURVES
100
AcDbLine
 62
4
  6
CONTINUOUS
 10
151.3451837583
 20
274.0236368644
 11
151.3451837583
 21
292.7736368644
  0
LINE
  5
443
100
AcDbEntity
  8
03___PRT_ALL_CURVES
100
AcDbLine
 62
4
  6
CONTINUOUS
 10
154.0047579093
 20
269.8569741713
 11
154.0047579093
 21
261.5236368644
  0
LINE
  5
444
100
AcDbEntity
  8
03___PRT_ALL_CURVES
100
AcDbLine
 62
4
  6
CONTINUOUS
 10
154.0047579093
 20
258.3986368644
 11
154.0047579093
 21
250.0653114783
  0
LINE
  5
445
100
AcDbEntity
  8
03___PRT_ALL_CURVES
100
AcDbLine
 62
4
  6
CONTINUOUS
 10
154.0047579093
 20
191.7319741713
 11
154.0047579093
 21
181.8361428248
  0
LINE
  5
446
100
AcDbEntity
  8
03___PRT_ALL_CURVES
100
AcDbLine
 62
4
  6
CONTINUOUS
 10
154.0047579093
 20
122.4611413347
 11
154.0047579093
 21
114.127807753
  0
LINE
  5
447
100
AcDbEntity
  8
03___PRT_ALL_CURVES
100
AcDbLine
 62
4
  6
CONTINUOUS
 10
154.0047579093
 20
111.002807753
 11
154.0047579093
 21
102.6694741713
  0
LINE
  5
448
100
AcDbEntity
  8
03___PRT_ALL_CURVES
100
AcDbLine
 62
4
  6
CONTINUOUS
 10
154.5366727395
 20
292.7736368644
 11
154.5366727395
 21
277.1486368644
  0
LINE
  5
449
100
AcDbEntity
  8
03___PRT_ALL_CURVES
100
AcDbLine
 62
4
  6
CONTINUOUS
 10
154.5366727395
 20
145.3778084981
 11
154.5366727395
 21
129.7528084981
  0
LINE
  5
44A
100
AcDbEntity
  8
03___PRT_ALL_CURVES
100
AcDbLine
 62
4
  6
CONTINUOUS
 10
151.3451837583
 20
191.2111428248
 11
151.8770985885
 21
193.8153055178
  0
LINE
  5
44B
100
AcDbEntity
  8
03___PRT_ALL_CURVES
100
AcDbLine
 62
4
  6
CONTINUOUS
 10
120.8132688815
 20
147.5653084981
 11
119.7494390814
 21
145.4819741713
  0
LINE
  5
44C
100
AcDbEntity
  8
03___PRT_ALL_CURVES
100
AcDbLine
 62
4
  6
CONTINUOUS
 10
117.6217795743
 20
148.0861398446
 11
116.5579495414
 21
146.5236398446
  0
LINE
  5
44D
100
AcDbEntity
  8
03___PRT_ALL_CURVES
100
AcDbLine
 62
4
  6
CONTINUOUS
 10
151.8770985885
 20
193.8153055178
 11
153.4728430791
 21
195.8986428248
  0
LINE
  5
44E
100
AcDbEntity
  8
03___PRT_ALL_CURVES
100
AcDbLine
 62
4
  6
CONTINUOUS
 10
97.9409282489
 20
159.0236398446
 11
100.0685875697
 21
161.1069741713
  0
LINE
  5
44F
100
AcDbEntity
  8
03___PRT_ALL_CURVES
100
AcDbLine
 62
4
  6
CONTINUOUS
 10
117.6217795743
 20
168.3986428248
 11
119.7494390814
 21
170.4819741713
  0
LINE
  5
450
100
AcDbEntity
  8
03___PRT_ALL_CURVES
100
AcDbLine
 62
4
  6
CONTINUOUS
 10
153.4728430791
 20
195.8986428248
 11
155.6005024
 21
197.4611428248
  0
LINE
  5
451
100
AcDbEntity
  8
03___PRT_ALL_CURVES
100
AcDbLine
 62
4
  6
CONTINUOUS
 10
116.5579495414
 20
171.5236428248
 11
114.9622050507
 21
170.4819741713
  0
LINE
  5
452
100
AcDbEntity
  8
03___PRT_ALL_CURVES
100
AcDbLine
 62
4
  6
CONTINUOUS
 10
155.6005024
 20
197.4611428248
 11
157.1962468906
 21
197.9819741713
  0
LINE
  5
453
100
AcDbEntity
  8
03___PRT_ALL_CURVES
100
AcDbLine
 62
4
  6
CONTINUOUS
 10
157.1962468906
 20
194.8569741713
 11
155.6005024
 21
194.3361428248
  0
LINE
  5
454
100
AcDbEntity
  8
03___PRT_ALL_CURVES
100
AcDbLine
 62
4
  6
CONTINUOUS
 10
151.3451837583
 20
205.2736368644
 11
173.1536944045
 21
205.2736368644
  0
LINE
  5
455
100
AcDbEntity
  8
03___PRT_ALL_CURVES
100
AcDbLine
 62
4
  6
CONTINUOUS
 10
117.6217795743
 20
207.4611428248
 11
96.3451837583
 21
207.4611428248
  0
LINE
  5
456
100
AcDbEntity
  8
03___PRT_ALL_CURVES
100
AcDbLine
 62
4
  6
CONTINUOUS
 10
96.3451837583
 20
210.5861428248
 11
121.3451837583
 21
210.5861428248
  0
LINE
  5
457
100
AcDbEntity
  8
03___PRT_ALL_CURVES
100
AcDbLine
 62
4
  6
CONTINUOUS
 10
99.0047579093
 20
214.7528114783
 11
96.3451837583
 21
214.7528114783
  0
LINE
  5
458
100
AcDbEntity
  8
03___PRT_ALL_CURVES
100
AcDbLine
 62
4
  6
CONTINUOUS
 10
159.3239077015
 20
197.9819741713
 11
160.9196521921
 21
197.4611428248
  0
LINE
  5
459
100
AcDbEntity
  8
03___PRT_ALL_CURVES
100
AcDbLine
 62
4
  6
CONTINUOUS
 10
160.9196521921
 20
197.4611428248
 11
163.047311513
 21
195.8986428248
  0
LINE
  5
45A
100
AcDbEntity
  8
03___PRT_ALL_CURVES
100
AcDbLine
 62
4
  6
CONTINUOUS
 10
161.4515670224
 20
193.2944741713
 11
160.3877373619
 21
194.3361428248
  0
LINE
  5
45B
100
AcDbEntity
  8
03___PRT_ALL_CURVES
100
AcDbLine
 62
4
  6
CONTINUOUS
 10
163.047311513
 20
195.8986428248
 11
164.6430560036
 21
193.8153055178
  0
LINE
  5
45C
100
AcDbEntity
  8
03___PRT_ALL_CURVES
100
AcDbLine
 62
4
  6
CONTINUOUS
 10
100.0685875697
 20
277.2528114783
 11
101.1324172302
 21
275.6903114783
  0
LINE
  5
45D
100
AcDbEntity
  8
03___PRT_ALL_CURVES
100
AcDbLine
 62
4
  6
CONTINUOUS
 10
161.4515670224
 20
129.7528084981
 11
161.4515670224
 21
143.2944741713
  0
LINE
  5
45E
100
AcDbEntity
  8
03___PRT_ALL_CURVES
100
AcDbLine
 62
4
  6
CONTINUOUS
 10
161.4515670224
 20
277.1486368644
 11
161.4515670224
 21
290.6903114783
  0
LINE
  5
45F
100
AcDbEntity
  8
03___PRT_ALL_CURVES
100
AcDbLine
 62
4
  6
CONTINUOUS
 10
161.9834818526
 20
181.8361428248
 11
161.9834818526
 21
191.7319741713
  0
LINE
  5
460
100
AcDbEntity
  8
03___PRT_ALL_CURVES
100
AcDbLine
 62
4
  6
CONTINUOUS
 10
164.6430560036
 20
290.6903114783
 11
164.6430560036
 21
277.1486368644
  0
LINE
  5
461
100
AcDbEntity
  8
03___PRT_ALL_CURVES
100
AcDbLine
 62
4
  6
CONTINUOUS
 10
164.6430560036
 20
143.2944741713
 11
164.6430560036
 21
129.7528084981
  0
LINE
  5
462
100
AcDbEntity
  8
03___PRT_ALL_CURVES
100
AcDbLine
 62
4
  6
CONTINUOUS
 10
165.1749708338
 20
191.2111428248
 11
165.1749708338
 21
181.8361428248
  0
LINE
  5
463
100
AcDbEntity
  8
03___PRT_ALL_CURVES
100
AcDbLine
 62
4
  6
CONTINUOUS
 10
167.8345457299
 20
240.1694741713
 11
167.8345457299
 21
230.7944741713
  0
LINE
  5
464
100
AcDbEntity
  8
03___PRT_ALL_CURVES
100
AcDbLine
 62
4
  6
CONTINUOUS
 10
169.9622050507
 20
240.6903114783
 11
169.9622050507
 21
230.2736368644
  0
LINE
  5
465
100
AcDbEntity
  8
03___PRT_ALL_CURVES
100
AcDbLine
 62
4
  6
CONTINUOUS
 10
154.5366727395
 20
193.2944741713
 11
154.0047579093
 21
191.7319741713
  0
LINE
  5
466
100
AcDbEntity
  8
03___PRT_ALL_CURVES
100
AcDbLine
 62
4
  6
CONTINUOUS
 10
155.6005024
 20
194.3361428248
 11
154.5366727395
 21
193.2944741713
  0
LINE
  5
467
100
AcDbEntity
  8
03___PRT_ALL_CURVES
100
AcDbLine
 62
4
  6
CONTINUOUS
 10
119.7494390814
 20
145.4819741713
 11
117.6217795743
 21
143.3986398446
  0
LINE
  5
468
100
AcDbEntity
  8
03___PRT_ALL_CURVES
100
AcDbLine
 62
4
  6
CONTINUOUS
 10
101.1324172302
 20
157.9819741713
 11
102.7281632109
 21
159.0236398446
  0
LINE
  5
469
100
AcDbEntity
  8
03___PRT_ALL_CURVES
100
AcDbLine
 62
4
  6
CONTINUOUS
 10
100.0685875697
 20
161.1069741713
 11
102.1962468906
 21
162.1486398446
  0
LINE
  5
46A
100
AcDbEntity
  8
03___PRT_ALL_CURVES
100
AcDbLine
 62
4
  6
CONTINUOUS
 10
115.4941198809
 20
167.3569741713
 11
117.6217795743
 21
168.3986428248
  0
LINE
  5
46B
100
AcDbEntity
  8
03___PRT_ALL_CURVES
100
AcDbLine
 62
4
  6
CONTINUOUS
 10
173.1536944045
 20
220.8986368644
 11
176.3451837583
 21
220.8986368644
  0
LINE
  5
46C
100
AcDbEntity
  8
03___PRT_ALL_CURVES
100
AcDbLine
 62
4
  6
CONTINUOUS
 10
121.3451837583
 20
223.0861368644
 11
99.0047579093
 21
223.0861368644
  0
LINE
  5
46D
100
AcDbEntity
  8
03___PRT_ALL_CURVES
100
AcDbLine
 62
4
  6
CONTINUOUS
 10
99.0047579093
 20
226.2111368644
 11
121.3451837583
 21
226.2111368644
  0
LINE
  5
46E
100
AcDbEntity
  8
03___PRT_ALL_CURVES
100
AcDbLine
 62
4
  6
CONTINUOUS
 10
96.3451837583
 20
234.5444741713
 11
99.0047579093
 21
234.5444741713
  0
LINE
  5
46F
100
AcDbEntity
  8
03___PRT_ALL_CURVES
100
AcDbLine
 62
4
  6
CONTINUOUS
 10
100.0685875697
 20
272.5653114783
 11
97.9409282489
 21
274.6486368644
  0
LINE
  5
470
100
AcDbEntity
  8
03___PRT_ALL_CURVES
100
AcDbLine
 62
4
  6
CONTINUOUS
 10
117.6217795743
 20
286.1069741713
 11
116.5579495414
 21
287.6694741713
  0
LINE
  5
471
100
AcDbEntity
  8
03___PRT_ALL_CURVES
100
AcDbLine
 62
4
  6
CONTINUOUS
 10
119.7494390814
 20
288.7111368644
 11
120.8132688815
 21
286.6278114783
  0
LINE
  5
472
100
AcDbEntity
  8
03___PRT_ALL_CURVES
100
AcDbLine
 62
4
  6
CONTINUOUS
 10
161.9834818526
 20
191.7319741713
 11
161.4515670224
 21
193.2944741713
  0
LINE
  5
473
100
AcDbEntity
  8
03___PRT_ALL_CURVES
100
AcDbLine
 62
4
  6
CONTINUOUS
 10
164.6430560036
 20
193.8153055178
 11
165.1749708338
 21
191.2111428248
  0
LINE
  5
474
100
AcDbEntity
  8
03___PRT_ALL_CURVES
100
AcDbLine
 62
4
  6
CONTINUOUS
 10
173.1536944045
 20
129.7528084981
 11
173.1536944045
 21
145.3778084981
  0
LINE
  5
475
100
AcDbEntity
  8
03___PRT_ALL_CURVES
100
AcDbLine
 62
4
  6
CONTINUOUS
 10
173.1536944045
 20
205.2736368644
 11
173.1536944045
 21
220.8986368644
  0
LINE
  5
476
100
AcDbEntity
  8
03___PRT_ALL_CURVES
100
AcDbLine
 62
4
  6
CONTINUOUS
 10
173.1536944045
 20
277.1486368644
 11
173.1536944045
 21
292.7736368644
  0
LINE
  5
477
100
AcDbEntity
  8
03___PRT_ALL_CURVES
100
AcDbLine
 62
4
  6
CONTINUOUS
 10
176.3451837583
 20
292.7736368644
 11
176.3451837583
 21
274.0236368644
  0
LINE
  5
478
100
AcDbEntity
  8
03___PRT_ALL_CURVES
100
AcDbLine
 62
4
  6
CONTINUOUS
 10
176.3451837583
 20
261.5236368644
 11
176.3451837583
 21
258.3986368644
  0
LINE
  5
479
100
AcDbEntity
  8
03___PRT_ALL_CURVES
100
AcDbLine
 62
4
  6
CONTINUOUS
 10
176.3451837583
 20
245.8986368644
 11
176.3451837583
 21
242.7736368644
  0
LINE
  5
47A
100
AcDbEntity
  8
03___PRT_ALL_CURVES
100
AcDbLine
 62
4
  6
CONTINUOUS
 10
176.3451837583
 20
228.1903114783
 11
176.3451837583
 21
225.0653114783
  0
LINE
  5
47B
100
AcDbEntity
  8
03___PRT_ALL_CURVES
100
AcDbLine
 62
4
  6
CONTINUOUS
 10
176.3451837583
 20
220.8986368644
 11
176.3451837583
 21
202.1486428248
  0
LINE
  5
47C
100
AcDbEntity
  8
03___PRT_ALL_CURVES
100
AcDbLine
 62
4
  6
CONTINUOUS
 10
176.3451837583
 20
181.8361428248
 11
176.3451837583
 21
178.7111428248
  0
LINE
  5
47D
100
AcDbEntity
  8
03___PRT_ALL_CURVES
100
AcDbLine
 62
4
  6
CONTINUOUS
 10
176.3451837583
 20
174.5444741713
 11
176.3451837583
 21
171.4194741713
  0
LINE
  5
47E
100
AcDbEntity
  8
03___PRT_ALL_CURVES
100
AcDbLine
 62
4
  6
CONTINUOUS
 10
176.3451837583
 20
164.1278055178
 11
176.3451837583
 21
159.9611428248
  0
LINE
  5
47F
100
AcDbEntity
  8
03___PRT_ALL_CURVES
100
AcDbLine
 62
4
  6
CONTINUOUS
 10
176.3451837583
 20
152.6694741713
 11
176.3451837583
 21
149.5444741713
  0
LINE
  5
480
100
AcDbEntity
  8
03___PRT_ALL_CURVES
100
AcDbLine
 62
4
  6
CONTINUOUS
 10
176.3451837583
 20
145.3778084981
 11
176.3451837583
 21
126.627807008
  0
LINE
  5
481
100
AcDbEntity
  8
03___PRT_ALL_CURVES
100
AcDbLine
 62
4
  6
CONTINUOUS
 10
176.3451837583
 20
114.127807753
 11
176.3451837583
 21
111.002807753
  0
LINE
  5
482
100
AcDbEntity
  8
03___PRT_ALL_CURVES
100
AcDbLine
 62
4
  6
CONTINUOUS
 10
116.5579495414
 20
146.5236398446
 11
114.9622050507
 21
145.4819741713
  0
LINE
  5
483
100
AcDbEntity
  8
03___PRT_ALL_CURVES
100
AcDbLine
 62
4
  6
CONTINUOUS
 10
117.6217795743
 20
143.3986398446
 11
115.4941198809
 21
142.3569741713
  0
LINE
  5
484
100
AcDbEntity
  8
03___PRT_ALL_CURVES
100
AcDbLine
 62
4
  6
CONTINUOUS
 10
121.3451837583
 20
238.7111368644
 11
96.3451837583
 21
238.7111368644
  0
LINE
  5
485
100
AcDbEntity
  8
03___PRT_ALL_CURVES
100
AcDbLine
 62
4
  6
CONTINUOUS
 10
96.3451837583
 20
241.8361368644
 11
121.3451837583
 21
241.8361368644
  0
LINE
  5
486
100
AcDbEntity
  8
03___PRT_ALL_CURVES
100
AcDbLine
 62
4
  6
CONTINUOUS
 10
121.3451837583
 20
246.0028114783
 11
96.3451837583
 21
246.0028114783
  0
LINE
  5
487
100
AcDbEntity
  8
03___PRT_ALL_CURVES
100
AcDbLine
 62
4
  6
CONTINUOUS
 10
99.5366727395
 20
249.1278114783
 11
121.3451837583
 21
249.1278114783
  0
LINE
  5
488
100
AcDbEntity
  8
03___PRT_ALL_CURVES
100
AcDbLine
 62
4
  6
CONTINUOUS
 10
167.8345457299
 20
230.7944741713
 11
153.4728430791
 21
235.4819741713
  0
LINE
  5
489
100
AcDbEntity
  8
03___PRT_ALL_CURVES
100
AcDbLine
 62
4
  6
CONTINUOUS
 10
169.9622050507
 20
230.2736368644
 11
176.3451837583
 21
228.1903114783
  0
LINE
  5
48A
100
AcDbEntity
  8
03___PRT_ALL_CURVES
100
AcDbLine
 62
4
  6
CONTINUOUS
 10
176.3451837583
 20
225.0653114783
 11
151.3451837583
 21
233.3986368644
  0
LINE
  5
48B
100
AcDbEntity
  8
03___PRT_ALL_CURVES
100
AcDbLine
 62
4
  6
CONTINUOUS
 10
102.1962468906
 20
271.5236368644
 11
100.0685875697
 21
272.5653114783
  0
LINE
  5
48C
100
AcDbEntity
  8
03___PRT_ALL_CURVES
100
AcDbLine
 62
4
  6
CONTINUOUS
 10
101.1324172302
 20
275.6903114783
 11
102.7281632109
 21
274.6486368644
  0
LINE
  5
48D
100
AcDbEntity
  8
03___PRT_ALL_CURVES
100
AcDbLine
 62
4
  6
CONTINUOUS
 10
176.3451837583
 20
159.9611428248
 11
156.6643320604
 21
152.6694741713
  0
LINE
  5
48E
100
AcDbEntity
  8
03___PRT_ALL_CURVES
100
AcDbLine
 62
4
  6
CONTINUOUS
 10
151.3451837583
 20
154.2319741713
 11
173.6856092347
 21
162.0444741713
  0
LINE
  5
48F
100
AcDbEntity
  8
03___PRT_ALL_CURVES
100
AcDbLine
 62
4
  6
CONTINUOUS
 10
154.0047579093
 20
250.0653114783
 11
151.3451837583
 21
250.0653114783
  0
LINE
  5
490
100
AcDbEntity
  8
03___PRT_ALL_CURVES
100
AcDbLine
 62
4
  6
CONTINUOUS
 10
176.3451837583
 20
258.3986368644
 11
154.0047579093
 21
258.3986368644
  0
LINE
  5
491
100
AcDbEntity
  8
03___PRT_ALL_CURVES
100
AcDbLine
 62
4
  6
CONTINUOUS
 10
154.0047579093
 20
261.5236368644
 11
176.3451837583
 21
261.5236368644
  0
LINE
  5
492
100
AcDbEntity
  8
03___PRT_ALL_CURVES
100
AcDbLine
 62
4
  6
CONTINUOUS
 10
117.6217795743
 20
263.7111368644
 11
96.3451837583
 21
263.7111368644
  0
LINE
  5
493
100
AcDbEntity
  8
03___PRT_ALL_CURVES
100
AcDbLine
 62
4
  6
CONTINUOUS
 10
104.8558225317
 20
271.0028114783
 11
102.1962468906
 21
271.5236368644
  0
LINE
  5
494
100
AcDbEntity
  8
03___PRT_ALL_CURVES
100
AcDbLine
 62
4
  6
CONTINUOUS
 10
102.7281632109
 20
274.6486368644
 11
104.8558225317
 21
274.1278114783
  0
LINE
  5
495
100
AcDbEntity
  8
03___PRT_ALL_CURVES
100
AcDbLine
 62
4
  6
CONTINUOUS
 10
117.6217795743
 20
290.7944741713
 11
119.7494390814
 21
288.7111368644
  0
LINE
  5
496
100
AcDbEntity
  8
03___PRT_ALL_CURVES
100
AcDbLine
 62
4
  6
CONTINUOUS
 10
121.3451837583
 20
123.0861405896
 11
101.6643320604
 21
115.7944741713
  0
LINE
  5
497
100
AcDbEntity
  8
03___PRT_ALL_CURVES
100
AcDbLine
 62
4
  6
CONTINUOUS
 10
96.3451837583
 20
117.3569741713
 11
118.6856092347
 21
125.1694741713
  0
LINE
  5
498
100
AcDbEntity
  8
03___PRT_ALL_CURVES
100
AcDbLine
 62
4
  6
CONTINUOUS
 10
112.8345457299
 20
274.1278114783
 11
114.9622050507
 21
274.6486368644
  0
LINE
  5
499
100
AcDbEntity
  8
03___PRT_ALL_CURVES
100
AcDbLine
 62
4
  6
CONTINUOUS
 10
115.4941198809
 20
271.5236368644
 11
112.8345457299
 21
271.0028114783
  0
LINE
  5
49A
100
AcDbEntity
  8
03___PRT_ALL_CURVES
100
AcDbLine
 62
4
  6
CONTINUOUS
 10
96.3451837583
 20
266.8361368644
 11
121.3451837583
 21
266.8361368644
  0
LINE
  5
49B
100
AcDbEntity
  8
03___PRT_ALL_CURVES
100
AcDbLine
 62
4
  6
CONTINUOUS
 10
151.3451837583
 20
269.8569741713
 11
154.0047579093
 21
269.8569741713
  0
LINE
  5
49C
100
AcDbEntity
  8
03___PRT_ALL_CURVES
100
AcDbLine
 62
4
  6
CONTINUOUS
 10
112.8345457299
 20
271.0028114783
 11
104.8558225317
 21
271.0028114783
  0
LINE
  5
49D
100
AcDbEntity
  8
03___PRT_ALL_CURVES
100
AcDbLine
 62
4
  6
CONTINUOUS
 10
176.3451837583
 20
274.0236368644
 11
151.3451837583
 21
274.0236368644
  0
LINE
  5
49E
100
AcDbEntity
  8
03___PRT_ALL_CURVES
100
AcDbLine
 62
4
  6
CONTINUOUS
 10
104.8558225317
 20
274.1278114783
 11
112.8345457299
 21
274.1278114783
  0
LINE
  5
49F
100
AcDbEntity
  8
03___PRT_ALL_CURVES
100
AcDbLine
 62
4
  6
CONTINUOUS
 10
154.5366727395
 20
277.1486368644
 11
161.4515670224
 21
277.1486368644
  0
LINE
  5
4A0
100
AcDbEntity
  8
03___PRT_ALL_CURVES
100
AcDbLine
 62
4
  6
CONTINUOUS
 10
164.6430560036
 20
277.1486368644
 11
173.1536944045
 21
277.1486368644
  0
LINE
  5
4A1
100
AcDbEntity
  8
03___PRT_ALL_CURVES
100
AcDbLine
 62
4
  6
CONTINUOUS
 10
116.5579495414
 20
287.6694741713
 11
114.9622050507
 21
288.1903114783
  0
LINE
  5
4A2
100
AcDbEntity
  8
0
100
AcDbLine
 62
7
  6
CONTINUOUS
 10
226.8451837583
 20
38.6694741713
 11
226.8451837583
 21
356.6694741713
  0
LINE
  5
4A3
100
AcDbEntity
  8
03___PRT_ALL_CURVES
100
AcDbLine
 62
4
  6
CONTINUOUS
 10
110.706885664
 20
283.5028114783
 11
107.5153966828
 21
283.5028114783
  0
LINE
  5
4A4
100
AcDbEntity
  8
03___PRT_ALL_CURVES
100
AcDbLine
 62
4
  6
CONTINUOUS
 10
114.9622050507
 20
288.1903114783
 11
110.706885664
 21
288.1903114783
  0
LINE
  5
4A5
100
AcDbEntity
  8
03___PRT_ALL_CURVES
100
AcDbLine
 62
4
  6
CONTINUOUS
 10
161.4515670224
 20
290.6903114783
 11
164.6430560036
 21
290.6903114783
  0
LINE
  5
4A6
100
AcDbEntity
  8
03___PRT_ALL_CURVES
100
AcDbLine
 62
4
  6
CONTINUOUS
 10
107.5153966828
 20
291.3153114783
 11
115.4941198809
 21
291.3153114783
  0
LINE
  5
4A7
100
AcDbEntity
  8
03___PRT_ALL_CURVES
100
AcDbLine
 62
4
  6
CONTINUOUS
 10
151.3451837583
 20
292.7736368644
 11
154.5366727395
 21
292.7736368644
  0
LINE
  5
4A8
100
AcDbEntity
  8
03___PRT_ALL_CURVES
100
AcDbLine
 62
4
  6
CONTINUOUS
 10
173.1536944045
 20
292.7736368644
 11
176.3451837583
 21
292.7736368644
  0
LINE
  5
4A9
100
AcDbEntity
  8
03___PRT_ALL_CURVES
100
AcDbLine
 62
4
  6
CONTINUOUS
 10
115.4941198809
 20
291.3153114783
 11
117.6217795743
 21
290.7944741713
  0
LINE
  5
4AA
100
AcDbEntity
  8
02___PRT_ALL_AXES
100
AcDbLine
 62
7
  6
CENTER
 10
234.3451837583
 20
337.6694741713
 11
234.3451837583
 21
331.6694741713
  0
LINE
  5
4AB
100
AcDbEntity
  8
02___PRT_ALL_AXES
100
AcDbLine
 62
7
  6
CENTER
 10
234.3451837583
 20
57.6694741713
 11
234.3451837583
 21
51.6694741713
  0
LINE
  5
4AC
100
AcDbEntity
  8
02___PRT_ALL_AXES
100
AcDbLine
 62
7
  6
CENTER
 10
234.3451837583
 20
57.6694741713
 11
234.3451837583
 21
63.6694741713
  0
LINE
  5
4AD
100
AcDbEntity
  8
02___PRT_ALL_AXES
100
AcDbLine
 62
7
  6
CENTER
 10
234.3451837583
 20
337.6694741713
 11
234.3451837583
 21
343.6694741713
  0
LINE
  5
4AE
100
AcDbEntity
  8
03___PRT_ALL_CURVES
100
AcDbLine
 62
4
  6
CONTINUOUS
 10
100.0685875697
 20
290.7944741713
 11
102.7281632109
 21
291.3153114783
  0
LINE
  5
4AF
100
AcDbEntity
  8
02___PRT_ALL_AXES
100
AcDbLine
 62
7
  6
CENTER
 10
234.3451837583
 20
337.6694741713
 11
228.3451837583
 21
337.6694741713
  0
LINE
  5
4B0
100
AcDbEntity
  8
02___PRT_ALL_AXES
100
AcDbLine
 62
7
  6
CENTER
 10
38.3451837583
 20
337.6694741713
 11
32.3451837583
 21
337.6694741713
  0
LINE
  5
4B1
100
AcDbEntity
  8
02___PRT_ALL_AXES
100
AcDbLine
 62
7
  6
CENTER
 10
38.3451837583
 20
337.6694741713
 11
44.3451837583
 21
337.6694741713
  0
LINE
  5
4B2
100
AcDbEntity
  8
02___PRT_ALL_AXES
100
AcDbLine
 62
7
  6
CENTER
 10
234.3451837583
 20
337.6694741713
 11
240.3451837583
 21
337.6694741713
  0
LINE
  5
4B3
100
AcDbEntity
  8
0
100
AcDbLine
 62
7
  6
CONTINUOUS
 10
226.8451837583
 20
356.6694741713
 11
45.8451837583
 21
356.6694741713
  0
CIRCLE
  5
4B4
100
AcDbEntity
  8
02___PRT_ALL_AXES
100
AcDbCircle
 62
7
  6
CONTINUOUS
 10
-285.1323760914
 20
311.0600720084
 40
4.0
  0
CIRCLE
  5
4B5
100
AcDbEntity
  8
02___PRT_ALL_AXES
100
AcDbCircle
 62
7
  6
CONTINUOUS
 10
-285.1323760914
 20
81.0600720084
 40
4.0
  0
CIRCLE
  5
4B6
100
AcDbEntity
  8
02___PRT_ALL_AXES
100
AcDbCircle
 62
7
  6
CONTINUOUS
 10
-115.1323760914
 20
311.0600720084
 40
4.0
  0
CIRCLE
  5
4B7
100
AcDbEntity
  8
02___PRT_ALL_AXES
100
AcDbCircle
 62
7
  6
CONTINUOUS
 10
-115.1323760914
 20
81.0600720084
 40
4.0
  0
CIRCLE
  5
4B8
100
AcDbEntity
  8
02___PRT_ALL_AXES
100
AcDbCircle
 62
7
  6
CONTINUOUS
 10
38.3451837583
 20
337.6694741713
 40
4.0
  0
CIRCLE
  5
4B9
100
AcDbEntity
  8
02___PRT_ALL_AXES
100
AcDbCircle
 62
7
  6
CONTINUOUS
 10
38.3451837583
 20
57.6694741713
 40
4.0
  0
CIRCLE
  5
4BA
100
AcDbEntity
  8
02___PRT_ALL_AXES
100
AcDbCircle
 62
7
  6
CONTINUOUS
 10
234.3451837583
 20
337.6694741713
 40
4.0
  0
CIRCLE
  5
4BB
100
AcDbEntity
  8
02___PRT_ALL_AXES
100
AcDbCircle
 62
7
  6
CONTINUOUS
 10
234.3451837583
 20
57.6694741713
 40
4.0
  0
ENDSEC
  0
SECTION
  2
OBJECTS
  0
DICTIONARY
  5
C
100
AcDbDictionary
280
0
281
1
  3
ACAD_GROUP
350
D
  3
ACAD_MLINESTYLE
350
17
  3
ACAD_LAYOUT
350
1A
  3
ACAD_PLOTSETTINGS
350
19
  3
ACAD_PLOTSTYLENAME
350
E
  0
DICTIONARY
  5
D
102
{ACAD_REACTORS
330
C
102
}
100
AcDbDictionary
280
0
281
1
  0
ACDBDICTIONARYWDFLT
  5
E
102
{ACAD_REACTORS
330
C
102
}
100
AcDbDictionary
281
1
  3
Normal
350
F
100
AcDbDictionaryWithDefault
340
F
  0
DICTIONARY
  5
17
102
{ACAD_REACTORS
330
C
102
}
100
AcDbDictionary
280
0
281
1
  3
Standard
350
18
  0
DICTIONARY
  5
19
102
{ACAD_REACTORS
330
C
102
}
100
AcDbDictionary
281
1
  0
DICTIONARY
  5
1A
102
{ACAD_REACTORS
330
C
102
}
100
AcDbDictionary
281
1
  3
Model
350
4BC
  3
Layout1
350
4BD
  0
ACDBPLACEHOLDER
  5
F
102
{ACAD_REACTORS
330
E
102
}
  0
MLINESTYLE
  5
18
102
{ACAD_REACTORS
330
17
102
}
100
AcDbMlineStyle
  2
STANDARD
 70
0
  3

 62
256
 51
90.0
 52
90.0
 71
2
 49
0.5
 62
256
  6
BYLAYER
 49
-0.5
 62
256
  6
BYLAYER
  0
LAYOUT
  5
4BC
102
{ACAD_REACTORS
330
1A
102
}
100
AcDbPlotSettings
  1

  2
none_device
  4

  6

 40
0.0
 41
0.0
 42
0.0
 43
0.0
 44
297.0
 45
420.0
 46
0.0
 47
0.0
 48
0.0
 49
0.0
140
0.0
141
0.0
142
1.0
143
1.0
 70
1024
 72
1
 73
0
 74
0
  7

 75
0
147
1.0
148
0.0
149
0.0
100
AcDbLayout
  1
Model
 70
0
 71
0
 10
0.0
 20
0.0
 11
297.0
 21
420.0
 12
0.0
 22
0.0
 32
0.0
 14
0.0
 24
0.0
 34
0.0
 15
0.0
 25
0.0
 35
0.0
146
0.0
 13
0.0
 23
0.0
 33
0.0
 16
1.0
 26
0.0
 36
0.0
 17
0.0
 27
1.0
 37
0.0
 76
0
330
21B
345
0
346
0
  0
LAYOUT
  5
4BD
102
{ACAD_REACTORS
330
1A
102
}
100
AcDbPlotSettings
  1

  2
none_device
  4

  6

 40
0.0
 41
0.0
 42
0.0
 43
0.0
 44
297.0
 45
420.0
 46
0.0
 47
0.0
 48
0.0
 49
0.0
140
0.0
141
0.0
142
1.0
143
1.0
 70
0
 72
1
 73
0
 74
0
  7

 75
0
147
1.0
148
0.0
149
0.0
100
AcDbLayout
  1
Layout1
 70
0
 71
1
 10
0.0
 20
0.0
 11
297.0
 21
420.0
 12
0.0
 22
0.0
 32
0.0
 14
0.0
 24
0.0
 34
0.0
 15
0.0
 25
0.0
 35
0.0
146
0.0
 13
0.0
 23
0.0
 33
0.0
 16
1.0
 26
0.0
 36
0.0
 17
0.0
 27
1.0
 37
0.0
 76
0
330
21C
345
0
346
0
  0
ENDSEC
  0
EOF
