999
DXF file: I:\Projects\Thermoelectrics\TG-6xxx\TG-6405\Mounting Tempalte\44360.dxf
999
Pro/ENGINEER 2015290 by Parametric Technology Corporation
  0
SECTION
  2
HEADER
  9
$EXTMAX
 10
594.0
 20
420.0
 30
0.0
  9
$EXTMIN
 10
0.0
 20
0.0
 30
0.0
  9
$LIMMIN
 10
0.0
 20
0.0
  9
$LIMMAX
 10
594.0
 20
420.0
  9
$VIEWCTR
 10
297.0
 20
210.0
  9
$VIEWSIZE
 40
420.0
  9
$CLAYER
  8
0
  9
$LTSCALE
 40
32.67
  9
$CELTYPE
  6
BYLAYER
  9
$DIMSCALE
 40
1.0
  9
$DIMASZ
 40
2.5
  9
$DIMEXO
 40
0.0625
  9
$DIMDLI
 40
22.572
  9
$DIMEXE
 40
1.0
  9
$DIMCEN
 40
5.346
  9
$DIMLFAC
 40
1.0
  9
$DIMBLK
  1
_FILLED
  9
$DIMALT
 70
0
  9
$DIMALTF
 40
0.0393700787
  9
$DIMTXT
 40
3.5
  9
$AUNITS
 70
0
  9
$PDMODE
 70
3
  9
$PDSIZE
 40
0.3125
  9
$TILEMODE
 70
1
  0
ENDSEC
  0
SECTION
  2
TABLES
  0
TABLE
  2
LTYPE
 70
6
  0
LTYPE
  2
BYBLOCK
 70
0
  3

 72
65
 73
0
 40
0.0
  0
LTYPE
  2
BYLAYER
 70
0
  3

 72
65
 73
0
 40
0.0
  0
LTYPE
  2
CONTINUOUS
 70
64
  3
Solid line
 72
65
 73
0
 40
0.0
  0
LTYPE
  2
CENTER
 70
64
  3
____ _ ____ _ ____ _ ____ _ ____ _ ____ _ ____
 72
65
 73
4
 40
0.6
 49
0.375
 49
-0.075
 49
0.075
 49
-0.075
  0
LTYPE
  2
HIDDEN
 70
64
  3
- - - - - - - - - - - - - - - - - - - -
 72
65
 73
2
 40
0.2
 49
0.1
 49
-0.1
  0
LTYPE
  2
PHANTOM
 70
64
  3
_____ _ _ _____ _ _ _____ _ _ _____
 72
65
 73
6
 40
0.8
 49
0.45
 49
-0.05
 49
0.1
 49
-0.05
 49
0.1
 49
-0.05
  0
LTYPE
  2
DOT
 70
64
  3
. . . . . . . . . . . . . . . . . . . .
 72
65
 73
2
 40
0.2
 49
0.1
 49
-0.1
  0
LTYPE
  2
DASHED
 70
64
  3
- - - - - - - - - - - - - - - - - - - -
 72
65
 73
2
 40
0.2
 49
0.1
 49
-0.1
  0
ENDTAB
  0
TABLE
  2
LAYER
 70
36
  0
LAYER
  2
0
 70
0
 62
7
  6
CONTINUOUS
  0
LAYER
  2
DEFAULT_1
 70
0
 62
7
  6
CENTER
  0
LAYER
  2
DEFAULT_2
 70
0
 62
8
  6
HIDDEN
  0
LAYER
  2
DEFAULT_3
 70
0
 62
7
  6
PHANTOM
  0
LAYER
  2
01_ALL_DTM_PLN
 70
0
 62
7
  6
CONTINUOUS
  0
LAYER
  2
01__ASM_ALL_DTM_PLN
 70
0
 62
7
  6
CONTINUOUS
  0
LAYER
  2
01__ASM_DEF_DTM_PLN
 70
0
 62
7
  6
CONTINUOUS
  0
LAYER
  2
01___PRT_ALL_DTM_PLN
 70
0
 62
7
  6
CONTINUOUS
  0
LAYER
  2
01___PRT_DEF_DTM_PLN
 70
0
 62
7
  6
CONTINUOUS
  0
LAYER
  2
02_ALL_AXES
 70
0
 62
7
  6
CONTINUOUS
  0
LAYER
  2
02__ASM_ALL_AXES
 70
0
 62
7
  6
CONTINUOUS
  0
LAYER
  2
02___PRT_ALL_AXES
 70
0
 62
7
  6
CONTINUOUS
  0
LAYER
  2
03_ALL_CURVES
 70
0
 62
7
  6
CONTINUOUS
  0
LAYER
  2
03__ASM_ALL_CURVES
 70
0
 62
7
  6
CONTINUOUS
  0
LAYER
  2
03___PRT_ALL_CURVES
 70
0
 62
7
  6
CONTINUOUS
  0
LAYER
  2
04_ALL_DTM_PNT
 70
0
 62
7
  6
CONTINUOUS
  0
LAYER
  2
04__ASM_ALL_DTM_PNT
 70
0
 62
7
  6
CONTINUOUS
  0
LAYER
  2
04___PRT_ALL_DTM_PNT
 70
0
 62
7
  6
CONTINUOUS
  0
LAYER
  2
05_ALL_DTM_CSYS
 70
0
 62
7
  6
CONTINUOUS
  0
LAYER
  2
05__ASM_ALL_DTM_CSYS
 70
0
 62
7
  6
CONTINUOUS
  0
LAYER
  2
05__ASM_DEF_DTM_CSYS
 70
0
 62
7
  6
CONTINUOUS
  0
LAYER
  2
05___PRT_ALL_DTM_CSYS
 70
0
 62
7
  6
CONTINUOUS
  0
LAYER
  2
05___PRT_DEF_DTM_CSYS
 70
0
 62
7
  6
CONTINUOUS
  0
LAYER
  2
06_ALL_SURFS
 70
0
 62
7
  6
CONTINUOUS
  0
LAYER
  2
06__ASM_ALL_SURFS
 70
0
 62
7
  6
CONTINUOUS
  0
LAYER
  2
06___PRT_ALL_SURFS
 70
0
 62
7
  6
CONTINUOUS
  0
LAYER
  2
07__ASM_ALL_SKELETONS
 70
0
 62
7
  6
CONTINUOUS
  0
LAYER
  2
1
 70
0
 62
7
  6
CONTINUOUS
  0
LAYER
  2
10
 70
0
 62
7
  6
CONTINUOUS
  0
LAYER
  2
11
 70
0
 62
7
  6
CONTINUOUS
  0
LAYER
  2
12
 70
0
 62
7
  6
CONTINUOUS
  0
LAYER
  2
13
 70
0
 62
7
  6
CONTINUOUS
  0
LAYER
  2
14
 70
0
 62
7
  6
CONTINUOUS
  0
LAYER
  2
15
 70
0
 62
7
  6
CONTINUOUS
  0
LAYER
  2
16
 70
0
 62
7
  6
CONTINUOUS
  0
LAYER
  2
17
 70
0
 62
7
  6
CONTINUOUS
  0
LAYER
  2
18
 70
0
 62
7
  6
CONTINUOUS
  0
LAYER
  2
19
 70
0
 62
7
  6
CONTINUOUS
  0
LAYER
  2
2
 70
0
 62
7
  6
CONTINUOUS
  0
LAYER
  2
20
 70
0
 62
7
  6
CONTINUOUS
  0
LAYER
  2
21
 70
0
 62
7
  6
CONTINUOUS
  0
LAYER
  2
22
 70
0
 62
7
  6
CONTINUOUS
  0
LAYER
  2
23
 70
0
 62
7
  6
CONTINUOUS
  0
LAYER
  2
24
 70
0
 62
7
  6
CONTINUOUS
  0
LAYER
  2
25
 70
0
 62
7
  6
CONTINUOUS
  0
LAYER
  2
26
 70
0
 62
7
  6
CONTINUOUS
  0
LAYER
  2
27
 70
0
 62
7
  6
CONTINUOUS
  0
LAYER
  2
28
 70
0
 62
7
  6
CONTINUOUS
  0
LAYER
  2
29
 70
0
 62
7
  6
CONTINUOUS
  0
LAYER
  2
3
 70
0
 62
7
  6
CONTINUOUS
  0
LAYER
  2
30
 70
0
 62
7
  6
CONTINUOUS
  0
LAYER
  2
31
 70
0
 62
7
  6
CONTINUOUS
  0
LAYER
  2
32
 70
0
 62
7
  6
CONTINUOUS
  0
LAYER
  2
4
 70
0
 62
7
  6
CONTINUOUS
  0
LAYER
  2
5
 70
0
 62
7
  6
CONTINUOUS
  0
LAYER
  2
6
 70
0
 62
7
  6
CONTINUOUS
  0
LAYER
  2
7
 70
0
 62
7
  6
CONTINUOUS
  0
LAYER
  2
8
 70
0
 62
7
  6
CONTINUOUS
  0
LAYER
  2
9
 70
0
 62
7
  6
CONTINUOUS
  0
LAYER
  2
CLOSED_SHELL
 70
0
 62
7
  6
CONTINUOUS
  0
LAYER
  2
DATUM
 70
0
 62
7
  6
CONTINUOUS
  0
LAYER
  2
DATUMS
 70
0
 62
7
  6
CONTINUOUS
  0
LAYER
  2
GROMMETS
 70
0
 62
7
  6
CONTINUOUS
  0
LAYER
  2
HIDE-FOR-DRAWING
 70
0
 62
7
  6
CONTINUOUS
  0
LAYER
  2
INSULATION
 70
0
 62
7
  6
CONTINUOUS
  0
LAYER
  2
MOUNTING-TEMPLATE
 70
0
 62
7
  6
CONTINUOUS
  0
LAYER
  2
MOUNTING_ACCESSORIES
 70
0
 62
7
  6
CONTINUOUS
  0
LAYER
  2
NO-INSULATION-GROMMETS
 70
0
 62
7
  6
CONTINUOUS
  0
LAYER
  2
NONE
 70
0
 62
7
  6
CONTINUOUS
  0
LAYER
  2
SEGMENTED-HOUSING-W-INSULATION
 70
0
 62
7
  6
CONTINUOUS
  0
LAYER
  2
XSEC_DATUMS
 70
0
 62
7
  6
CONTINUOUS
  0
ENDTAB
  0
TABLE
  2
STYLE
 70
1
  0
STYLE
  2
STANDARD
 70
0
 40
0.0
 41
1.0
 50
0.0
 71
0
 42
0.2
  3
arial.ttf
  4

  0
STYLE
  2
TEXTSTYLE_1
 70
0
 40
0.0
 41
0.8
 50
0.0
 71
0
 42
0.2
  3
gdt
  4

  0
ENDTAB
  0
ENDSEC
  0
SECTION
  2
BLOCKS
  0
BLOCK
  8
0
  2
_FILLED
 70
64
 10
0.0
 20
0.0
  0
SOLID
  8
0
  6
BYBLOCK
 62
0
 10
0.0
 20
0.0
 11
-1.0
 21
0.2
 12
-1.0
 22
-0.2
 13
-1.0
 23
-0.2
  0
ENDBLK
  8
0
  6
BYBLOCK
 62
0
  0
BLOCK
  8
0
 62
2
  6
CONTINUOUS
  2
*D0
 70
65
 10
0.0
 20
0.0
  0
TEXT
  8
0
 62
5
  6
CONTINUOUS
 10
170.1792556466
 20
555.8657961702
  7
STANDARD
 40
10.0
  1
x10  
 41
1.0
 72
0
  0
TEXT
  8
0
 62
5
  6
CONTINUOUS
 10
200.4394786949
 20
555.8657961702
  7
TEXTSTYLE_1
 40
10.0
  1
n
 41
1.0
 72
0
  0
TEXT
  8
0
 62
5
  6
CONTINUOUS
 10
213.7728120282
 20
555.8657961702
  7
STANDARD
 40
10.0
  1
8
 41
1.0
 72
0
  0
TEXT
  8
0
 62
5
  6
CONTINUOUS
 10
213.7728120282
 20
540.8657961702
  7
STANDARD
 40
10.0
  1
[
 41
1.0
 72
0
  0
TEXT
  8
0
 62
5
  6
CONTINUOUS
 10
217.6389830319
 20
540.8657961702
  7
STANDARD
 40
10.0
  1
.3
 41
1.0
 72
0
  0
TEXT
  8
0
 62
5
  6
CONTINUOUS
 10
229.2746707643
 20
540.8657961702
  7
STANDARD
 40
10.0
  1
]
 41
1.0
 72
0
  0
LINE
  8
0
 62
2
  6
CONTINUOUS
 10
158.0687673256
 20
512.1315586003
 11
166.1792556466
 21
553.3657961702
  0
LINE
  8
0
 62
2
  6
CONTINUOUS
 10
166.1792556466
 20
553.3657961702
 11
235.640841768
 21
553.3657961702
  0
LINE
  8
0
 62
2
  6
CONTINUOUS
 10
235.640841768
 20
553.3657961702
 11
166.1792556466
 21
553.3657961702
  0
INSERT
  8
0
 62
2
  6
CONTINUOUS
  2
_FILLED
 10
158.0687673256
 20
512.1315586003
 41
2.5
 42
2.5
 43
2.5
 50
258.8723691589
  0
ENDBLK
  8
0
  6
BYBLOCK
 62
0
  0
BLOCK
  8
0
 62
2
  6
CONTINUOUS
  2
*D1
 70
65
 10
0.0
 20
0.0
  0
TEXT
  8
0
 62
5
  6
CONTINUOUS
 10
177.3897234419
 20
616.0476156781
  7
STANDARD
 40
10.0
  1
404
 41
1.0
 72
1
 11
189.0439985348
 21
616.0476156781
  0
TEXT
  8
0
 62
5
  6
CONTINUOUS
 10
212.2967866389
 20
616.0476156781
  7
STANDARD
 40
10.0
  1
 (centered to cutout)
 41
1.0
 72
1
 11
274.7503182374
 21
616.0476156781
  0
TEXT
  8
0
 62
5
  6
CONTINUOUS
 10
177.3897234419
 20
601.0476156781
  7
STANDARD
 40
10.0
  1
[
 41
1.0
 72
1
 11
179.3228089437
 21
601.0476156781
  0
TEXT
  8
0
 62
5
  6
CONTINUOUS
 10
181.2558944456
 20
601.0476156781
  7
STANDARD
 40
10.0
  1
15.9
 41
1.0
 72
1
 11
194.8432550404
 21
601.0476156781
  0
TEXT
  8
0
 62
5
  6
CONTINUOUS
 10
208.4306156352
 20
601.0476156781
  7
STANDARD
 40
10.0
  1
]
 41
1.0
 72
1
 11
210.363701137
 21
601.0476156781
  0
LINE
  8
0
 62
2
  6
CONTINUOUS
 10
55.2967866389
 20
432.269259775
 11
55.2967866389
 21
614.5476156781
  0
LINE
  8
0
 62
2
  6
CONTINUOUS
 10
459.2967866389
 20
432.269259775
 11
459.2967866389
 21
614.5476156781
  0
LINE
  8
0
 62
2
  6
CONTINUOUS
 10
55.2967866389
 20
613.5476156781
 11
257.2967866389
 21
613.5476156781
  0
LINE
  8
0
 62
2
  6
CONTINUOUS
 10
459.2967866389
 20
613.5476156781
 11
257.2967866389
 21
613.5476156781
  0
INSERT
  8
0
 62
2
  6
CONTINUOUS
  2
_FILLED
 10
55.2967866389
 20
613.5476156781
 41
2.5
 42
2.5
 43
2.5
 50
180.0
  0
INSERT
  8
0
 62
2
  6
CONTINUOUS
  2
_FILLED
 10
459.2967866389
 20
613.5476156781
 41
2.5
 42
2.5
 43
2.5
  0
ENDBLK
  8
0
  6
BYBLOCK
 62
0
  0
BLOCK
  8
0
 62
2
  6
CONTINUOUS
  2
*D2
 70
65
 10
0.0
 20
0.0
  0
TEXT
  8
0
 62
5
  6
CONTINUOUS
 10
-5.7705913108
 20
451.1379865408
  7
STANDARD
 40
10.0
  1
65
 50
90.0
 41
1.0
 72
1
 11
-5.7705913108
 21
458.9075032694
  0
TEXT
  8
0
 62
5
  6
CONTINUOUS
 10
9.2294086892
 20
451.1379865408
  7
STANDARD
 40
10.0
  1
[
 50
90.0
 41
1.0
 72
1
 11
9.2294086892
 21
453.0710720426
  0
TEXT
  8
0
 62
5
  6
CONTINUOUS
 10
9.2294086892
 20
455.0041575445
  7
STANDARD
 40
10.0
  1
2.6
 50
90.0
 41
1.0
 72
1
 11
9.2294086892
 21
464.706759775
  0
TEXT
  8
0
 62
5
  6
CONTINUOUS
 10
9.2294086892
 20
474.4093620055
  7
STANDARD
 40
10.0
  1
]
 50
90.0
 41
1.0
 72
1
 11
9.2294086892
 21
476.3424475073
  0
LINE
  8
0
 62
2
  6
CONTINUOUS
 10
66.2342866389
 20
497.206759775
 11
-4.2705913108
 21
497.206759775
  0
LINE
  8
0
 62
2
  6
CONTINUOUS
 10
55.2342866389
 20
432.206759775
 11
-4.2705913108
 21
432.206759775
  0
LINE
  8
0
 62
2
  6
CONTINUOUS
 10
-3.2705913108
 20
497.206759775
 11
-3.2705913108
 21
464.706759775
  0
LINE
  8
0
 62
2
  6
CONTINUOUS
 10
-3.2705913108
 20
432.206759775
 11
-3.2705913108
 21
464.706759775
  0
INSERT
  8
0
 62
2
  6
CONTINUOUS
  2
_FILLED
 10
-3.2705913108
 20
497.206759775
 41
2.5
 42
2.5
 43
2.5
 50
90.0
  0
INSERT
  8
0
 62
2
  6
CONTINUOUS
  2
_FILLED
 10
-3.2705913108
 20
432.206759775
 41
2.5
 42
2.5
 43
2.5
 50
270.0
  0
ENDBLK
  8
0
  6
BYBLOCK
 62
0
  0
BLOCK
  8
0
 62
2
  6
CONTINUOUS
  2
*D3
 70
65
 10
0.0
 20
0.0
  0
TEXT
  8
0
 62
5
  6
CONTINUOUS
 10
-5.7705913108
 20
313.6379865408
  7
STANDARD
 40
10.0
  1
210
 50
90.0
 41
1.0
 72
1
 11
-5.7705913108
 21
325.2922616337
  0
TEXT
  8
0
 62
5
  6
CONTINUOUS
 10
9.2294086892
 20
313.6379865408
  7
STANDARD
 40
10.0
  1
[
 50
90.0
 41
1.0
 72
1
 11
9.2294086892
 21
315.5710720426
  0
TEXT
  8
0
 62
5
  6
CONTINUOUS
 10
9.2294086892
 20
317.5041575445
  7
STANDARD
 40
10.0
  1
8.3
 50
90.0
 41
1.0
 72
1
 11
9.2294086892
 21
327.206759775
  0
TEXT
  8
0
 62
5
  6
CONTINUOUS
 10
9.2294086892
 20
336.9093620055
  7
STANDARD
 40
10.0
  1
]
 50
90.0
 41
1.0
 72
1
 11
9.2294086892
 21
338.8424475073
  0
LINE
  8
0
 62
2
  6
CONTINUOUS
 10
55.2342866389
 20
432.206759775
 11
-4.2705913108
 21
432.206759775
  0
LINE
  8
0
 62
2
  6
CONTINUOUS
 10
55.2342866389
 20
222.206759775
 11
-4.2705913108
 21
222.206759775
  0
LINE
  8
0
 62
2
  6
CONTINUOUS
 10
-3.2705913108
 20
432.206759775
 11
-3.2705913108
 21
327.206759775
  0
LINE
  8
0
 62
2
  6
CONTINUOUS
 10
-3.2705913108
 20
222.206759775
 11
-3.2705913108
 21
327.206759775
  0
INSERT
  8
0
 62
2
  6
CONTINUOUS
  2
_FILLED
 10
-3.2705913108
 20
432.206759775
 41
2.5
 42
2.5
 43
2.5
 50
90.0
  0
INSERT
  8
0
 62
2
  6
CONTINUOUS
  2
_FILLED
 10
-3.2705913108
 20
222.206759775
 41
2.5
 42
2.5
 43
2.5
 50
270.0
  0
ENDBLK
  8
0
  6
BYBLOCK
 62
0
  0
BLOCK
  8
0
 62
2
  6
CONTINUOUS
  2
*D4
 70
65
 10
0.0
 20
0.0
  0
TEXT
  8
0
 62
5
  6
CONTINUOUS
 10
-5.7705913108
 20
103.6379865408
  7
STANDARD
 40
10.0
  1
210
 50
90.0
 41
1.0
 72
1
 11
-5.7705913108
 21
115.2922616337
  0
TEXT
  8
0
 62
5
  6
CONTINUOUS
 10
9.2294086892
 20
103.6379865408
  7
STANDARD
 40
10.0
  1
[
 50
90.0
 41
1.0
 72
1
 11
9.2294086892
 21
105.5710720426
  0
TEXT
  8
0
 62
5
  6
CONTINUOUS
 10
9.2294086892
 20
107.5041575445
  7
STANDARD
 40
10.0
  1
8.3
 50
90.0
 41
1.0
 72
1
 11
9.2294086892
 21
117.206759775
  0
TEXT
  8
0
 62
5
  6
CONTINUOUS
 10
9.2294086892
 20
126.9093620055
  7
STANDARD
 40
10.0
  1
]
 50
90.0
 41
1.0
 72
1
 11
9.2294086892
 21
128.8424475073
  0
LINE
  8
0
 62
2
  6
CONTINUOUS
 10
55.2342866389
 20
222.206759775
 11
-4.2705913108
 21
222.206759775
  0
LINE
  8
0
 62
2
  6
CONTINUOUS
 10
55.2342866389
 20
12.206759775
 11
-4.2705913108
 21
12.206759775
  0
LINE
  8
0
 62
2
  6
CONTINUOUS
 10
-3.2705913108
 20
222.206759775
 11
-3.2705913108
 21
117.206759775
  0
LINE
  8
0
 62
2
  6
CONTINUOUS
 10
-3.2705913108
 20
12.206759775
 11
-3.2705913108
 21
117.206759775
  0
INSERT
  8
0
 62
2
  6
CONTINUOUS
  2
_FILLED
 10
-3.2705913108
 20
222.206759775
 41
2.5
 42
2.5
 43
2.5
 50
90.0
  0
INSERT
  8
0
 62
2
  6
CONTINUOUS
  2
_FILLED
 10
-3.2705913108
 20
12.206759775
 41
2.5
 42
2.5
 43
2.5
 50
270.0
  0
ENDBLK
  8
0
  6
BYBLOCK
 62
0
  0
BLOCK
  8
0
 62
2
  6
CONTINUOUS
  2
*D5
 70
65
 10
0.0
 20
0.0
  0
TEXT
  8
0
 62
5
  6
CONTINUOUS
 10
-2.9655742679
 20
-12.693224971
  7
STANDARD
 40
10.0
  1
11
 41
1.0
 72
2
 11
12.5734591893
 21
-12.693224971
  0
TEXT
  8
0
 62
5
  6
CONTINUOUS
 10
-2.9655742679
 20
-27.693224971
  7
STANDARD
 40
10.0
  1
[
 41
1.0
 72
2
 11
0.9005967358
 21
-27.693224971
  0
TEXT
  8
0
 62
5
  6
CONTINUOUS
 10
0.9005967358
 20
-27.693224971
  7
STANDARD
 40
10.0
  1
.4
 41
1.0
 72
2
 11
12.5362844682
 21
-27.693224971
  0
TEXT
  8
0
 62
5
  6
CONTINUOUS
 10
12.5362844682
 20
-27.693224971
  7
STANDARD
 40
10.0
  1
]
 41
1.0
 72
2
 11
16.4024554719
 21
-27.693224971
  0
LINE
  8
0
 62
2
  6
CONTINUOUS
 10
55.2967866389
 20
8.144259775
 11
55.2967866389
 21
-16.193224971
  0
LINE
  8
0
 62
2
  6
CONTINUOUS
 10
66.2967866389
 20
-15.193224971
 11
71.2967866389
 21
-15.193224971
  0
LINE
  8
0
 62
2
  6
CONTINUOUS
 10
71.2967866389
 20
-15.193224971
 11
60.7967866389
 21
-15.193224971
  0
LINE
  8
0
 62
2
  6
CONTINUOUS
 10
55.2967866389
 20
-15.193224971
 11
-2.9655742679
 21
-15.193224971
  0
LINE
  8
0
 62
2
  6
CONTINUOUS
 10
-2.9655742679
 20
-15.193224971
 11
60.7967866389
 21
-15.193224971
  0
INSERT
  8
0
 62
2
  6
CONTINUOUS
  2
_FILLED
 10
66.2967866389
 20
-15.193224971
 41
2.5
 42
2.5
 43
2.5
 50
180.0
  0
INSERT
  8
0
 62
2
  6
CONTINUOUS
  2
_FILLED
 10
55.2967866389
 20
-15.193224971
 41
2.5
 42
2.5
 43
2.5
 50
0.0
  0
ENDBLK
  8
0
  6
BYBLOCK
 62
0
  0
BLOCK
  8
0
 62
2
  6
CONTINUOUS
  2
*D6
 70
65
 10
0.0
 20
0.0
  0
TEXT
  8
0
 62
5
  6
CONTINUOUS
 10
548.3676931852
 20
142.2996965779
  7
STANDARD
 40
10.0
  1
572
 50
90.0
 41
1.0
 72
1
 11
548.3676931852
 21
153.9539716709
  0
TEXT
  8
0
 62
5
  6
CONTINUOUS
 10
548.3676931852
 20
177.206759775
  7
STANDARD
 40
10.0
  1
 (centered to cutout)
 50
90.0
 41
1.0
 72
1
 11
548.3676931852
 21
239.6602913735
  0
TEXT
  8
0
 62
5
  6
CONTINUOUS
 10
563.3676931852
 20
142.2996965779
  7
STANDARD
 40
10.0
  1
[
 50
90.0
 41
1.0
 72
1
 11
563.3676931852
 21
144.2327820798
  0
TEXT
  8
0
 62
5
  6
CONTINUOUS
 10
563.3676931852
 20
146.1658675817
  7
STANDARD
 40
10.0
  1
22.5
 50
90.0
 41
1.0
 72
1
 11
563.3676931852
 21
159.7532281765
  0
TEXT
  8
0
 62
5
  6
CONTINUOUS
 10
563.3676931852
 20
173.3405887713
  7
STANDARD
 40
10.0
  1
]
 50
90.0
 41
1.0
 72
1
 11
563.3676931852
 21
175.2736742731
  0
LINE
  8
0
 62
2
  6
CONTINUOUS
 10
357.3592866389
 20
508.206759775
 11
551.8676931852
 21
508.206759775
  0
LINE
  8
0
 62
2
  6
CONTINUOUS
 10
357.3592866389
 20
-63.793240225
 11
551.8676931852
 21
-63.793240225
  0
LINE
  8
0
 62
2
  6
CONTINUOUS
 10
550.8676931852
 20
508.206759775
 11
550.8676931852
 21
222.206759775
  0
LINE
  8
0
 62
2
  6
CONTINUOUS
 10
550.8676931852
 20
-63.793240225
 11
550.8676931852
 21
222.206759775
  0
INSERT
  8
0
 62
2
  6
CONTINUOUS
  2
_FILLED
 10
550.8676931852
 20
508.206759775
 41
2.5
 42
2.5
 43
2.5
 50
90.0
  0
INSERT
  8
0
 62
2
  6
CONTINUOUS
  2
_FILLED
 10
550.8676931852
 20
-63.793240225
 41
2.5
 42
2.5
 43
2.5
 50
270.0
  0
ENDBLK
  8
0
  6
BYBLOCK
 62
0
  0
BLOCK
  8
0
 62
2
  6
CONTINUOUS
  2
*D7
 70
65
 10
0.0
 20
0.0
  0
TEXT
  8
0
 62
5
  6
CONTINUOUS
 10
117.5464927904
 20
-112.6811848409
  7
STANDARD
 40
10.0
  1
11
 50
90.0
 41
1.0
 72
2
 11
117.5464927904
 21
-97.1421513837
  0
TEXT
  8
0
 62
5
  6
CONTINUOUS
 10
132.5464927904
 20
-112.6811848409
  7
STANDARD
 40
10.0
  1
[
 50
90.0
 41
1.0
 72
2
 11
132.5464927904
 21
-108.8150138372
  0
TEXT
  8
0
 62
5
  6
CONTINUOUS
 10
132.5464927904
 20
-108.8150138372
  7
STANDARD
 40
10.0
  1
.4
 50
90.0
 41
1.0
 72
2
 11
132.5464927904
 21
-97.1793261049
  0
TEXT
  8
0
 62
5
  6
CONTINUOUS
 10
132.5464927904
 20
-97.1793261049
  7
STANDARD
 40
10.0
  1
]
 50
90.0
 41
1.0
 72
2
 11
132.5464927904
 21
-93.3131551011
  0
LINE
  8
0
 62
2
  6
CONTINUOUS
 10
157.2342866389
 20
-63.793240225
 11
119.0464927904
 21
-63.793240225
  0
LINE
  8
0
 62
2
  6
CONTINUOUS
 10
120.0464927904
 20
-52.793240225
 11
120.0464927904
 21
-47.793240225
  0
LINE
  8
0
 62
2
  6
CONTINUOUS
 10
120.0464927904
 20
-47.793240225
 11
120.0464927904
 21
-58.293240225
  0
LINE
  8
0
 62
2
  6
CONTINUOUS
 10
120.0464927904
 20
-63.793240225
 11
120.0464927904
 21
-112.6811848409
  0
LINE
  8
0
 62
2
  6
CONTINUOUS
 10
120.0464927904
 20
-112.6811848409
 11
120.0464927904
 21
-58.293240225
  0
INSERT
  8
0
 62
2
  6
CONTINUOUS
  2
_FILLED
 10
120.0464927904
 20
-52.793240225
 41
2.5
 42
2.5
 43
2.5
 50
270.0
  0
INSERT
  8
0
 62
2
  6
CONTINUOUS
  2
_FILLED
 10
120.0464927904
 20
-63.793240225
 41
2.5
 42
2.5
 43
2.5
 50
90.0
  0
ENDBLK
  8
0
  6
BYBLOCK
 62
0
  0
BLOCK
  8
0
 62
2
  6
CONTINUOUS
  2
*D8
 70
65
 10
0.0
 20
0.0
  0
TEXT
  8
0
 62
5
  6
CONTINUOUS
 10
389.2280134047
 20
-106.3478233878
  7
STANDARD
 40
10.0
  1
91
 41
1.0
 72
1
 11
396.9975301333
 21
-106.3478233878
  0
TEXT
  8
0
 62
5
  6
CONTINUOUS
 10
389.2280134047
 20
-121.3478233878
  7
STANDARD
 40
10.0
  1
[
 41
1.0
 72
1
 11
391.1610989065
 21
-121.3478233878
  0
TEXT
  8
0
 62
5
  6
CONTINUOUS
 10
393.0941844084
 20
-121.3478233878
  7
STANDARD
 40
10.0
  1
3.6
 41
1.0
 72
1
 11
402.7967866389
 21
-121.3478233878
  0
TEXT
  8
0
 62
5
  6
CONTINUOUS
 10
412.4993888694
 20
-121.3478233878
  7
STANDARD
 40
10.0
  1
]
 41
1.0
 72
1
 11
414.4324743712
 21
-121.3478233878
  0
LINE
  8
0
 62
2
  6
CONTINUOUS
 10
448.2967866389
 20
-52.855740225
 11
448.2967866389
 21
-109.8478233878
  0
LINE
  8
0
 62
2
  6
CONTINUOUS
 10
357.2967866389
 20
-63.855740225
 11
357.2967866389
 21
-109.8478233878
  0
LINE
  8
0
 62
2
  6
CONTINUOUS
 10
448.2967866389
 20
-108.8478233878
 11
402.7967866389
 21
-108.8478233878
  0
LINE
  8
0
 62
2
  6
CONTINUOUS
 10
357.2967866389
 20
-108.8478233878
 11
402.7967866389
 21
-108.8478233878
  0
INSERT
  8
0
 62
2
  6
CONTINUOUS
  2
_FILLED
 10
448.2967866389
 20
-108.8478233878
 41
2.5
 42
2.5
 43
2.5
  0
INSERT
  8
0
 62
2
  6
CONTINUOUS
  2
_FILLED
 10
357.2967866389
 20
-108.8478233878
 41
2.5
 42
2.5
 43
2.5
 50
180.0
  0
ENDBLK
  8
0
  6
BYBLOCK
 62
0
  0
BLOCK
  8
0
 62
2
  6
CONTINUOUS
  2
*D9
 70
65
 10
0.0
 20
0.0
  0
TEXT
  8
0
 62
5
  6
CONTINUOUS
 10
243.7280134047
 20
-106.3478233878
  7
STANDARD
 40
10.0
  1
200
 41
1.0
 72
1
 11
255.3822884976
 21
-106.3478233878
  0
TEXT
  8
0
 62
5
  6
CONTINUOUS
 10
243.7280134047
 20
-121.3478233878
  7
STANDARD
 40
10.0
  1
[
 41
1.0
 72
1
 11
245.6610989065
 21
-121.3478233878
  0
TEXT
  8
0
 62
5
  6
CONTINUOUS
 10
247.5941844084
 20
-121.3478233878
  7
STANDARD
 40
10.0
  1
7.9
 41
1.0
 72
1
 11
257.2967866389
 21
-121.3478233878
  0
TEXT
  8
0
 62
5
  6
CONTINUOUS
 10
266.9993888694
 20
-121.3478233878
  7
STANDARD
 40
10.0
  1
]
 41
1.0
 72
1
 11
268.9324743712
 21
-121.3478233878
  0
LINE
  8
0
 62
2
  6
CONTINUOUS
 10
357.2967866389
 20
-63.855740225
 11
357.2967866389
 21
-109.8478233878
  0
LINE
  8
0
 62
2
  6
CONTINUOUS
 10
157.2967866389
 20
-63.855740225
 11
157.2967866389
 21
-109.8478233878
  0
LINE
  8
0
 62
2
  6
CONTINUOUS
 10
357.2967866389
 20
-108.8478233878
 11
257.2967866389
 21
-108.8478233878
  0
LINE
  8
0
 62
2
  6
CONTINUOUS
 10
157.2967866389
 20
-108.8478233878
 11
257.2967866389
 21
-108.8478233878
  0
INSERT
  8
0
 62
2
  6
CONTINUOUS
  2
_FILLED
 10
357.2967866389
 20
-108.8478233878
 41
2.5
 42
2.5
 43
2.5
  0
INSERT
  8
0
 62
2
  6
CONTINUOUS
  2
_FILLED
 10
157.2967866389
 20
-108.8478233878
 41
2.5
 42
2.5
 43
2.5
 50
180.0
  0
ENDBLK
  8
0
  6
BYBLOCK
 62
0
  0
BLOCK
  8
0
 62
2
  6
CONTINUOUS
  2
*D10
 70
65
 10
0.0
 20
0.0
  0
TEXT
  8
0
 62
5
  6
CONTINUOUS
 10
239.8432550404
 20
582.4306442614
  7
STANDARD
 40
10.0
  1
382
 41
1.0
 72
1
 11
251.4975301333
 21
582.4306442614
  0
TEXT
  8
0
 62
5
  6
CONTINUOUS
 10
239.8432550404
 20
567.4306442614
  7
STANDARD
 40
10.0
  1
[
 41
1.0
 72
1
 11
241.7763405422
 21
567.4306442614
  0
TEXT
  8
0
 62
5
  6
CONTINUOUS
 10
243.7094260441
 20
567.4306442614
  7
STANDARD
 40
10.0
  1
15.0
 41
1.0
 72
1
 11
257.2967866389
 21
567.4306442614
  0
TEXT
  8
0
 62
5
  6
CONTINUOUS
 10
270.8841472337
 20
567.4306442614
  7
STANDARD
 40
10.0
  1
]
 41
1.0
 72
1
 11
272.8172327355
 21
567.4306442614
  0
LINE
  8
0
 62
2
  6
CONTINUOUS
 10
448.2967866389
 20
497.269259775
 11
448.2967866389
 21
580.9306442614
  0
LINE
  8
0
 62
2
  6
CONTINUOUS
 10
66.2967866389
 20
497.269259775
 11
66.2967866389
 21
580.9306442614
  0
LINE
  8
0
 62
2
  6
CONTINUOUS
 10
448.2967866389
 20
579.9306442614
 11
257.2967866389
 21
579.9306442614
  0
LINE
  8
0
 62
2
  6
CONTINUOUS
 10
66.2967866389
 20
579.9306442614
 11
257.2967866389
 21
579.9306442614
  0
INSERT
  8
0
 62
2
  6
CONTINUOUS
  2
_FILLED
 10
448.2967866389
 20
579.9306442614
 41
2.5
 42
2.5
 43
2.5
  0
INSERT
  8
0
 62
2
  6
CONTINUOUS
  2
_FILLED
 10
66.2967866389
 20
579.9306442614
 41
2.5
 42
2.5
 43
2.5
 50
180.0
  0
ENDBLK
  8
0
  6
BYBLOCK
 62
0
  0
BLOCK
  8
0
 62
2
  6
CONTINUOUS
  2
*D11
 70
65
 10
0.0
 20
0.0
  0
TEXT
  8
0
 62
5
  6
CONTINUOUS
 10
512.782773034
 20
204.7532281765
  7
STANDARD
 40
10.0
  1
550
 50
90.0
 41
1.0
 72
1
 11
512.782773034
 21
216.4075032694
  0
TEXT
  8
0
 62
5
  6
CONTINUOUS
 10
527.782773034
 20
204.7532281765
  7
STANDARD
 40
10.0
  1
[
 50
90.0
 41
1.0
 72
1
 11
527.782773034
 21
206.6863136783
  0
TEXT
  8
0
 62
5
  6
CONTINUOUS
 10
527.782773034
 20
208.6193991802
  7
STANDARD
 40
10.0
  1
21.7
 50
90.0
 41
1.0
 72
1
 11
527.782773034
 21
222.206759775
  0
TEXT
  8
0
 62
5
  6
CONTINUOUS
 10
527.782773034
 20
235.7941203698
  7
STANDARD
 40
10.0
  1
]
 50
90.0
 41
1.0
 72
1
 11
527.782773034
 21
237.7272058716
  0
LINE
  8
0
 62
2
  6
CONTINUOUS
 10
448.3592866389
 20
497.206759775
 11
516.282773034
 21
497.206759775
  0
LINE
  8
0
 62
2
  6
CONTINUOUS
 10
448.3592866389
 20
-52.793240225
 11
516.282773034
 21
-52.793240225
  0
LINE
  8
0
 62
2
  6
CONTINUOUS
 10
515.282773034
 20
497.206759775
 11
515.282773034
 21
222.206759775
  0
LINE
  8
0
 62
2
  6
CONTINUOUS
 10
515.282773034
 20
-52.793240225
 11
515.282773034
 21
222.206759775
  0
INSERT
  8
0
 62
2
  6
CONTINUOUS
  2
_FILLED
 10
515.282773034
 20
497.206759775
 41
2.5
 42
2.5
 43
2.5
 50
90.0
  0
INSERT
  8
0
 62
2
  6
CONTINUOUS
  2
_FILLED
 10
515.282773034
 20
-52.793240225
 41
2.5
 42
2.5
 43
2.5
 50
270.0
  0
ENDBLK
  8
0
  6
BYBLOCK
 62
0
  0
ENDSEC
  0
SECTION
  2
ENTITIES
  0
DIMENSION
  8
0
 62
2
  6
CONTINUOUS
  2
*D0
 10
158.0687673256
 20
512.1315586003
 11
201.6600487073
 21
553.3657961702
 70
131
 15
156.5248059522
 25
504.2819609496
1001
ACAD
1000
DSTYLE
1002
{
1070
73
1070
1
1070
74
1070
1
1002
}
  0
DIMENSION
  8
0
 62
2
  6
CONTINUOUS
  2
*D1
 10
459.2967866389
 20
613.5476156781
 11
257.2967866389
 21
613.5476156781
 70
128
 13
55.2967866389
 23
432.206759775
 14
459.2967866389
 24
432.206759775
  0
DIMENSION
  8
0
 62
2
  6
CONTINUOUS
  2
*D2
 10
-3.2705913108
 20
432.206759775
 11
-3.2705913108
 21
464.706759775
 70
128
 13
66.2967866389
 23
497.206759775
 14
55.2967866389
 24
432.206759775
 50
270.0
  0
DIMENSION
  8
0
 62
2
  6
CONTINUOUS
  2
*D3
 10
-3.2705913108
 20
222.206759775
 11
-3.2705913108
 21
327.206759775
 70
128
 13
55.2967866389
 23
432.206759775
 14
55.2967866389
 24
222.206759775
 50
270.0
  0
DIMENSION
  8
0
 62
2
  6
CONTINUOUS
  2
*D4
 10
-3.2705913108
 20
12.206759775
 11
-3.2705913108
 21
117.206759775
 70
128
 13
55.2967866389
 23
222.206759775
 14
55.2967866389
 24
12.206759775
 50
270.0
  0
DIMENSION
  8
0
 62
2
  6
CONTINUOUS
  2
*D5
 10
55.2967866389
 20
-15.193224971
 11
6.718440602
 21
-15.193224971
 70
128
 13
66.2967866389
 23
-52.793240225
 14
55.2967866389
 24
8.206759775
 50
180.0
  0
DIMENSION
  8
0
 62
2
  6
CONTINUOUS
  2
*D6
 10
550.8676931852
 20
-63.793240225
 11
550.8676931852
 21
222.206759775
 70
128
 13
357.2967866389
 23
508.206759775
 14
357.2967866389
 24
-63.793240225
 50
270.0
  0
DIMENSION
  8
0
 62
2
  6
CONTINUOUS
  2
*D7
 10
120.0464927904
 20
-63.793240225
 11
120.0464927904
 21
-102.997169971
 70
128
 13
66.2967866389
 23
-52.793240225
 14
157.2967866389
 24
-63.793240225
 50
270.0
  0
DIMENSION
  8
0
 62
2
  6
CONTINUOUS
  2
*D8
 10
357.2967866389
 20
-108.8478233878
 11
402.7967866389
 21
-108.8478233878
 70
128
 13
448.2967866389
 23
-52.793240225
 14
357.2967866389
 24
-63.793240225
 50
180.0
  0
DIMENSION
  8
0
 62
2
  6
CONTINUOUS
  2
*D9
 10
157.2967866389
 20
-108.8478233878
 11
257.2967866389
 21
-108.8478233878
 70
128
 13
357.2967866389
 23
-63.793240225
 14
157.2967866389
 24
-63.793240225
 50
180.0
  0
DIMENSION
  8
0
 62
2
  6
CONTINUOUS
  2
*D10
 10
66.2967866389
 20
579.9306442614
 11
257.2967866389
 21
579.9306442614
 70
128
 13
448.2967866389
 23
497.206759775
 14
66.2967866389
 24
497.206759775
 50
180.0
  0
DIMENSION
  8
0
 62
2
  6
CONTINUOUS
  2
*D11
 10
515.282773034
 20
-52.793240225
 11
515.282773034
 21
222.206759775
 70
128
 13
448.2967866389
 23
497.206759775
 14
448.2967866389
 24
-52.793240225
 50
270.0
  0
TEXT
  8
0
 62
5
  6
CONTINUOUS
 10
58.3709477783
 20
-138.5832703455
  7
STANDARD
 40
10.0
  1
SCALE  
 41
1.0
 72
2
 11
111.8281968489
 21
-138.5832703455
  0
TEXT
  8
0
 62
5
  6
CONTINUOUS
 10
111.8281968489
 20
-138.5832703455
  7
STANDARD
 40
10.0
  1
1.000
 41
1.0
 72
2
 11
146.7724347671
 21
-138.5832703455
  0
LINE
  8
0
 62
2
  6
CONTINUOUS
 10
66.2967866389
 20
463.6050455321
 11
99.8985008817
 21
497.206759775
  0
LINE
  8
0
 62
7
  6
CONTINUOUS
 10
472.2967866389
 20
-76.793240225
 11
42.2967866389
 21
-76.793240225
  0
LINE
  8
0
 62
2
  6
CONTINUOUS
 10
66.2967866389
 20
430.0033312902
 11
133.5002151237
 21
497.206759775
  0
LINE
  8
0
 62
7
  6
CONTINUOUS
 10
66.2967866389
 20
-52.793240225
 11
448.2967866389
 21
-52.793240225
  0
LINE
  8
0
 62
2
  6
CONTINUOUS
 10
66.2967866389
 20
396.4016170482
 11
167.1019293657
 21
497.206759775
  0
LINE
  8
0
 62
7
  6
CONTINUOUS
 10
94.1542866389
 20
377.1652713898
 11
98.737619699
 21
381.8461218956
  0
LINE
  8
0
 62
2
  6
CONTINUOUS
 10
66.2967866389
 20
362.7999028062
 11
200.7036436077
 21
497.206759775
  0
LINE
  8
0
 62
7
  6
CONTINUOUS
 10
42.2967866389
 20
-76.793240225
 11
42.2967866389
 21
521.206759775
  0
LINE
  8
0
 62
7
  6
CONTINUOUS
 10
91.8626200064
 20
372.4844208839
 11
94.1542866389
 21
377.1652713898
  0
LINE
  8
0
 62
7
  6
CONTINUOUS
 10
101.0292866389
 20
374.8248461369
 11
98.737619699
 21
371.3142049792
  0
LINE
  8
0
 62
2
  6
CONTINUOUS
 10
66.2967866389
 20
329.1981885642
 11
90.7167866389
 21
353.6181885642
  0
LINE
  8
0
 62
2
  6
CONTINUOUS
 10
97.5917866389
 20
360.4931885642
 11
115.4340820909
 21
378.3354840162
  0
LINE
  8
0
 62
2
  6
CONTINUOUS
 10
121.9307944844
 20
384.8321964097
 11
234.3053578497
 21
497.206759775
  0
LINE
  8
0
 62
7
  6
CONTINUOUS
 10
104.4667866389
 20
377.1652713898
 11
101.0292866389
 21
374.8248461369
  0
LINE
  8
0
 62
7
  6
CONTINUOUS
 10
98.737619699
 20
381.8461218956
 11
103.3209535787
 21
384.1865471485
  0
LINE
  8
0
 62
7
  6
CONTINUOUS
 10
66.2967866389
 20
497.206759775
 11
66.2967866389
 21
-52.793240225
  0
LINE
  8
0
 62
7
  6
CONTINUOUS
 10
90.7167866389
 20
366.6333544734
 11
91.8626200064
 21
372.4844208839
  0
LINE
  8
0
 62
7
  6
CONTINUOUS
 10
98.737619699
 20
371.3142049792
 11
97.5917866389
 21
366.6333544734
  0
LINE
  8
0
 62
7
  6
CONTINUOUS
 10
134.2584543983
 20
338.5482489797
 11
129.6751188795
 21
333.8673980641
  0
LINE
  8
0
 62
2
  6
CONTINUOUS
 10
66.2967866389
 20
295.5964743222
 11
102.5969756422
 21
331.8966633255
  0
LINE
  8
0
 62
2
  6
CONTINUOUS
 10
108.275997144
 20
337.5756848273
 11
144.5709543983
 21
373.8706420816
  0
LINE
  8
0
 62
2
  6
CONTINUOUS
 10
151.44595112
 20
380.7456388034
 11
267.9070720916
 21
497.206759775
  0
LINE
  8
0
 62
7
  6
CONTINUOUS
 10
123.9459543983
 20
338.5482489797
 11
127.3834543983
 21
340.8886750522
  0
LINE
  8
0
 62
7
  6
CONTINUOUS
 10
90.7167866389
 20
349.0801634374
 11
90.7167866389
 21
366.6333544734
  0
LINE
  8
0
 62
7
  6
CONTINUOUS
 10
97.5917866389
 20
366.6333544734
 11
97.5917866389
 21
349.0801634374
  0
LINE
  8
0
 62
7
  6
CONTINUOUS
 10
127.3834543983
 20
340.8886750522
 11
128.5292866389
 21
344.3993129316
  0
LINE
  8
0
 62
2
  6
CONTINUOUS
 10
66.2967866389
 20
261.9947600802
 11
146.3131078471
 21
342.0110812885
  0
LINE
  8
0
 62
2
  6
CONTINUOUS
 10
151.8267183808
 20
347.5246918222
 11
178.94595112
 21
374.6439245614
  0
LINE
  8
0
 62
2
  6
CONTINUOUS
 10
185.82095112
 20
381.5189245614
 11
301.5087863336
 21
497.206759775
  0
LINE
  8
0
 62
7
  6
CONTINUOUS
 10
175.50845112
 20
340.8886750522
 11
172.07095112
 21
338.5482489797
  0
LINE
  8
0
 62
7
  6
CONTINUOUS
 10
129.6751188795
 20
333.8673980641
 11
125.0917866389
 21
331.5269725039
  0
LINE
  8
0
 62
7
  6
CONTINUOUS
 10
135.4042866389
 20
344.3993129316
 11
134.2584543983
 21
338.5482489797
  0
LINE
  8
0
 62
7
  6
CONTINUOUS
 10
177.8001221577
 20
344.3993129316
 11
175.50845112
 21
340.8886750522
  0
LINE
  8
0
 62
7
  6
CONTINUOUS
 10
177.8001221577
 20
333.8673980641
 11
182.38345112
 21
338.5482489797
  0
LINE
  8
0
 62
2
  6
CONTINUOUS
 10
66.2967866389
 20
228.3930458383
 11
168.4588865669
 21
330.5551457662
  0
LINE
  8
0
 62
2
  6
CONTINUOUS
 10
185.5377462218
 20
347.6340054211
 11
213.3209576766
 21
375.4172168759
  0
LINE
  8
0
 62
2
  6
CONTINUOUS
 10
223.2605005756
 20
385.356759775
 11
335.1105005756
 21
497.206759775
  0
LINE
  8
0
 62
7
  6
CONTINUOUS
 10
173.2167866389
 20
331.5269725039
 11
177.8001221577
 21
333.8673980641
  0
LINE
  8
0
 62
7
  6
CONTINUOUS
 10
280.9251156012
 20
381.8461218956
 11
285.5084576766
 21
384.1865471485
  0
LINE
  8
0
 62
7
  6
CONTINUOUS
 10
97.5917866389
 20
349.0801634374
 11
98.737619699
 21
344.3993129316
  0
LINE
  8
0
 62
7
  6
CONTINUOUS
 10
91.8626200064
 20
343.2291003051
 11
90.7167866389
 21
349.0801634374
  0
LINE
  8
0
 62
7
  6
CONTINUOUS
 10
144.5709543983
 20
385.356759775
 11
144.5709543983
 21
349.0801634374
  0
LINE
  8
0
 62
7
  6
CONTINUOUS
 10
151.44595112
 20
349.0801634374
 11
151.44595112
 21
385.356759775
  0
LINE
  8
0
 62
7
  6
CONTINUOUS
 10
178.94595112
 20
349.0801634374
 11
177.8001221577
 21
344.3993129316
  0
LINE
  8
0
 62
7
  6
CONTINUOUS
 10
166.9415785792
 20
281.7208017343
 11
177.2709527583
 21
313.3682496956
  0
LINE
  8
0
 62
7
  6
CONTINUOUS
 10
165.7938696986
 20
277.0322916549
 11
161.2030366389
 21
262.966759775
  0
LINE
  8
0
 62
7
  6
CONTINUOUS
 10
154.3167866389
 20
262.966759775
 11
172.6801205195
 21
318.056759775
  0
LINE
  8
0
 62
7
  6
CONTINUOUS
 10
182.38345112
 20
338.5482489797
 11
184.6751221577
 21
343.2291003051
  0
LINE
  8
0
 62
2
  6
CONTINUOUS
 10
66.2967866389
 20
194.7913315963
 11
164.2390729931
 21
292.7336179505
  0
LINE
  8
0
 62
2
  6
CONTINUOUS
 10
173.5871457317
 20
302.0816906891
 11
179.1417871879
 21
307.6363321453
  0
LINE
  8
0
 62
2
  6
CONTINUOUS
 10
183.7868935975
 20
312.2814385549
 11
213.3209576766
 21
341.8155026339
  0
LINE
  8
0
 62
2
  6
CONTINUOUS
 10
220.1959576766
 20
348.6905026339
 11
368.7122148176
 21
497.206759775
  0
LINE
  8
0
 62
7
  6
CONTINUOUS
 10
283.2167866389
 20
374.8248461369
 11
286.6542866389
 21
377.1652713898
  0
LINE
  8
0
 62
7
  6
CONTINUOUS
 10
94.1542866389
 20
338.5482489797
 11
91.8626200064
 21
343.2291003051
  0
LINE
  8
0
 62
7
  6
CONTINUOUS
 10
178.94595112
 20
385.356759775
 11
178.94595112
 21
349.0801634374
  0
LINE
  8
0
 62
7
  6
CONTINUOUS
 10
185.82095112
 20
349.0801634374
 11
185.82095112
 21
385.356759775
  0
LINE
  8
0
 62
7
  6
CONTINUOUS
 10
184.6751221577
 20
343.2291003051
 11
185.82095112
 21
349.0801634374
  0
LINE
  8
0
 62
7
  6
CONTINUOUS
 10
276.3417866389
 20
377.1652713898
 11
280.9251156012
 21
381.8461218956
  0
LINE
  8
0
 62
2
  6
CONTINUOUS
 10
66.2967866389
 20
161.1896173543
 11
182.1394609395
 21
277.0322916549
  0
LINE
  8
0
 62
2
  6
CONTINUOUS
 10
186.8279710189
 20
281.7208017343
 11
187.4102726081
 21
282.3031033235
  0
LINE
  8
0
 62
2
  6
CONTINUOUS
 10
192.1873217825
 20
287.0801524979
 11
209.4067866389
 21
304.2996173543
  0
LINE
  8
0
 62
2
  6
CONTINUOUS
 10
216.2930366389
 20
311.1858673543
 11
217.3032914603
 21
312.1961221757
  0
LINE
  8
0
 62
2
  6
CONTINUOUS
 10
223.1639290596
 20
318.056759775
 11
255.3575453485
 21
350.2503760639
  0
LINE
  8
0
 62
2
  6
CONTINUOUS
 10
261.2086101199
 20
356.1014408353
 11
273.1876885349
 21
368.0805192503
  0
LINE
  8
0
 62
2
  6
CONTINUOUS
 10
290.2653353716
 20
385.158166087
 11
402.3139290596
 21
497.206759775
  0
LINE
  8
0
 62
7
  6
CONTINUOUS
 10
310.7167866389
 20
333.8673980641
 11
306.1334576766
 21
331.5269725039
  0
LINE
  8
0
 62
7
  6
CONTINUOUS
 10
238.0994971613
 20
294.6142060944
 11
241.5426221613
 21
295.7863336143
  0
LINE
  8
0
 62
7
  6
CONTINUOUS
 10
128.5292866389
 20
371.3142049792
 11
127.3834543983
 21
374.8248461369
  0
LINE
  8
0
 62
7
  6
CONTINUOUS
 10
152.5917866389
 20
344.3993129316
 11
151.44595112
 21
349.0801634374
  0
LINE
  8
0
 62
7
  6
CONTINUOUS
 10
134.2584543983
 20
377.1652713898
 11
135.4042866389
 21
371.3142049792
  0
LINE
  8
0
 62
7
  6
CONTINUOUS
 10
144.5709543983
 20
349.0801634374
 11
145.7167866389
 21
343.2291003051
  0
LINE
  8
0
 62
7
  6
CONTINUOUS
 10
194.9876221577
 20
379.5056966427
 11
194.9876221577
 21
385.356759775
  0
LINE
  8
0
 62
7
  6
CONTINUOUS
 10
209.4067866389
 20
318.056759775
 11
209.4067866389
 21
262.966759775
  0
LINE
  8
0
 62
7
  6
CONTINUOUS
 10
274.0501156012
 20
372.4844208839
 11
276.3417866389
 21
377.1652713898
  0
LINE
  8
0
 62
7
  6
CONTINUOUS
 10
280.9251156012
 20
371.3142049792
 11
283.2167866389
 21
374.8248461369
  0
LINE
  8
0
 62
7
  6
CONTINUOUS
 10
247.2811616389
 20
292.2699510547
 11
250.7242866389
 21
296.9584611341
  0
LINE
  8
0
 62
7
  6
CONTINUOUS
 10
241.5426221613
 20
295.7863336143
 11
243.8380366389
 21
298.130588654
  0
LINE
  8
0
 62
2
  6
CONTINUOUS
 10
66.2967866389
 20
127.5879031123
 11
209.4067866389
 21
270.6979031123
  0
LINE
  8
0
 62
2
  6
CONTINUOUS
 10
216.2930366389
 20
277.5841531123
 11
226.2903245019
 21
287.5814409754
  0
LINE
  8
0
 62
2
  6
CONTINUOUS
 10
233.323089621
 20
294.6142060944
 11
244.7117425062
 21
306.0028589796
  0
LINE
  8
0
 62
2
  6
CONTINUOUS
 10
249.3118884849
 20
310.6030049583
 11
276.7946417518
 21
338.0857582252
  0
LINE
  8
0
 62
2
  6
CONTINUOUS
 10
281.7873418708
 20
343.0784583443
 11
310.4428048422
 21
371.7339213156
  0
LINE
  8
0
 62
2
  6
CONTINUOUS
 10
315.4887942007
 20
376.7799106741
 11
435.9156433016
 21
497.206759775
  0
LINE
  8
0
 62
7
  6
CONTINUOUS
 10
308.4251156012
 20
340.8886750522
 11
304.9876156012
 21
338.5482489797
  0
LINE
  8
0
 62
7
  6
CONTINUOUS
 10
242.6903261165
 20
289.925696015
 11
247.2811616389
 21
292.2699510547
  0
LINE
  8
0
 62
7
  6
CONTINUOUS
 10
356.5501287142
 20
331.5269725039
 11
361.1334445635
 21
333.8673980641
  0
LINE
  8
0
 62
7
  6
CONTINUOUS
 10
98.737619699
 20
344.3993129316
 11
101.0292866389
 21
340.8886750522
  0
LINE
  8
0
 62
7
  6
CONTINUOUS
 10
145.7167866389
 20
343.2291003051
 11
148.00845112
 21
338.5482489797
  0
LINE
  8
0
 62
7
  6
CONTINUOUS
 10
193.3388688777
 20
262.966759775
 11
188.7480366389
 21
277.0322916549
  0
LINE
  8
0
 62
7
  6
CONTINUOUS
 10
177.2709527583
 20
313.3682496956
 11
187.6003294001
 21
281.7208017343
  0
LINE
  8
0
 62
7
  6
CONTINUOUS
 10
213.3209576766
 20
330.356759775
 11
213.3209576766
 21
379.5056966427
  0
LINE
  8
0
 62
7
  6
CONTINUOUS
 10
216.2930366389
 20
312.1961221757
 11
216.2930366389
 21
294.6142060944
  0
LINE
  8
0
 62
7
  6
CONTINUOUS
 10
216.2930366389
 20
262.966759775
 11
216.2930366389
 21
287.5814409754
  0
LINE
  8
0
 62
7
  6
CONTINUOUS
 10
220.1959576766
 20
379.5056966427
 11
220.1959576766
 21
330.356759775
  0
LINE
  8
0
 62
7
  6
CONTINUOUS
 10
243.8380366389
 20
298.130588654
 11
244.9857471613
 21
301.6469712135
  0
LINE
  8
0
 62
7
  6
CONTINUOUS
 10
250.7242866389
 20
296.9584611341
 11
251.8719971613
 21
300.4748436937
  0
LINE
  8
0
 62
7
  6
CONTINUOUS
 10
310.7167866389
 20
344.3993129316
 11
308.4251156012
 21
340.8886750522
  0
LINE
  8
0
 62
7
  6
CONTINUOUS
 10
315.3001287142
 20
338.5482489797
 11
310.7167866389
 21
333.8673980641
  0
LINE
  8
0
 62
2
  6
CONTINUOUS
 10
66.2967866389
 20
93.9861888703
 11
242.3482068966
 21
270.0376091281
  0
LINE
  8
0
 62
2
  6
CONTINUOUS
 10
248.1048279552
 20
275.7942301866
 11
262.2013721613
 21
289.8907743927
  0
LINE
  8
0
 62
2
  6
CONTINUOUS
 10
269.0876155941
 20
296.7770178255
 11
283.3345924245
 21
311.0239946559
  0
LINE
  8
0
 62
2
  6
CONTINUOUS
 10
290.3673575435
 20
318.056759775
 11
303.248252169
 21
330.9376544004
  0
LINE
  8
0
 62
2
  6
CONTINUOUS
 10
318.0915228663
 20
345.7809250978
 11
327.9042866389
 21
355.5936888703
  0
LINE
  8
0
 62
2
  6
CONTINUOUS
 10
334.7792866389
 20
362.4686888703
 11
448.2967866389
 21
475.9861888703
  0
LINE
  8
0
 62
7
  6
CONTINUOUS
 10
358.8417866389
 20
340.8886750522
 11
355.4042866389
 21
338.5482489797
  0
LINE
  8
0
 62
7
  6
CONTINUOUS
 10
98.737619699
 20
333.8673980641
 11
94.1542866389
 21
338.5482489797
  0
LINE
  8
0
 62
7
  6
CONTINUOUS
 10
181.8617866389
 20
318.056759775
 11
200.2251188777
 21
262.966759775
  0
LINE
  8
0
 62
7
  6
CONTINUOUS
 10
238.5292866389
 20
385.356759775
 11
238.5292866389
 21
379.5056966427
  0
LINE
  8
0
 62
7
  6
CONTINUOUS
 10
244.9857471613
 20
301.6469712135
 11
244.9857471613
 21
305.1633570567
  0
LINE
  8
0
 62
7
  6
CONTINUOUS
 10
247.6959576766
 20
350.2503760639
 11
247.6959576766
 21
356.1014408353
  0
LINE
  8
0
 62
7
  6
CONTINUOUS
 10
251.8719971613
 20
300.4748436937
 11
251.8719971613
 21
305.1633570567
  0
LINE
  8
0
 62
7
  6
CONTINUOUS
 10
272.9042866389
 20
366.6333544734
 11
274.0501156012
 21
372.4844208839
  0
LINE
  8
0
 62
7
  6
CONTINUOUS
 10
279.7792866389
 20
366.6333544734
 11
280.9251156012
 21
371.3142049792
  0
LINE
  8
0
 62
7
  6
CONTINUOUS
 10
317.5917866389
 20
343.2291003051
 11
315.3001287142
 21
338.5482489797
  0
LINE
  8
0
 62
7
  6
CONTINUOUS
 10
361.1334445635
 20
333.8673980641
 11
365.7167866389
 21
338.5482489797
  0
LINE
  8
0
 62
2
  6
CONTINUOUS
 10
66.2967866389
 20
60.3844746283
 11
268.8790717855
 21
262.966759775
  0
LINE
  8
0
 62
2
  6
CONTINUOUS
 10
275.9118377255
 20
269.999525715
 11
294.6658805058
 21
288.7535684952
  0
LINE
  8
0
 62
2
  6
CONTINUOUS
 10
298.9280366389
 20
293.0157246283
 11
338.4767496944
 21
332.5644376838
  0
LINE
  8
0
 62
2
  6
CONTINUOUS
 10
343.889794247
 20
337.9774822365
 11
362.2792866389
 21
356.3669746283
  0
LINE
  8
0
 62
2
  6
CONTINUOUS
 10
369.1542866389
 20
363.2419746283
 11
385.4180086532
 21
379.5056966427
  0
LINE
  8
0
 62
2
  6
CONTINUOUS
 10
391.2690717855
 20
385.356759775
 11
448.2967866389
 21
442.3844746283
  0
LINE
  8
0
 62
2
  6
CONTINUOUS
 10
66.2967866389
 20
26.7827603863
 11
302.4807860275
 21
262.966759775
  0
LINE
  8
0
 62
2
  6
CONTINUOUS
 10
303.5188655941
 20
264.0048393415
 11
317.8104101171
 21
278.2963838646
  0
LINE
  8
0
 62
2
  6
CONTINUOUS
 10
327.3073296977
 20
287.7933034452
 11
339.893952114
 21
300.3799258615
  0
LINE
  8
0
 62
2
  6
CONTINUOUS
 10
344.5768482115
 20
305.062821959
 11
396.6542866389
 21
357.1402603863
  0
LINE
  8
0
 62
2
  6
CONTINUOUS
 10
403.5292866389
 20
364.0152603863
 11
419.0197228952
 21
379.5056966427
  0
LINE
  8
0
 62
2
  6
CONTINUOUS
 10
421.8626287142
 20
382.3486024617
 11
448.2967866389
 21
408.7827603863
  0
LINE
  8
0
 62
7
  6
CONTINUOUS
 10
154.88345112
 20
340.8886750522
 11
152.5917866389
 21
344.3993129316
  0
LINE
  8
0
 62
7
  6
CONTINUOUS
 10
235.8040761165
 20
287.5814409754
 11
244.9857471613
 21
262.966759775
  0
LINE
  8
0
 62
7
  6
CONTINUOUS
 10
262.2013721613
 20
262.966759775
 11
262.2013721613
 21
318.056759775
  0
LINE
  8
0
 62
7
  6
CONTINUOUS
 10
263.7376156012
 20
356.1014408353
 11
263.7376156012
 21
350.2503760639
  0
LINE
  8
0
 62
7
  6
CONTINUOUS
 10
269.0876155941
 20
311.0239946559
 11
269.0876155941
 21
295.7863336143
  0
LINE
  8
0
 62
7
  6
CONTINUOUS
 10
269.0876155941
 20
288.7535684952
 11
269.0876155941
 21
269.999525715
  0
LINE
  8
0
 62
7
  6
CONTINUOUS
 10
272.9042866389
 20
349.0801634374
 11
272.9042866389
 21
366.6333544734
  0
LINE
  8
0
 62
7
  6
CONTINUOUS
 10
279.7792866389
 20
349.0801634374
 11
279.7792866389
 21
366.6333544734
  0
LINE
  8
0
 62
7
  6
CONTINUOUS
 10
311.8626287142
 20
349.0801634374
 11
310.7167866389
 21
344.3993129316
  0
LINE
  8
0
 62
7
  6
CONTINUOUS
 10
361.1334445635
 20
344.3993129316
 11
358.8417866389
 21
340.8886750522
  0
LINE
  8
0
 62
2
  6
CONTINUOUS
 10
66.2967866389
 20
-6.8189538556
 11
347.8740035883
 21
274.7582630938
  0
LINE
  8
0
 62
2
  6
CONTINUOUS
 10
352.9772752699
 20
279.8615347754
 11
403.4725002695
 21
330.356759775
  0
LINE
  8
0
 62
2
  6
CONTINUOUS
 10
403.5292866389
 20
330.4135461444
 11
448.2967866389
 21
375.1810461444
  0
LINE
  8
0
 62
7
  6
CONTINUOUS
 10
103.3209535787
 20
331.5269725039
 11
98.737619699
 21
333.8673980641
  0
LINE
  8
0
 62
7
  6
CONTINUOUS
 10
101.0292866389
 20
340.8886750522
 11
104.4667866389
 21
338.5482489797
  0
LINE
  8
0
 62
7
  6
CONTINUOUS
 10
148.00845112
 20
338.5482489797
 11
152.5917866389
 21
333.8673980641
  0
LINE
  8
0
 62
7
  6
CONTINUOUS
 10
129.6751188795
 20
381.8461218956
 11
134.2584543983
 21
377.1652713898
  0
LINE
  8
0
 62
7
  6
CONTINUOUS
 10
253.0197011165
 20
262.966759775
 11
242.6903261165
 21
289.925696015
  0
LINE
  8
0
 62
7
  6
CONTINUOUS
 10
244.9857471613
 20
305.1633570567
 11
243.8380366389
 21
308.6797396162
  0
LINE
  8
0
 62
7
  6
CONTINUOUS
 10
251.8719971613
 20
305.1633570567
 11
250.7242866389
 21
308.6797396162
  0
LINE
  8
0
 62
7
  6
CONTINUOUS
 10
298.9280366389
 20
295.7863336143
 11
298.9280366389
 21
288.7535684952
  0
LINE
  8
0
 62
7
  6
CONTINUOUS
 10
303.5188655941
 20
318.056759775
 11
303.5188655941
 21
311.0239946559
  0
LINE
  8
0
 62
7
  6
CONTINUOUS
 10
303.5188655941
 20
269.999525715
 11
303.5188655941
 21
262.966759775
  0
LINE
  8
0
 62
7
  6
CONTINUOUS
 10
318.7376287142
 20
349.0801634374
 11
317.5917866389
 21
343.2291003051
  0
LINE
  8
0
 62
7
  6
CONTINUOUS
 10
325.3253326837
 20
281.7208017343
 11
335.6547076837
 21
313.3682496956
  0
LINE
  8
0
 62
7
  6
CONTINUOUS
 10
324.1776155941
 20
277.0322916549
 11
319.5867866389
 21
262.966759775
  0
LINE
  8
0
 62
7
  6
CONTINUOUS
 10
312.7005366389
 20
262.966759775
 11
331.0638655941
 21
318.056759775
  0
LINE
  8
0
 62
7
  6
CONTINUOUS
 10
365.7167866389
 20
338.5482489797
 11
368.0084445635
 21
343.2291003051
  0
LINE
  8
0
 62
2
  6
CONTINUOUS
 10
66.2967866389
 20
-40.4206680976
 11
448.2967866389
 21
341.5793319024
  0
LINE
  8
0
 62
7
  6
CONTINUOUS
 10
358.6088655941
 20
262.966759775
 11
351.7226155941
 21
262.966759775
  0
LINE
  8
0
 62
7
  6
CONTINUOUS
 10
319.5867866389
 20
262.966759775
 11
312.7005366389
 21
262.966759775
  0
LINE
  8
0
 62
7
  6
CONTINUOUS
 10
303.5188655941
 20
262.966759775
 11
262.2013721613
 21
262.966759775
  0
LINE
  8
0
 62
7
  6
CONTINUOUS
 10
200.2251188777
 20
262.966759775
 11
193.3388688777
 21
262.966759775
  0
LINE
  8
0
 62
7
  6
CONTINUOUS
 10
161.2030366389
 20
262.966759775
 11
154.3167866389
 21
262.966759775
  0
LINE
  8
0
 62
7
  6
CONTINUOUS
 10
209.4067866389
 20
262.966759775
 11
216.2930366389
 21
262.966759775
  0
LINE
  8
0
 62
7
  6
CONTINUOUS
 10
244.9857471613
 20
262.966759775
 11
253.0197011165
 21
262.966759775
  0
LINE
  8
0
 62
7
  6
CONTINUOUS
 10
269.0876155941
 20
269.999525715
 11
303.5188655941
 21
269.999525715
  0
LINE
  8
0
 62
7
  6
CONTINUOUS
 10
152.5917866389
 20
333.8673980641
 11
157.1751221577
 21
331.5269725039
  0
LINE
  8
0
 62
7
  6
CONTINUOUS
 10
158.32095112
 20
338.5482489797
 11
154.88345112
 21
340.8886750522
  0
LINE
  8
0
 62
7
  6
CONTINUOUS
 10
243.8380366389
 20
308.6797396162
 11
241.5426221613
 21
311.0239946559
  0
LINE
  8
0
 62
7
  6
CONTINUOUS
 10
250.7242866389
 20
308.6797396162
 11
247.2811616389
 21
313.3682496956
  0
LINE
  8
0
 62
7
  6
CONTINUOUS
 10
280.9251156012
 20
344.3993129316
 11
279.7792866389
 21
349.0801634374
  0
LINE
  8
0
 62
7
  6
CONTINUOUS
 10
274.0501156012
 20
343.2291003051
 11
272.9042866389
 21
349.0801634374
  0
LINE
  8
0
 62
7
  6
CONTINUOUS
 10
311.8626287142
 20
366.6333544734
 11
311.8626287142
 21
349.0801634374
  0
LINE
  8
0
 62
7
  6
CONTINUOUS
 10
318.7376287142
 20
366.6333544734
 11
318.7376287142
 21
349.0801634374
  0
LINE
  8
0
 62
7
  6
CONTINUOUS
 10
327.9042866389
 20
385.356759775
 11
327.9042866389
 21
349.0801634374
  0
LINE
  8
0
 62
7
  6
CONTINUOUS
 10
362.2792866389
 20
349.0801634374
 11
361.1334445635
 21
344.3993129316
  0
LINE
  8
0
 62
2
  6
CONTINUOUS
 10
87.5259287535
 20
-52.793240225
 11
448.2967866389
 21
307.9776176604
  0
LINE
  8
0
 62
7
  6
CONTINUOUS
 10
347.1317866389
 20
277.0322916549
 11
324.1776155941
 21
277.0322916549
  0
LINE
  8
0
 62
7
  6
CONTINUOUS
 10
188.7480366389
 20
277.0322916549
 11
165.7938696986
 21
277.0322916549
  0
LINE
  8
0
 62
7
  6
CONTINUOUS
 10
345.9840826837
 20
281.7208017343
 11
325.3253326837
 21
281.7208017343
  0
LINE
  8
0
 62
7
  6
CONTINUOUS
 10
187.6003294001
 20
281.7208017343
 11
166.9415785792
 21
281.7208017343
  0
LINE
  8
0
 62
7
  6
CONTINUOUS
 10
216.2930366389
 20
287.5814409754
 11
235.8040761165
 21
287.5814409754
  0
LINE
  8
0
 62
7
  6
CONTINUOUS
 10
298.9280366389
 20
288.7535684952
 11
269.0876155941
 21
288.7535684952
  0
LINE
  8
0
 62
7
  6
CONTINUOUS
 10
216.2930366389
 20
294.6142060944
 11
238.0994971613
 21
294.6142060944
  0
LINE
  8
0
 62
7
  6
CONTINUOUS
 10
269.0876155941
 20
295.7863336143
 11
298.9280366389
 21
295.7863336143
  0
LINE
  8
0
 62
7
  6
CONTINUOUS
 10
109.0501205186
 20
330.356759775
 11
103.3209535787
 21
331.5269725039
  0
LINE
  8
0
 62
7
  6
CONTINUOUS
 10
104.4667866389
 20
338.5482489797
 11
109.0501205186
 21
337.3780363533
  0
LINE
  8
0
 62
7
  6
CONTINUOUS
 10
127.3834543983
 20
374.8248461369
 11
123.9459543983
 21
377.1652713898
  0
LINE
  8
0
 62
7
  6
CONTINUOUS
 10
247.2811616389
 20
313.3682496956
 11
242.6903261165
 21
316.8846322551
  0
LINE
  8
0
 62
7
  6
CONTINUOUS
 10
276.3417866389
 20
338.5482489797
 11
274.0501156012
 21
343.2291003051
  0
LINE
  8
0
 62
7
  6
CONTINUOUS
 10
334.7792866389
 20
349.0801634374
 11
334.7792866389
 21
385.356759775
  0
LINE
  8
0
 62
7
  6
CONTINUOUS
 10
368.0084445635
 20
343.2291003051
 11
369.1542866389
 21
349.0801634374
  0
LINE
  8
0
 62
2
  6
CONTINUOUS
 10
121.1276429955
 20
-52.793240225
 11
448.2967866389
 21
274.3759034184
  0
LINE
  8
0
 62
7
  6
CONTINUOUS
 10
355.4042866389
 20
338.5482489797
 11
350.8209445635
 21
337.3780363533
  0
LINE
  8
0
 62
7
  6
CONTINUOUS
 10
304.9876156012
 20
338.5482489797
 11
300.4042866389
 21
337.3780363533
  0
LINE
  8
0
 62
7
  6
CONTINUOUS
 10
350.8209445635
 20
330.356759775
 11
356.5501287142
 21
331.5269725039
  0
LINE
  8
0
 62
7
  6
CONTINUOUS
 10
306.1334576766
 20
331.5269725039
 11
300.4042866389
 21
330.356759775
  0
LINE
  8
0
 62
7
  6
CONTINUOUS
 10
303.5188655941
 20
311.0239946559
 11
269.0876155941
 21
311.0239946559
  0
LINE
  8
0
 62
7
  6
CONTINUOUS
 10
238.0994971613
 20
312.1961221757
 11
216.2930366389
 21
312.1961221757
  0
LINE
  8
0
 62
7
  6
CONTINUOUS
 10
236.9517866389
 20
318.056759775
 11
209.4067866389
 21
318.056759775
  0
LINE
  8
0
 62
7
  6
CONTINUOUS
 10
172.6801205195
 20
318.056759775
 11
181.8617866389
 21
318.056759775
  0
LINE
  8
0
 62
7
  6
CONTINUOUS
 10
262.2013721613
 20
318.056759775
 11
303.5188655941
 21
318.056759775
  0
LINE
  8
0
 62
7
  6
CONTINUOUS
 10
331.0638655941
 20
318.056759775
 11
340.2455366389
 21
318.056759775
  0
LINE
  8
0
 62
7
  6
CONTINUOUS
 10
157.1751221577
 20
331.5269725039
 11
162.9042866389
 21
330.356759775
  0
LINE
  8
0
 62
7
  6
CONTINUOUS
 10
242.6903261165
 20
316.8846322551
 11
236.9517866389
 21
318.056759775
  0
LINE
  8
0
 62
7
  6
CONTINUOUS
 10
162.9042866389
 20
337.3780363533
 11
158.32095112
 21
338.5482489797
  0
LINE
  8
0
 62
7
  6
CONTINUOUS
 10
241.5426221613
 20
311.0239946559
 11
238.0994971613
 21
312.1961221757
  0
LINE
  8
0
 62
7
  6
CONTINUOUS
 10
125.0917866389
 20
384.1865471485
 11
129.6751188795
 21
381.8461218956
  0
LINE
  8
0
 62
7
  6
CONTINUOUS
 10
280.9251156012
 20
333.8673980641
 11
276.3417866389
 21
338.5482489797
  0
LINE
  8
0
 62
7
  6
CONTINUOUS
 10
283.2167866389
 20
340.8886750522
 11
280.9251156012
 21
344.3993129316
  0
LINE
  8
0
 62
7
  6
CONTINUOUS
 10
310.7167866389
 20
371.3142049792
 11
311.8626287142
 21
366.6333544734
  0
LINE
  8
0
 62
7
  6
CONTINUOUS
 10
317.5917866389
 20
372.4844208839
 11
318.7376287142
 21
366.6333544734
  0
LINE
  8
0
 62
7
  6
CONTINUOUS
 10
327.9042866389
 20
349.0801634374
 11
329.0501287142
 21
343.2291003051
  0
LINE
  8
0
 62
7
  6
CONTINUOUS
 10
362.2792866389
 20
385.356759775
 11
362.2792866389
 21
349.0801634374
  0
LINE
  8
0
 62
7
  6
CONTINUOUS
 10
369.1542866389
 20
349.0801634374
 11
369.1542866389
 21
385.356759775
  0
LINE
  8
0
 62
7
  6
CONTINUOUS
 10
378.3209445635
 20
379.5056966427
 11
378.3209445635
 21
385.356759775
  0
LINE
  8
0
 62
2
  6
CONTINUOUS
 10
154.7293572374
 20
-52.793240225
 11
448.2967866389
 21
240.7741891764
  0
LINE
  8
0
 62
7
  6
CONTINUOUS
 10
167.4876221577
 20
330.356759775
 11
173.2167866389
 21
331.5269725039
  0
LINE
  8
0
 62
7
  6
CONTINUOUS
 10
403.5292866389
 20
330.356759775
 11
396.6542866389
 21
330.356759775
  0
LINE
  8
0
 62
7
  6
CONTINUOUS
 10
300.4042866389
 20
330.356759775
 11
291.2376156012
 21
330.356759775
  0
LINE
  8
0
 62
7
  6
CONTINUOUS
 10
220.1959576766
 20
330.356759775
 11
213.3209576766
 21
330.356759775
  0
LINE
  8
0
 62
7
  6
CONTINUOUS
 10
119.3626188795
 20
330.356759775
 11
109.0501205186
 21
330.356759775
  0
LINE
  8
0
 62
7
  6
CONTINUOUS
 10
162.9042866389
 20
330.356759775
 11
167.4876221577
 21
330.356759775
  0
LINE
  8
0
 62
7
  6
CONTINUOUS
 10
346.2376287142
 20
330.356759775
 11
350.8209445635
 21
330.356759775
  0
LINE
  8
0
 62
7
  6
CONTINUOUS
 10
350.8209445635
 20
337.3780363533
 11
346.2376287142
 21
337.3780363533
  0
LINE
  8
0
 62
7
  6
CONTINUOUS
 10
300.4042866389
 20
337.3780363533
 11
291.2376156012
 21
337.3780363533
  0
LINE
  8
0
 62
7
  6
CONTINUOUS
 10
167.4876221577
 20
337.3780363533
 11
162.9042866389
 21
337.3780363533
  0
LINE
  8
0
 62
7
  6
CONTINUOUS
 10
109.0501205186
 20
337.3780363533
 11
119.3626188795
 21
337.3780363533
  0
LINE
  8
0
 62
7
  6
CONTINUOUS
 10
128.5292866389
 20
344.3993129316
 11
135.4042866389
 21
344.3993129316
  0
LINE
  8
0
 62
7
  6
CONTINUOUS
 10
291.2376156012
 20
330.356759775
 11
285.5084576766
 21
331.5269725039
  0
LINE
  8
0
 62
7
  6
CONTINUOUS
 10
340.5084445635
 20
331.5269725039
 11
346.2376287142
 21
330.356759775
  0
LINE
  8
0
 62
7
  6
CONTINUOUS
 10
123.9459543983
 20
377.1652713898
 11
119.3626188795
 21
378.3354840162
  0
LINE
  8
0
 62
7
  6
CONTINUOUS
 10
291.2376156012
 20
337.3780363533
 11
286.6542866389
 21
338.5482489797
  0
LINE
  8
0
 62
7
  6
CONTINUOUS
 10
285.5084576766
 20
331.5269725039
 11
280.9251156012
 21
333.8673980641
  0
LINE
  8
0
 62
7
  6
CONTINUOUS
 10
286.6542866389
 20
338.5482489797
 11
283.2167866389
 21
340.8886750522
  0
LINE
  8
0
 62
7
  6
CONTINUOUS
 10
329.0501287142
 20
343.2291003051
 11
331.3417866389
 21
338.5482489797
  0
LINE
  8
0
 62
7
  6
CONTINUOUS
 10
315.3001287142
 20
377.1652713898
 11
317.5917866389
 21
372.4844208839
  0
LINE
  8
0
 62
7
  6
CONTINUOUS
 10
340.2455366389
 20
318.056759775
 11
358.6088655941
 21
262.966759775
  0
LINE
  8
0
 62
7
  6
CONTINUOUS
 10
351.7226155941
 20
262.966759775
 11
347.1317866389
 21
277.0322916549
  0
LINE
  8
0
 62
7
  6
CONTINUOUS
 10
335.6547076837
 20
313.3682496956
 11
345.9840826837
 21
281.7208017343
  0
LINE
  8
0
 62
7
  6
CONTINUOUS
 10
335.9251287142
 20
344.3993129316
 11
334.7792866389
 21
349.0801634374
  0
LINE
  8
0
 62
7
  6
CONTINUOUS
 10
396.6542866389
 20
330.356759775
 11
396.6542866389
 21
379.5056966427
  0
LINE
  8
0
 62
7
  6
CONTINUOUS
 10
403.5292866389
 20
379.5056966427
 11
403.5292866389
 21
330.356759775
  0
LINE
  8
0
 62
2
  6
CONTINUOUS
 10
188.3310714794
 20
-52.793240225
 11
448.2967866389
 21
207.1724749344
  0
LINE
  8
0
 62
7
  6
CONTINUOUS
 10
172.07095112
 20
338.5482489797
 11
167.4876221577
 21
337.3780363533
  0
LINE
  8
0
 62
7
  6
CONTINUOUS
 10
286.6542866389
 20
377.1652713898
 11
291.2376156012
 21
378.3354840162
  0
LINE
  8
0
 62
7
  6
CONTINUOUS
 10
119.3626188795
 20
337.3780363533
 11
123.9459543983
 21
338.5482489797
  0
LINE
  8
0
 62
7
  6
CONTINUOUS
 10
125.0917866389
 20
331.5269725039
 11
119.3626188795
 21
330.356759775
  0
LINE
  8
0
 62
7
  6
CONTINUOUS
 10
263.7376156012
 20
350.2503760639
 11
247.6959576766
 21
350.2503760639
  0
LINE
  8
0
 62
7
  6
CONTINUOUS
 10
247.6959576766
 20
356.1014408353
 11
263.7376156012
 21
356.1014408353
  0
LINE
  8
0
 62
7
  6
CONTINUOUS
 10
135.4042866389
 20
371.3142049792
 11
128.5292866389
 21
371.3142049792
  0
LINE
  8
0
 62
7
  6
CONTINUOUS
 10
119.3626188795
 20
385.356759775
 11
125.0917866389
 21
384.1865471485
  0
LINE
  8
0
 62
7
  6
CONTINUOUS
 10
346.2376287142
 20
337.3780363533
 11
341.6542866389
 21
338.5482489797
  0
LINE
  8
0
 62
7
  6
CONTINUOUS
 10
335.9251287142
 20
333.8673980641
 11
340.5084445635
 21
331.5269725039
  0
LINE
  8
0
 62
7
  6
CONTINUOUS
 10
341.6542866389
 20
338.5482489797
 11
338.2167866389
 21
340.8886750522
  0
LINE
  8
0
 62
7
  6
CONTINUOUS
 10
331.3417866389
 20
338.5482489797
 11
335.9251287142
 21
333.8673980641
  0
LINE
  8
0
 62
7
  6
CONTINUOUS
 10
310.7167866389
 20
381.8461218956
 11
315.3001287142
 21
377.1652713898
  0
LINE
  8
0
 62
7
  6
CONTINUOUS
 10
308.4251156012
 20
374.8248461369
 11
310.7167866389
 21
371.3142049792
  0
LINE
  8
0
 62
7
  6
CONTINUOUS
 10
338.2167866389
 20
340.8886750522
 11
335.9251287142
 21
344.3993129316
  0
LINE
  8
0
 62
7
  6
CONTINUOUS
 10
421.8626287142
 20
385.356759775
 11
421.8626287142
 21
379.5056966427
  0
LINE
  8
0
 62
2
  6
CONTINUOUS
 10
221.9327857214
 20
-52.793240225
 11
448.2967866389
 21
173.5707606925
  0
LINE
  8
0
 62
7
  6
CONTINUOUS
 10
285.5084576766
 20
384.1865471485
 11
291.2376156012
 21
385.356759775
  0
LINE
  8
0
 62
7
  6
CONTINUOUS
 10
119.3626188795
 20
378.3354840162
 11
109.0501205186
 21
378.3354840162
  0
LINE
  8
0
 62
7
  6
CONTINUOUS
 10
291.2376156012
 20
378.3354840162
 11
300.4042866389
 21
378.3354840162
  0
LINE
  8
0
 62
7
  6
CONTINUOUS
 10
421.8626287142
 20
379.5056966427
 11
403.5292866389
 21
379.5056966427
  0
LINE
  8
0
 62
7
  6
CONTINUOUS
 10
396.6542866389
 20
379.5056966427
 11
378.3209445635
 21
379.5056966427
  0
LINE
  8
0
 62
7
  6
CONTINUOUS
 10
238.5292866389
 20
379.5056966427
 11
220.1959576766
 21
379.5056966427
  0
LINE
  8
0
 62
7
  6
CONTINUOUS
 10
213.3209576766
 20
379.5056966427
 11
194.9876221577
 21
379.5056966427
  0
LINE
  8
0
 62
7
  6
CONTINUOUS
 10
369.1542866389
 20
385.356759775
 11
362.2792866389
 21
385.356759775
  0
LINE
  8
0
 62
7
  6
CONTINUOUS
 10
334.7792866389
 20
385.356759775
 11
327.9042866389
 21
385.356759775
  0
LINE
  8
0
 62
7
  6
CONTINUOUS
 10
185.82095112
 20
385.356759775
 11
178.94595112
 21
385.356759775
  0
LINE
  8
0
 62
7
  6
CONTINUOUS
 10
151.44595112
 20
385.356759775
 11
144.5709543983
 21
385.356759775
  0
LINE
  8
0
 62
7
  6
CONTINUOUS
 10
109.0501205186
 20
385.356759775
 11
119.3626188795
 21
385.356759775
  0
LINE
  8
0
 62
7
  6
CONTINUOUS
 10
194.9876221577
 20
385.356759775
 11
238.5292866389
 21
385.356759775
  0
LINE
  8
0
 62
7
  6
CONTINUOUS
 10
291.2376156012
 20
385.356759775
 11
300.4042866389
 21
385.356759775
  0
LINE
  8
0
 62
7
  6
CONTINUOUS
 10
378.3209445635
 20
385.356759775
 11
421.8626287142
 21
385.356759775
  0
LINE
  8
0
 62
7
  6
CONTINUOUS
 10
300.4042866389
 20
385.356759775
 11
306.1334576766
 21
384.1865471485
  0
LINE
  8
0
 62
7
  6
CONTINUOUS
 10
300.4042866389
 20
378.3354840162
 11
304.9876156012
 21
377.1652713898
  0
LINE
  8
0
 62
7
  6
CONTINUOUS
 10
306.1334576766
 20
384.1865471485
 11
310.7167866389
 21
381.8461218956
  0
LINE
  8
0
 62
7
  6
CONTINUOUS
 10
304.9876156012
 20
377.1652713898
 11
308.4251156012
 21
374.8248461369
  0
LINE
  8
0
 62
7
  6
CONTINUOUS
 10
448.2967866389
 20
-52.793240225
 11
448.2967866389
 21
497.206759775
  0
LINE
  8
0
 62
2
  6
CONTINUOUS
 10
255.5344999634
 20
-52.793240225
 11
448.2967866389
 21
139.9690464505
  0
LINE
  8
0
 62
7
  6
CONTINUOUS
 10
109.0501205186
 20
378.3354840162
 11
104.4667866389
 21
377.1652713898
  0
LINE
  8
0
 62
7
  6
CONTINUOUS
 10
103.3209535787
 20
384.1865471485
 11
109.0501205186
 21
385.356759775
  0
LINE
  8
0
 62
7
  6
CONTINUOUS
 10
472.2967866389
 20
521.206759775
 11
472.2967866389
 21
-76.793240225
  0
LINE
  8
0
 62
2
  6
CONTINUOUS
 10
289.1362142054
 20
-52.793240225
 11
448.2967866389
 21
106.3673322085
  0
LINE
  8
0
 62
2
  6
CONTINUOUS
 10
322.7379284474
 20
-52.793240225
 11
448.2967866389
 21
72.7656179665
  0
LINE
  8
0
 62
2
  6
CONTINUOUS
 10
356.3396426893
 20
-52.793240225
 11
448.2967866389
 21
39.1639037245
  0
LINE
  8
0
 62
2
  6
CONTINUOUS
 10
389.9413569313
 20
-52.793240225
 11
448.2967866389
 21
5.5621894825
  0
LINE
  8
0
 62
7
  6
CONTINUOUS
 10
448.2967866389
 20
497.206759775
 11
66.2967866389
 21
497.206759775
  0
LINE
  8
0
 62
2
  6
CONTINUOUS
 10
423.5430711733
 20
-52.793240225
 11
448.2967866389
 21
-28.0395247595
  0
LINE
  8
0
 62
7
  6
CONTINUOUS
 10
42.2967866389
 20
521.206759775
 11
472.2967866389
 21
521.206759775
  0
CIRCLE
  8
0
 62
7
  6
CONTINUOUS
 10
157.2967866389
 20
508.206759775
 40
4.0
  0
CIRCLE
  8
0
 62
7
  6
CONTINUOUS
 10
357.2967866389
 20
508.206759775
 40
4.0
  0
CIRCLE
  8
0
 62
7
  6
CONTINUOUS
 10
459.2967866389
 20
432.206759775
 40
4.0
  0
CIRCLE
  8
0
 62
7
  6
CONTINUOUS
 10
459.2967866389
 20
222.206759775
 40
4.0
  0
CIRCLE
  8
0
 62
7
  6
CONTINUOUS
 10
459.2967866389
 20
12.206759775
 40
4.0
  0
CIRCLE
  8
0
 62
7
  6
CONTINUOUS
 10
357.2967866389
 20
-63.793240225
 40
4.0
  0
CIRCLE
  8
0
 62
7
  6
CONTINUOUS
 10
157.2967866389
 20
-63.793240225
 40
4.0
  0
CIRCLE
  8
0
 62
7
  6
CONTINUOUS
 10
55.2967866389
 20
12.206759775
 40
4.0
  0
CIRCLE
  8
0
 62
7
  6
CONTINUOUS
 10
55.2967866389
 20
222.206759775
 40
4.0
  0
CIRCLE
  8
0
 62
7
  6
CONTINUOUS
 10
55.2967866389
 20
432.206759775
 40
4.0
  0
ENDSEC
  0
EOF
