999
DXF file: C:\Users\danielc\Desktop\45228.dxf
999
Pro/ENGINEER 2017480 by Parametric Technology Corporation
  0
SECTION
  2
HEADER
  9
$EXTMAX
 10
841.0
 20
1189.0
 30
0.0
  9
$EXTMIN
 10
0.0
 20
0.0
 30
0.0
  9
$LIMMIN
 10
0.0
 20
0.0
  9
$LIMMAX
 10
841.0
 20
1189.0
  9
$VIEWCTR
 10
420.5
 20
594.5
  9
$VIEWSIZE
 40
1189.0
  9
$CLAYER
  8
0
  9
$LTSCALE
 40
77.5051851852
  9
$CELTYPE
  6
BYLAYER
  9
$DIMSCALE
 40
1.0
  9
$DIMASZ
 40
7.5
  9
$DIMEXO
 40
0.0625
  9
$DIMDLI
 40
53.549037037
  9
$DIMEXE
 40
1.0
  9
$DIMCEN
 40
12.6826666667
  9
$DIMLFAC
 40
1.0
  9
$DIMBLK
  1
_FILLED
  9
$DIMALT
 70
0
  9
$DIMALTF
 40
0.0393700787
  9
$DIMTXT
 40
3.5
  9
$AUNITS
 70
0
  9
$PDMODE
 70
3
  9
$PDSIZE
 40
0.3125
  9
$TILEMODE
 70
1
  0
ENDSEC
  0
SECTION
  2
TABLES
  0
TABLE
  2
LTYPE
 70
6
  0
LTYPE
  2
BYBLOCK
 70
0
  3

 72
65
 73
0
 40
0.0
  0
LTYPE
  2
BYLAYER
 70
0
  3

 72
65
 73
0
 40
0.0
  0
LTYPE
  2
CONTINUOUS
 70
64
  3
Solid line
 72
65
 73
0
 40
0.0
  0
LTYPE
  2
CENTER
 70
64
  3
____ _ ____ _ ____ _ ____ _ ____ _ ____ _ ____
 72
65
 73
4
 40
0.6
 49
0.375
 49
-0.075
 49
0.075
 49
-0.075
  0
LTYPE
  2
HIDDEN
 70
64
  3
- - - - - - - - - - - - - - - - - - - -
 72
65
 73
2
 40
0.2
 49
0.1
 49
-0.1
  0
LTYPE
  2
PHANTOM
 70
64
  3
_____ _ _ _____ _ _ _____ _ _ _____
 72
65
 73
6
 40
0.8
 49
0.45
 49
-0.05
 49
0.1
 49
-0.05
 49
0.1
 49
-0.05
  0
LTYPE
  2
DOT
 70
64
  3
. . . . . . . . . . . . . . . . . . . .
 72
65
 73
2
 40
0.2
 49
0.1
 49
-0.1
  0
LTYPE
  2
DASHED
 70
64
  3
- - - - - - - - - - - - - - - - - - - -
 72
65
 73
2
 40
0.2
 49
0.1
 49
-0.1
  0
ENDTAB
  0
TABLE
  2
LAYER
 70
36
  0
LAYER
  2
0
 70
0
 62
7
  6
CONTINUOUS
  0
LAYER
  2
DEFAULT_1
 70
0
 62
7
  6
CENTER
  0
LAYER
  2
DEFAULT_2
 70
0
 62
8
  6
HIDDEN
  0
LAYER
  2
DEFAULT_3
 70
0
 62
7
  6
PHANTOM
  0
LAYER
  2
01___PRT_ALL_DTM_PLN
 70
0
 62
7
  6
CONTINUOUS
  0
LAYER
  2
01___PRT_DEF_DTM_PLN
 70
0
 62
7
  6
CONTINUOUS
  0
LAYER
  2
02___PRT_ALL_AXES
 70
0
 62
7
  6
CONTINUOUS
  0
LAYER
  2
03___PRT_ALL_CURVES
 70
0
 62
7
  6
CONTINUOUS
  0
LAYER
  2
04___PRT_ALL_DTM_PNT
 70
0
 62
7
  6
CONTINUOUS
  0
LAYER
  2
05___PRT_ALL_DTM_CSYS
 70
0
 62
7
  6
CONTINUOUS
  0
LAYER
  2
05___PRT_DEF_DTM_CSYS
 70
0
 62
7
  6
CONTINUOUS
  0
LAYER
  2
06___PRT_ALL_SURFS
 70
0
 62
7
  6
CONTINUOUS
  0
ENDTAB
  0
TABLE
  2
STYLE
 70
1
  0
STYLE
  2
STANDARD
 70
0
 40
0.0
 41
1.0
 50
0.0
 71
0
 42
0.2
  3
arial.ttf
  4

  0
STYLE
  2
TEXTSTYLE_1
 70
0
 40
0.0
 41
0.8
 50
0.0
 71
0
 42
0.2
  3
gdt
  4

  0
ENDTAB
  0
ENDSEC
  0
SECTION
  2
BLOCKS
  0
BLOCK
  8
0
  2
_FILLED
 70
64
 10
0.0
 20
0.0
  0
SOLID
  8
0
  6
BYBLOCK
 62
0
 10
0.0
 20
0.0
 11
-1.0
 21
0.3333333333
 12
-1.0
 22
-0.3333333333
 13
-1.0
 23
-0.3333333333
  0
ENDBLK
  8
0
  6
BYBLOCK
 62
0
  0
BLOCK
  8
0
 62
2
  6
CONTINUOUS
  2
*D0
 70
65
 10
0.0
 20
0.0
  0
TEXT
  8
0
 62
5
  6
CONTINUOUS
 10
404.5962245784
 20
1110.6410394564
  7
STANDARD
 40
10.0
  1
460
 41
1.0
 72
1
 11
416.2504996713
 21
1110.6410394564
  0
TEXT
  8
0
 62
5
  6
CONTINUOUS
 10
404.5962245784
 20
1095.6410394564
  7
STANDARD
 40
10.0
  1
[
 41
1.0
 72
1
 11
406.5293100803
 21
1095.6410394564
  0
TEXT
  8
0
 62
5
  6
CONTINUOUS
 10
408.4623955821
 20
1095.6410394564
  7
STANDARD
 40
10.0
  1
18.11
 41
1.0
 72
1
 11
425.9345145412
 21
1095.6410394564
  0
TEXT
  8
0
 62
5
  6
CONTINUOUS
 10
443.4066335003
 20
1095.6410394564
  7
STANDARD
 40
10.0
  1
]
 41
1.0
 72
1
 11
445.3397190022
 21
1095.6410394564
  0
LINE
  8
0
 62
2
  6
CONTINUOUS
 10
655.9345145412
 20
1053.2035394564
 11
655.9345145412
 21
1109.1410394564
  0
LINE
  8
0
 62
2
  6
CONTINUOUS
 10
195.9345145412
 20
1053.2035394564
 11
195.9345145412
 21
1109.1410394564
  0
LINE
  8
0
 62
2
  6
CONTINUOUS
 10
655.9345145412
 20
1108.1410394564
 11
425.9345145412
 21
1108.1410394564
  0
LINE
  8
0
 62
2
  6
CONTINUOUS
 10
195.9345145412
 20
1108.1410394564
 11
425.9345145412
 21
1108.1410394564
  0
INSERT
  8
0
 62
2
  6
CONTINUOUS
  2
_FILLED
 10
655.9345145412
 20
1108.1410394564
 41
7.5
 42
7.5
 43
7.5
  0
INSERT
  8
0
 62
2
  6
CONTINUOUS
  2
_FILLED
 10
195.9345145412
 20
1108.1410394564
 41
7.5
 42
7.5
 43
7.5
 50
180.0
  0
ENDBLK
  8
0
  6
BYBLOCK
 62
0
  0
BLOCK
  8
0
 62
2
  6
CONTINUOUS
  2
*D1
 70
65
 10
0.0
 20
0.0
  0
TEXT
  8
0
 62
5
  6
CONTINUOUS
 10
171.4345145412
 20
1018.2375078579
  7
STANDARD
 40
10.0
  1
34,9
 50
90.0
 41
1.0
 72
1
 11
171.4345145412
 21
1031.8248684527
  0
TEXT
  8
0
 62
5
  6
CONTINUOUS
 10
186.4345145412
 20
1018.2375078579
  7
STANDARD
 40
10.0
  1
[
 50
90.0
 41
1.0
 72
1
 11
186.4345145412
 21
1020.1705933597
  0
TEXT
  8
0
 62
5
  6
CONTINUOUS
 10
186.4345145412
 20
1022.1036788616
  7
STANDARD
 40
10.0
  1
1.37
 50
90.0
 41
1.0
 72
1
 11
186.4345145412
 21
1035.6910394564
  0
TEXT
  8
0
 62
5
  6
CONTINUOUS
 10
186.4345145412
 20
1049.2784000512
  7
STANDARD
 40
10.0
  1
]
 50
90.0
 41
1.0
 72
1
 11
186.4345145412
 21
1051.211485553
  0
LINE
  8
0
 62
2
  6
CONTINUOUS
 10
195.8720145412
 20
1053.1410394564
 11
191.4345145412
 21
1053.1410394564
  0
LINE
  8
0
 62
2
  6
CONTINUOUS
 10
235.8720145412
 20
1018.2410394564
 11
191.4345145412
 21
1018.2410394564
  0
LINE
  8
0
 62
2
  6
CONTINUOUS
 10
173.9345145412
 20
1053.1410394564
 11
173.9345145412
 21
1035.6910394564
  0
LINE
  8
0
 62
2
  6
CONTINUOUS
 10
173.9345145412
 20
1018.2410394564
 11
173.9345145412
 21
1035.6910394564
  0
INSERT
  8
0
 62
2
  6
CONTINUOUS
  2
_FILLED
 10
173.9345145412
 20
1053.1410394564
 41
7.5
 42
7.5
 43
7.5
 50
90.0
  0
INSERT
  8
0
 62
2
  6
CONTINUOUS
  2
_FILLED
 10
173.9345145412
 20
1018.2410394564
 41
7.5
 42
7.5
 43
7.5
 50
270.0
  0
ENDBLK
  8
0
  6
BYBLOCK
 62
0
  0
BLOCK
  8
0
 62
2
  6
CONTINUOUS
  2
*D2
 70
65
 10
0.0
 20
0.0
  0
TEXT
  8
0
 62
5
  6
CONTINUOUS
 10
171.4345145412
 20
911.8689204973
  7
STANDARD
 40
10.0
  1
177,8
 50
90.0
 41
1.0
 72
1
 11
171.4345145412
 21
929.3410394564
  0
TEXT
  8
0
 62
5
  6
CONTINUOUS
 10
186.4345145412
 20
911.8689204973
  7
STANDARD
 40
10.0
  1
[
 50
90.0
 41
1.0
 72
1
 11
186.4345145412
 21
913.8020059991
  0
TEXT
  8
0
 62
5
  6
CONTINUOUS
 10
186.4345145412
 20
915.735091501
  7
STANDARD
 40
10.0
  1
7.00
 50
90.0
 41
1.0
 72
1
 11
186.4345145412
 21
929.3224520958
  0
TEXT
  8
0
 62
5
  6
CONTINUOUS
 10
186.4345145412
 20
942.9098126906
  7
STANDARD
 40
10.0
  1
]
 50
90.0
 41
1.0
 72
1
 11
186.4345145412
 21
944.8428981924
  0
LINE
  8
0
 62
2
  6
CONTINUOUS
 10
235.8720145412
 20
840.4410394564
 11
172.9345145412
 21
840.4410394564
  0
LINE
  8
0
 62
2
  6
CONTINUOUS
 10
235.8720145412
 20
1018.2410394564
 11
172.9345145412
 21
1018.2410394564
  0
LINE
  8
0
 62
2
  6
CONTINUOUS
 10
173.9345145412
 20
840.4410394564
 11
173.9345145412
 21
929.3410394564
  0
LINE
  8
0
 62
2
  6
CONTINUOUS
 10
173.9345145412
 20
1018.2410394564
 11
173.9345145412
 21
929.3410394564
  0
INSERT
  8
0
 62
2
  6
CONTINUOUS
  2
_FILLED
 10
173.9345145412
 20
840.4410394564
 41
7.5
 42
7.5
 43
7.5
 50
270.0
  0
INSERT
  8
0
 62
2
  6
CONTINUOUS
  2
_FILLED
 10
173.9345145412
 20
1018.2410394564
 41
7.5
 42
7.5
 43
7.5
 50
90.0
  0
ENDBLK
  8
0
  6
BYBLOCK
 62
0
  0
BLOCK
  8
0
 62
2
  6
CONTINUOUS
  2
*D3
 70
65
 10
0.0
 20
0.0
  0
TEXT
  8
0
 62
5
  6
CONTINUOUS
 10
171.4345145412
 20
734.0689204973
  7
STANDARD
 40
10.0
  1
177,8
 50
90.0
 41
1.0
 72
1
 11
171.4345145412
 21
751.5410394564
  0
TEXT
  8
0
 62
5
  6
CONTINUOUS
 10
186.4345145412
 20
734.0689204973
  7
STANDARD
 40
10.0
  1
[
 50
90.0
 41
1.0
 72
1
 11
186.4345145412
 21
736.0020059991
  0
TEXT
  8
0
 62
5
  6
CONTINUOUS
 10
186.4345145412
 20
737.935091501
  7
STANDARD
 40
10.0
  1
7.00
 50
90.0
 41
1.0
 72
1
 11
186.4345145412
 21
751.5224520958
  0
TEXT
  8
0
 62
5
  6
CONTINUOUS
 10
186.4345145412
 20
765.1098126906
  7
STANDARD
 40
10.0
  1
]
 50
90.0
 41
1.0
 72
1
 11
186.4345145412
 21
767.0428981924
  0
LINE
  8
0
 62
2
  6
CONTINUOUS
 10
235.8720145412
 20
840.4410394564
 11
172.9345145412
 21
840.4410394564
  0
LINE
  8
0
 62
2
  6
CONTINUOUS
 10
235.8720145412
 20
662.6410394564
 11
172.9345145412
 21
662.6410394564
  0
LINE
  8
0
 62
2
  6
CONTINUOUS
 10
173.9345145412
 20
840.4410394564
 11
173.9345145412
 21
751.5410394564
  0
LINE
  8
0
 62
2
  6
CONTINUOUS
 10
173.9345145412
 20
662.6410394564
 11
173.9345145412
 21
751.5410394564
  0
INSERT
  8
0
 62
2
  6
CONTINUOUS
  2
_FILLED
 10
173.9345145412
 20
840.4410394564
 41
7.5
 42
7.5
 43
7.5
 50
90.0
  0
INSERT
  8
0
 62
2
  6
CONTINUOUS
  2
_FILLED
 10
173.9345145412
 20
662.6410394564
 41
7.5
 42
7.5
 43
7.5
 50
270.0
  0
ENDBLK
  8
0
  6
BYBLOCK
 62
0
  0
BLOCK
  8
0
 62
2
  6
CONTINUOUS
  2
*D4
 70
65
 10
0.0
 20
0.0
  0
TEXT
  8
0
 62
5
  6
CONTINUOUS
 10
171.4345145412
 20
553.0689204973
  7
STANDARD
 40
10.0
  1
184,2
 50
90.0
 41
1.0
 72
1
 11
171.4345145412
 21
570.5410394564
  0
TEXT
  8
0
 62
5
  6
CONTINUOUS
 10
186.4345145412
 20
553.0689204973
  7
STANDARD
 40
10.0
  1
[
 50
90.0
 41
1.0
 72
1
 11
186.4345145412
 21
555.0020059991
  0
TEXT
  8
0
 62
5
  6
CONTINUOUS
 10
186.4345145412
 20
556.935091501
  7
STANDARD
 40
10.0
  1
7.25
 50
90.0
 41
1.0
 72
1
 11
186.4345145412
 21
570.5224520958
  0
TEXT
  8
0
 62
5
  6
CONTINUOUS
 10
186.4345145412
 20
584.1098126906
  7
STANDARD
 40
10.0
  1
]
 50
90.0
 41
1.0
 72
1
 11
186.4345145412
 21
586.0428981924
  0
LINE
  8
0
 62
2
  6
CONTINUOUS
 10
235.8720145412
 20
662.6410394564
 11
172.9345145412
 21
662.6410394564
  0
LINE
  8
0
 62
2
  6
CONTINUOUS
 10
235.8720145412
 20
478.4410394564
 11
172.9345145412
 21
478.4410394564
  0
LINE
  8
0
 62
2
  6
CONTINUOUS
 10
173.9345145412
 20
662.6410394564
 11
173.9345145412
 21
570.5410394564
  0
LINE
  8
0
 62
2
  6
CONTINUOUS
 10
173.9345145412
 20
478.4410394564
 11
173.9345145412
 21
570.5410394564
  0
INSERT
  8
0
 62
2
  6
CONTINUOUS
  2
_FILLED
 10
173.9345145412
 20
662.6410394564
 41
7.5
 42
7.5
 43
7.5
 50
90.0
  0
INSERT
  8
0
 62
2
  6
CONTINUOUS
  2
_FILLED
 10
173.9345145412
 20
478.4410394564
 41
7.5
 42
7.5
 43
7.5
 50
270.0
  0
ENDBLK
  8
0
  6
BYBLOCK
 62
0
  0
BLOCK
  8
0
 62
2
  6
CONTINUOUS
  2
*D5
 70
65
 10
0.0
 20
0.0
  0
TEXT
  8
0
 62
5
  6
CONTINUOUS
 10
171.4345145412
 20
304.7027494936
  7
STANDARD
 40
10.0
  1
304,8
 50
90.0
 41
1.0
 72
1
 11
171.4345145412
 21
322.1748684527
  0
TEXT
  8
0
 62
5
  6
CONTINUOUS
 10
186.4345145412
 20
304.7027494936
  7
STANDARD
 40
10.0
  1
[
 50
90.0
 41
1.0
 72
1
 11
186.4345145412
 21
306.6358349954
  0
TEXT
  8
0
 62
5
  6
CONTINUOUS
 10
186.4345145412
 20
308.5689204973
  7
STANDARD
 40
10.0
  1
12.00
 50
90.0
 41
1.0
 72
1
 11
186.4345145412
 21
326.0410394564
  0
TEXT
  8
0
 62
5
  6
CONTINUOUS
 10
186.4345145412
 20
343.5131584155
  7
STANDARD
 40
10.0
  1
]
 50
90.0
 41
1.0
 72
1
 11
186.4345145412
 21
345.4462439173
  0
LINE
  8
0
 62
2
  6
CONTINUOUS
 10
235.8720145412
 20
478.4410394564
 11
172.9345145412
 21
478.4410394564
  0
LINE
  8
0
 62
2
  6
CONTINUOUS
 10
235.8720145412
 20
173.6410394564
 11
172.9345145412
 21
173.6410394564
  0
LINE
  8
0
 62
2
  6
CONTINUOUS
 10
173.9345145412
 20
478.4410394564
 11
173.9345145412
 21
326.0410394564
  0
LINE
  8
0
 62
2
  6
CONTINUOUS
 10
173.9345145412
 20
173.6410394564
 11
173.9345145412
 21
326.0410394564
  0
INSERT
  8
0
 62
2
  6
CONTINUOUS
  2
_FILLED
 10
173.9345145412
 20
478.4410394564
 41
7.5
 42
7.5
 43
7.5
 50
90.0
  0
INSERT
  8
0
 62
2
  6
CONTINUOUS
  2
_FILLED
 10
173.9345145412
 20
173.6410394564
 41
7.5
 42
7.5
 43
7.5
 50
270.0
  0
ENDBLK
  8
0
  6
BYBLOCK
 62
0
  0
BLOCK
  8
0
 62
2
  6
CONTINUOUS
  2
*D6
 70
65
 10
0.0
 20
0.0
  0
TEXT
  8
0
 62
5
  6
CONTINUOUS
 10
171.4345145412
 20
138.7375078579
  7
STANDARD
 40
10.0
  1
34,9
 50
90.0
 41
1.0
 72
1
 11
171.4345145412
 21
152.3248684527
  0
TEXT
  8
0
 62
5
  6
CONTINUOUS
 10
186.4345145412
 20
138.7375078579
  7
STANDARD
 40
10.0
  1
[
 50
90.0
 41
1.0
 72
1
 11
186.4345145412
 21
140.6705933597
  0
TEXT
  8
0
 62
5
  6
CONTINUOUS
 10
186.4345145412
 20
142.6036788616
  7
STANDARD
 40
10.0
  1
1.37
 50
90.0
 41
1.0
 72
1
 11
186.4345145412
 21
156.1910394564
  0
TEXT
  8
0
 62
5
  6
CONTINUOUS
 10
186.4345145412
 20
169.7784000512
  7
STANDARD
 40
10.0
  1
]
 50
90.0
 41
1.0
 72
1
 11
186.4345145412
 21
171.711485553
  0
LINE
  8
0
 62
2
  6
CONTINUOUS
 10
195.8720145412
 20
138.7410394564
 11
191.4345145412
 21
138.7410394564
  0
LINE
  8
0
 62
2
  6
CONTINUOUS
 10
235.8720145412
 20
173.6410394564
 11
191.4345145412
 21
173.6410394564
  0
LINE
  8
0
 62
2
  6
CONTINUOUS
 10
173.9345145412
 20
138.7410394564
 11
173.9345145412
 21
156.1910394564
  0
LINE
  8
0
 62
2
  6
CONTINUOUS
 10
173.9345145412
 20
173.6410394564
 11
173.9345145412
 21
156.1910394564
  0
INSERT
  8
0
 62
2
  6
CONTINUOUS
  2
_FILLED
 10
173.9345145412
 20
138.7410394564
 41
7.5
 42
7.5
 43
7.5
 50
270.0
  0
INSERT
  8
0
 62
2
  6
CONTINUOUS
  2
_FILLED
 10
173.9345145412
 20
173.6410394564
 41
7.5
 42
7.5
 43
7.5
 50
90.0
  0
ENDBLK
  8
0
  6
BYBLOCK
 62
0
  0
BLOCK
  8
0
 62
2
  6
CONTINUOUS
  2
*D7
 70
65
 10
0.0
 20
0.0
  0
TEXT
  8
0
 62
5
  6
CONTINUOUS
 10
704.5787971293
 20
846.8027494936
  7
STANDARD
 40
10.0
  1
285
 50
90.0
 41
1.0
 72
1
 11
704.5787971293
 21
858.4570245865
  0
TEXT
  8
0
 62
5
  6
CONTINUOUS
 10
719.5787971293
 20
846.8027494936
  7
STANDARD
 40
10.0
  1
[
 50
90.0
 41
1.0
 72
1
 11
719.5787971293
 21
848.7358349954
  0
TEXT
  8
0
 62
5
  6
CONTINUOUS
 10
719.5787971293
 20
850.6689204973
  7
STANDARD
 40
10.0
  1
11.22
 50
90.0
 41
1.0
 72
1
 11
719.5787971293
 21
868.1410394564
  0
TEXT
  8
0
 62
5
  6
CONTINUOUS
 10
719.5787971293
 20
885.6131584155
  7
STANDARD
 40
10.0
  1
]
 50
90.0
 41
1.0
 72
1
 11
719.5787971293
 21
887.5462439173
  0
LINE
  8
0
 62
2
  6
CONTINUOUS
 10
573.9970145412
 20
1010.6410394564
 11
708.0787971293
 21
1010.6410394564
  0
LINE
  8
0
 62
2
  6
CONTINUOUS
 10
573.9970145412
 20
725.6410394564
 11
708.0787971293
 21
725.6410394564
  0
LINE
  8
0
 62
2
  6
CONTINUOUS
 10
707.0787971293
 20
1010.6410394564
 11
707.0787971293
 21
868.1410394564
  0
LINE
  8
0
 62
2
  6
CONTINUOUS
 10
707.0787971293
 20
725.6410394564
 11
707.0787971293
 21
868.1410394564
  0
INSERT
  8
0
 62
2
  6
CONTINUOUS
  2
_FILLED
 10
707.0787971293
 20
1010.6410394564
 41
7.5
 42
7.5
 43
7.5
 50
90.0
  0
INSERT
  8
0
 62
2
  6
CONTINUOUS
  2
_FILLED
 10
707.0787971293
 20
725.6410394564
 41
7.5
 42
7.5
 43
7.5
 50
270.0
  0
ENDBLK
  8
0
  6
BYBLOCK
 62
0
  0
BLOCK
  8
0
 62
2
  6
CONTINUOUS
  2
*D8
 70
65
 10
0.0
 20
0.0
  0
TEXT
  8
0
 62
5
  6
CONTINUOUS
 10
704.5787971293
 20
1014.4375078579
  7
STANDARD
 40
10.0
  1
42,5
 50
90.0
 41
1.0
 72
1
 11
704.5787971293
 21
1028.0248684527
  0
TEXT
  8
0
 62
5
  6
CONTINUOUS
 10
719.5787971293
 20
1014.4375078579
  7
STANDARD
 40
10.0
  1
[
 50
90.0
 41
1.0
 72
1
 11
719.5787971293
 21
1016.3705933597
  0
TEXT
  8
0
 62
5
  6
CONTINUOUS
 10
719.5787971293
 20
1018.3036788616
  7
STANDARD
 40
10.0
  1
1.67
 50
90.0
 41
1.0
 72
1
 11
719.5787971293
 21
1031.8910394564
  0
TEXT
  8
0
 62
5
  6
CONTINUOUS
 10
719.5787971293
 20
1045.4784000512
  7
STANDARD
 40
10.0
  1
]
 50
90.0
 41
1.0
 72
1
 11
719.5787971293
 21
1047.411485553
  0
LINE
  8
0
 62
2
  6
CONTINUOUS
 10
655.9970145412
 20
1053.1410394564
 11
708.0787971293
 21
1053.1410394564
  0
LINE
  8
0
 62
2
  6
CONTINUOUS
 10
573.9970145412
 20
1010.6410394564
 11
708.0787971293
 21
1010.6410394564
  0
LINE
  8
0
 62
2
  6
CONTINUOUS
 10
707.0787971293
 20
1053.1410394564
 11
707.0787971293
 21
1031.8910394564
  0
LINE
  8
0
 62
2
  6
CONTINUOUS
 10
707.0787971293
 20
1010.6410394564
 11
707.0787971293
 21
1031.8910394564
  0
INSERT
  8
0
 62
2
  6
CONTINUOUS
  2
_FILLED
 10
707.0787971293
 20
1053.1410394564
 41
7.5
 42
7.5
 43
7.5
 50
90.0
  0
INSERT
  8
0
 62
2
  6
CONTINUOUS
  2
_FILLED
 10
707.0787971293
 20
1010.6410394564
 41
7.5
 42
7.5
 43
7.5
 50
270.0
  0
ENDBLK
  8
0
  6
BYBLOCK
 62
0
  0
BLOCK
  8
0
 62
2
  6
CONTINUOUS
  2
*D9
 70
65
 10
0.0
 20
0.0
  0
TEXT
  8
0
 62
5
  6
CONTINUOUS
 10
704.5787971293
 20
571.3027494936
  7
STANDARD
 40
10.0
  1
266
 50
90.0
 41
1.0
 72
1
 11
704.5787971293
 21
582.9570245865
  0
TEXT
  8
0
 62
5
  6
CONTINUOUS
 10
719.5787971293
 20
571.3027494936
  7
STANDARD
 40
10.0
  1
[
 50
90.0
 41
1.0
 72
1
 11
719.5787971293
 21
573.2358349954
  0
TEXT
  8
0
 62
5
  6
CONTINUOUS
 10
719.5787971293
 20
575.1689204973
  7
STANDARD
 40
10.0
  1
10.47
 50
90.0
 41
1.0
 72
1
 11
719.5787971293
 21
592.6410394564
  0
TEXT
  8
0
 62
5
  6
CONTINUOUS
 10
719.5787971293
 20
610.1131584155
  7
STANDARD
 40
10.0
  1
]
 50
90.0
 41
1.0
 72
1
 11
719.5787971293
 21
612.0462439173
  0
LINE
  8
0
 62
2
  6
CONTINUOUS
 10
573.9970145412
 20
725.6410394564
 11
708.0787971293
 21
725.6410394564
  0
LINE
  8
0
 62
2
  6
CONTINUOUS
 10
629.9970145412
 20
459.6410394564
 11
708.0787971293
 21
459.6410394564
  0
LINE
  8
0
 62
2
  6
CONTINUOUS
 10
707.0787971293
 20
725.6410394564
 11
707.0787971293
 21
592.6410394564
  0
LINE
  8
0
 62
2
  6
CONTINUOUS
 10
707.0787971293
 20
459.6410394564
 11
707.0787971293
 21
592.6410394564
  0
INSERT
  8
0
 62
2
  6
CONTINUOUS
  2
_FILLED
 10
707.0787971293
 20
725.6410394564
 41
7.5
 42
7.5
 43
7.5
 50
90.0
  0
INSERT
  8
0
 62
2
  6
CONTINUOUS
  2
_FILLED
 10
707.0787971293
 20
459.6410394564
 41
7.5
 42
7.5
 43
7.5
 50
270.0
  0
ENDBLK
  8
0
  6
BYBLOCK
 62
0
  0
BLOCK
  8
0
 62
2
  6
CONTINUOUS
  2
*D10
 70
65
 10
0.0
 20
0.0
  0
TEXT
  8
0
 62
5
  6
CONTINUOUS
 10
704.5787971293
 20
306.5527494936
  7
STANDARD
 40
10.0
  1
263,5
 50
90.0
 41
1.0
 72
1
 11
704.5787971293
 21
324.0248684527
  0
TEXT
  8
0
 62
5
  6
CONTINUOUS
 10
719.5787971293
 20
306.5527494936
  7
STANDARD
 40
10.0
  1
[
 50
90.0
 41
1.0
 72
1
 11
719.5787971293
 21
308.4858349954
  0
TEXT
  8
0
 62
5
  6
CONTINUOUS
 10
719.5787971293
 20
310.4189204973
  7
STANDARD
 40
10.0
  1
10.37
 50
90.0
 41
1.0
 72
1
 11
719.5787971293
 21
327.8910394564
  0
TEXT
  8
0
 62
5
  6
CONTINUOUS
 10
719.5787971293
 20
345.3631584155
  7
STANDARD
 40
10.0
  1
]
 50
90.0
 41
1.0
 72
1
 11
719.5787971293
 21
347.2962439173
  0
LINE
  8
0
 62
2
  6
CONTINUOUS
 10
629.9970145412
 20
459.6410394564
 11
708.0787971293
 21
459.6410394564
  0
LINE
  8
0
 62
2
  6
CONTINUOUS
 10
629.9970145412
 20
196.1410394564
 11
708.0787971293
 21
196.1410394564
  0
LINE
  8
0
 62
2
  6
CONTINUOUS
 10
707.0787971293
 20
459.6410394564
 11
707.0787971293
 21
327.8910394564
  0
LINE
  8
0
 62
2
  6
CONTINUOUS
 10
707.0787971293
 20
196.1410394564
 11
707.0787971293
 21
327.8910394564
  0
INSERT
  8
0
 62
2
  6
CONTINUOUS
  2
_FILLED
 10
707.0787971293
 20
459.6410394564
 41
7.5
 42
7.5
 43
7.5
 50
90.0
  0
INSERT
  8
0
 62
2
  6
CONTINUOUS
  2
_FILLED
 10
707.0787971293
 20
196.1410394564
 41
7.5
 42
7.5
 43
7.5
 50
270.0
  0
ENDBLK
  8
0
  6
BYBLOCK
 62
0
  0
BLOCK
  8
0
 62
2
  6
CONTINUOUS
  2
*D11
 70
65
 10
0.0
 20
0.0
  0
TEXT
  8
0
 62
5
  6
CONTINUOUS
 10
704.5787971293
 20
149.9875078579
  7
STANDARD
 40
10.0
  1
57,4
 50
90.0
 41
1.0
 72
1
 11
704.5787971293
 21
163.5748684527
  0
TEXT
  8
0
 62
5
  6
CONTINUOUS
 10
719.5787971293
 20
149.9875078579
  7
STANDARD
 40
10.0
  1
[
 50
90.0
 41
1.0
 72
1
 11
719.5787971293
 21
151.9205933597
  0
TEXT
  8
0
 62
5
  6
CONTINUOUS
 10
719.5787971293
 20
153.8536788616
  7
STANDARD
 40
10.0
  1
2.26
 50
90.0
 41
1.0
 72
1
 11
719.5787971293
 21
167.4410394564
  0
TEXT
  8
0
 62
5
  6
CONTINUOUS
 10
719.5787971293
 20
181.0284000512
  7
STANDARD
 40
10.0
  1
]
 50
90.0
 41
1.0
 72
1
 11
719.5787971293
 21
182.961485553
  0
LINE
  8
0
 62
2
  6
CONTINUOUS
 10
629.9970145412
 20
196.1410394564
 11
708.0787971293
 21
196.1410394564
  0
LINE
  8
0
 62
2
  6
CONTINUOUS
 10
655.9970145412
 20
138.7410394564
 11
708.0787971293
 21
138.7410394564
  0
LINE
  8
0
 62
2
  6
CONTINUOUS
 10
707.0787971293
 20
196.1410394564
 11
707.0787971293
 21
167.4410394564
  0
LINE
  8
0
 62
2
  6
CONTINUOUS
 10
707.0787971293
 20
138.7410394564
 11
707.0787971293
 21
167.4410394564
  0
INSERT
  8
0
 62
2
  6
CONTINUOUS
  2
_FILLED
 10
707.0787971293
 20
196.1410394564
 41
7.5
 42
7.5
 43
7.5
 50
90.0
  0
INSERT
  8
0
 62
2
  6
CONTINUOUS
  2
_FILLED
 10
707.0787971293
 20
138.7410394564
 41
7.5
 42
7.5
 43
7.5
 50
270.0
  0
ENDBLK
  8
0
  6
BYBLOCK
 62
0
  0
BLOCK
  8
0
 62
2
  6
CONTINUOUS
  2
*D12
 70
65
 10
0.0
 20
0.0
  0
TEXT
  8
0
 62
5
  6
CONTINUOUS
 10
204.9809829427
 20
1077.6410394564
  7
STANDARD
 40
10.0
  1
53
 41
1.0
 72
1
 11
212.7504996713
 21
1077.6410394564
  0
TEXT
  8
0
 62
5
  6
CONTINUOUS
 10
204.9809829427
 20
1062.6410394564
  7
STANDARD
 40
10.0
  1
[
 41
1.0
 72
1
 11
206.9140684446
 21
1062.6410394564
  0
TEXT
  8
0
 62
5
  6
CONTINUOUS
 10
208.8471539464
 20
1062.6410394564
  7
STANDARD
 40
10.0
  1
2.09
 41
1.0
 72
1
 11
222.4345145412
 21
1062.6410394564
  0
TEXT
  8
0
 62
5
  6
CONTINUOUS
 10
236.021875136
 20
1062.6410394564
  7
STANDARD
 40
10.0
  1
]
 41
1.0
 72
1
 11
237.9549606379
 21
1062.6410394564
  0
LINE
  8
0
 62
2
  6
CONTINUOUS
 10
248.9345145412
 20
1010.7035394564
 11
248.9345145412
 21
1076.1410394564
  0
LINE
  8
0
 62
2
  6
CONTINUOUS
 10
195.9345145412
 20
1053.2035394564
 11
195.9345145412
 21
1076.1410394564
  0
LINE
  8
0
 62
2
  6
CONTINUOUS
 10
248.9345145412
 20
1075.1410394564
 11
222.4345145412
 21
1075.1410394564
  0
LINE
  8
0
 62
2
  6
CONTINUOUS
 10
195.9345145412
 20
1075.1410394564
 11
222.4345145412
 21
1075.1410394564
  0
INSERT
  8
0
 62
2
  6
CONTINUOUS
  2
_FILLED
 10
248.9345145412
 20
1075.1410394564
 41
7.5
 42
7.5
 43
7.5
  0
INSERT
  8
0
 62
2
  6
CONTINUOUS
  2
_FILLED
 10
195.9345145412
 20
1075.1410394564
 41
7.5
 42
7.5
 43
7.5
 50
180.0
  0
ENDBLK
  8
0
  6
BYBLOCK
 62
0
  0
BLOCK
  8
0
 62
2
  6
CONTINUOUS
  2
*D13
 70
65
 10
0.0
 20
0.0
  0
TEXT
  8
0
 62
5
  6
CONTINUOUS
 10
390.0962245784
 20
1077.6410394564
  7
STANDARD
 40
10.0
  1
325
 41
1.0
 72
1
 11
401.7504996713
 21
1077.6410394564
  0
TEXT
  8
0
 62
5
  6
CONTINUOUS
 10
390.0962245784
 20
1062.6410394564
  7
STANDARD
 40
10.0
  1
[
 41
1.0
 72
1
 11
392.0293100803
 21
1062.6410394564
  0
TEXT
  8
0
 62
5
  6
CONTINUOUS
 10
393.9623955821
 20
1062.6410394564
  7
STANDARD
 40
10.0
  1
12.80
 41
1.0
 72
1
 11
411.4345145412
 21
1062.6410394564
  0
TEXT
  8
0
 62
5
  6
CONTINUOUS
 10
428.9066335003
 20
1062.6410394564
  7
STANDARD
 40
10.0
  1
]
 41
1.0
 72
1
 11
430.8397190022
 21
1062.6410394564
  0
LINE
  8
0
 62
2
  6
CONTINUOUS
 10
248.9345145412
 20
1010.7035394564
 11
248.9345145412
 21
1076.1410394564
  0
LINE
  8
0
 62
2
  6
CONTINUOUS
 10
573.9345145412
 20
1010.7035394564
 11
573.9345145412
 21
1076.1410394564
  0
LINE
  8
0
 62
2
  6
CONTINUOUS
 10
248.9345145412
 20
1075.1410394564
 11
411.4345145412
 21
1075.1410394564
  0
LINE
  8
0
 62
2
  6
CONTINUOUS
 10
573.9345145412
 20
1075.1410394564
 11
411.4345145412
 21
1075.1410394564
  0
INSERT
  8
0
 62
2
  6
CONTINUOUS
  2
_FILLED
 10
248.9345145412
 20
1075.1410394564
 41
7.5
 42
7.5
 43
7.5
 50
180.0
  0
INSERT
  8
0
 62
2
  6
CONTINUOUS
  2
_FILLED
 10
573.9345145412
 20
1075.1410394564
 41
7.5
 42
7.5
 43
7.5
  0
ENDBLK
  8
0
  6
BYBLOCK
 62
0
  0
BLOCK
  8
0
 62
2
  6
CONTINUOUS
  2
*D14
 70
65
 10
0.0
 20
0.0
  0
TEXT
  8
0
 62
5
  6
CONTINUOUS
 10
316.5962245784
 20
119.2410394564
  7
STANDARD
 40
10.0
  1
284
 41
1.0
 72
1
 11
328.2504996713
 21
119.2410394564
  0
TEXT
  8
0
 62
5
  6
CONTINUOUS
 10
316.5962245784
 20
104.2410394564
  7
STANDARD
 40
10.0
  1
[
 41
1.0
 72
1
 11
318.5293100803
 21
104.2410394564
  0
TEXT
  8
0
 62
5
  6
CONTINUOUS
 10
320.4623955821
 20
104.2410394564
  7
STANDARD
 40
10.0
  1
11.18
 41
1.0
 72
1
 11
337.9345145412
 21
104.2410394564
  0
TEXT
  8
0
 62
5
  6
CONTINUOUS
 10
355.4066335003
 20
104.2410394564
  7
STANDARD
 40
10.0
  1
]
 41
1.0
 72
1
 11
357.3397190022
 21
104.2410394564
  0
LINE
  8
0
 62
2
  6
CONTINUOUS
 10
479.9345145412
 20
196.0785394564
 11
479.9345145412
 21
115.7410394564
  0
LINE
  8
0
 62
2
  6
CONTINUOUS
 10
195.9345145412
 20
138.6785394564
 11
195.9345145412
 21
115.7410394564
  0
LINE
  8
0
 62
2
  6
CONTINUOUS
 10
479.9345145412
 20
116.7410394564
 11
337.9345145412
 21
116.7410394564
  0
LINE
  8
0
 62
2
  6
CONTINUOUS
 10
195.9345145412
 20
116.7410394564
 11
337.9345145412
 21
116.7410394564
  0
INSERT
  8
0
 62
2
  6
CONTINUOUS
  2
_FILLED
 10
479.9345145412
 20
116.7410394564
 41
7.5
 42
7.5
 43
7.5
  0
INSERT
  8
0
 62
2
  6
CONTINUOUS
  2
_FILLED
 10
195.9345145412
 20
116.7410394564
 41
7.5
 42
7.5
 43
7.5
 50
180.0
  0
ENDBLK
  8
0
  6
BYBLOCK
 62
0
  0
BLOCK
  8
0
 62
2
  6
CONTINUOUS
  2
*D15
 70
65
 10
0.0
 20
0.0
  0
TEXT
  8
0
 62
5
  6
CONTINUOUS
 10
537.4809829427
 20
119.2410394564
  7
STANDARD
 40
10.0
  1
150
 41
1.0
 72
1
 11
549.1352580356
 21
119.2410394564
  0
TEXT
  8
0
 62
5
  6
CONTINUOUS
 10
537.4809829427
 20
104.2410394564
  7
STANDARD
 40
10.0
  1
[
 41
1.0
 72
1
 11
539.4140684446
 21
104.2410394564
  0
TEXT
  8
0
 62
5
  6
CONTINUOUS
 10
541.3471539464
 20
104.2410394564
  7
STANDARD
 40
10.0
  1
5.91
 41
1.0
 72
1
 11
554.9345145412
 21
104.2410394564
  0
TEXT
  8
0
 62
5
  6
CONTINUOUS
 10
568.521875136
 20
104.2410394564
  7
STANDARD
 40
10.0
  1
]
 41
1.0
 72
1
 11
570.4549606379
 21
104.2410394564
  0
LINE
  8
0
 62
2
  6
CONTINUOUS
 10
479.9345145412
 20
199.2995010832
 11
479.9345145412
 21
115.7410394564
  0
LINE
  8
0
 62
2
  6
CONTINUOUS
 10
629.9345145412
 20
459.5785394564
 11
629.9345145412
 21
115.7410394564
  0
LINE
  8
0
 62
2
  6
CONTINUOUS
 10
479.9345145412
 20
116.7410394564
 11
554.9345145412
 21
116.7410394564
  0
LINE
  8
0
 62
2
  6
CONTINUOUS
 10
629.9345145412
 20
116.7410394564
 11
554.9345145412
 21
116.7410394564
  0
INSERT
  8
0
 62
2
  6
CONTINUOUS
  2
_FILLED
 10
479.9345145412
 20
116.7410394564
 41
7.5
 42
7.5
 43
7.5
 50
180.0
  0
INSERT
  8
0
 62
2
  6
CONTINUOUS
  2
_FILLED
 10
629.9345145412
 20
116.7410394564
 41
7.5
 42
7.5
 43
7.5
  0
ENDBLK
  8
0
  6
BYBLOCK
 62
0
  0
BLOCK
  8
0
 62
2
  6
CONTINUOUS
  2
*D16
 70
65
 10
0.0
 20
0.0
  0
TEXT
  8
0
 62
5
  6
CONTINUOUS
 10
664.8991908365
 20
119.2410394564
  7
STANDARD
 40
10.0
  1
26
 41
1.0
 72
0
  0
TEXT
  8
0
 62
5
  6
CONTINUOUS
 10
664.8991908365
 20
104.2410394564
  7
STANDARD
 40
10.0
  1
[
 41
1.0
 72
0
  0
TEXT
  8
0
 62
5
  6
CONTINUOUS
 10
668.7653618402
 20
104.2410394564
  7
STANDARD
 40
10.0
  1
1.02
 41
1.0
 72
0
  0
TEXT
  8
0
 62
5
  6
CONTINUOUS
 10
695.9400830298
 20
104.2410394564
  7
STANDARD
 40
10.0
  1
]
 41
1.0
 72
0
  0
LINE
  8
0
 62
2
  6
CONTINUOUS
 10
655.9345145412
 20
138.6785394564
 11
655.9345145412
 21
115.7410394564
  0
LINE
  8
0
 62
2
  6
CONTINUOUS
 10
629.9345145412
 20
196.0785394564
 11
629.9345145412
 21
115.7410394564
  0
LINE
  8
0
 62
2
  6
CONTINUOUS
 10
655.9345145412
 20
116.7410394564
 11
642.9345145412
 21
116.7410394564
  0
LINE
  8
0
 62
2
  6
CONTINUOUS
 10
642.9345145412
 20
116.7410394564
 11
699.8062540336
 21
116.7410394564
  0
LINE
  8
0
 62
2
  6
CONTINUOUS
 10
629.9345145412
 20
116.7410394564
 11
642.9345145412
 21
116.7410394564
  0
INSERT
  8
0
 62
2
  6
CONTINUOUS
  2
_FILLED
 10
655.9345145412
 20
116.7410394564
 41
7.5
 42
7.5
 43
7.5
  0
INSERT
  8
0
 62
2
  6
CONTINUOUS
  2
_FILLED
 10
629.9345145412
 20
116.7410394564
 41
7.5
 42
7.5
 43
7.5
 50
180.0
  0
ENDBLK
  8
0
  6
BYBLOCK
 62
0
  0
BLOCK
  8
0
 62
2
  6
CONTINUOUS
  2
*D17
 70
65
 10
0.0
 20
0.0
  0
TEXT
  8
0
 62
5
  6
CONTINUOUS
 10
198.4809829427
 20
86.2410394564
  7
STANDARD
 40
10.0
  1
40
 41
1.0
 72
1
 11
206.2504996713
 21
86.2410394564
  0
TEXT
  8
0
 62
5
  6
CONTINUOUS
 10
198.4809829427
 20
71.2410394564
  7
STANDARD
 40
10.0
  1
[
 41
1.0
 72
1
 11
200.4140684446
 21
71.2410394564
  0
TEXT
  8
0
 62
5
  6
CONTINUOUS
 10
202.3471539464
 20
71.2410394564
  7
STANDARD
 40
10.0
  1
1.57
 41
1.0
 72
1
 11
215.9345145412
 21
71.2410394564
  0
TEXT
  8
0
 62
5
  6
CONTINUOUS
 10
229.521875136
 20
71.2410394564
  7
STANDARD
 40
10.0
  1
]
 41
1.0
 72
1
 11
231.4549606379
 21
71.2410394564
  0
LINE
  8
0
 62
2
  6
CONTINUOUS
 10
195.9345145412
 20
138.6785394564
 11
195.9345145412
 21
82.7410394564
  0
LINE
  8
0
 62
2
  6
CONTINUOUS
 10
235.9345145412
 20
173.5785394564
 11
235.9345145412
 21
82.7410394564
  0
LINE
  8
0
 62
2
  6
CONTINUOUS
 10
195.9345145412
 20
83.7410394564
 11
215.9345145412
 21
83.7410394564
  0
LINE
  8
0
 62
2
  6
CONTINUOUS
 10
235.9345145412
 20
83.7410394564
 11
215.9345145412
 21
83.7410394564
  0
INSERT
  8
0
 62
2
  6
CONTINUOUS
  2
_FILLED
 10
195.9345145412
 20
83.7410394564
 41
7.5
 42
7.5
 43
7.5
 50
180.0
  0
INSERT
  8
0
 62
2
  6
CONTINUOUS
  2
_FILLED
 10
235.9345145412
 20
83.7410394564
 41
7.5
 42
7.5
 43
7.5
  0
ENDBLK
  8
0
  6
BYBLOCK
 62
0
  0
BLOCK
  8
0
 62
2
  6
CONTINUOUS
  2
*D18
 70
65
 10
0.0
 20
0.0
  0
TEXT
  8
0
 62
5
  6
CONTINUOUS
 10
313.4809829427
 20
86.2410394564
  7
STANDARD
 40
10.0
  1
190
 41
1.0
 72
1
 11
325.1352580356
 21
86.2410394564
  0
TEXT
  8
0
 62
5
  6
CONTINUOUS
 10
313.4809829427
 20
71.2410394564
  7
STANDARD
 40
10.0
  1
[
 41
1.0
 72
1
 11
315.4140684446
 21
71.2410394564
  0
TEXT
  8
0
 62
5
  6
CONTINUOUS
 10
317.3471539464
 20
71.2410394564
  7
STANDARD
 40
10.0
  1
7.48
 41
1.0
 72
1
 11
330.9345145412
 21
71.2410394564
  0
TEXT
  8
0
 62
5
  6
CONTINUOUS
 10
344.521875136
 20
71.2410394564
  7
STANDARD
 40
10.0
  1
]
 41
1.0
 72
1
 11
346.4549606379
 21
71.2410394564
  0
LINE
  8
0
 62
2
  6
CONTINUOUS
 10
235.9345145412
 20
173.5785394564
 11
235.9345145412
 21
82.7410394564
  0
LINE
  8
0
 62
2
  6
CONTINUOUS
 10
425.9345145412
 20
173.5785394564
 11
425.9345145412
 21
82.7410394564
  0
LINE
  8
0
 62
2
  6
CONTINUOUS
 10
235.9345145412
 20
83.7410394564
 11
330.9345145412
 21
83.7410394564
  0
LINE
  8
0
 62
2
  6
CONTINUOUS
 10
425.9345145412
 20
83.7410394564
 11
330.9345145412
 21
83.7410394564
  0
INSERT
  8
0
 62
2
  6
CONTINUOUS
  2
_FILLED
 10
235.9345145412
 20
83.7410394564
 41
7.5
 42
7.5
 43
7.5
 50
180.0
  0
INSERT
  8
0
 62
2
  6
CONTINUOUS
  2
_FILLED
 10
425.9345145412
 20
83.7410394564
 41
7.5
 42
7.5
 43
7.5
  0
ENDBLK
  8
0
  6
BYBLOCK
 62
0
  0
BLOCK
  8
0
 62
2
  6
CONTINUOUS
  2
*D19
 70
65
 10
0.0
 20
0.0
  0
TEXT
  8
0
 62
5
  6
CONTINUOUS
 10
503.4809829427
 20
86.2410394564
  7
STANDARD
 40
10.0
  1
190
 41
1.0
 72
1
 11
515.1352580356
 21
86.2410394564
  0
TEXT
  8
0
 62
5
  6
CONTINUOUS
 10
503.4809829427
 20
71.2410394564
  7
STANDARD
 40
10.0
  1
[
 41
1.0
 72
1
 11
505.4140684446
 21
71.2410394564
  0
TEXT
  8
0
 62
5
  6
CONTINUOUS
 10
507.3471539464
 20
71.2410394564
  7
STANDARD
 40
10.0
  1
7.48
 41
1.0
 72
1
 11
520.9345145412
 21
71.2410394564
  0
TEXT
  8
0
 62
5
  6
CONTINUOUS
 10
534.521875136
 20
71.2410394564
  7
STANDARD
 40
10.0
  1
]
 41
1.0
 72
1
 11
536.4549606379
 21
71.2410394564
  0
LINE
  8
0
 62
2
  6
CONTINUOUS
 10
615.9345145412
 20
173.5785394564
 11
615.9345145412
 21
82.7410394564
  0
LINE
  8
0
 62
2
  6
CONTINUOUS
 10
425.9345145412
 20
173.5785394564
 11
425.9345145412
 21
82.7410394564
  0
LINE
  8
0
 62
2
  6
CONTINUOUS
 10
615.9345145412
 20
83.7410394564
 11
520.9345145412
 21
83.7410394564
  0
LINE
  8
0
 62
2
  6
CONTINUOUS
 10
425.9345145412
 20
83.7410394564
 11
520.9345145412
 21
83.7410394564
  0
INSERT
  8
0
 62
2
  6
CONTINUOUS
  2
_FILLED
 10
615.9345145412
 20
83.7410394564
 41
7.5
 42
7.5
 43
7.5
  0
INSERT
  8
0
 62
2
  6
CONTINUOUS
  2
_FILLED
 10
425.9345145412
 20
83.7410394564
 41
7.5
 42
7.5
 43
7.5
 50
180.0
  0
ENDBLK
  8
0
  6
BYBLOCK
 62
0
  0
BLOCK
  8
0
 62
2
  6
CONTINUOUS
  2
*D20
 70
65
 10
0.0
 20
0.0
  0
TEXT
  8
0
 62
5
  6
CONTINUOUS
 10
667.8367855321
 20
512.5000140089
  7
TEXTSTYLE_1
 40
10.0
  1
n
 41
1.0
 72
0
  0
TEXT
  8
0
 62
5
  6
CONTINUOUS
 10
681.1701188654
 20
512.5000140089
  7
STANDARD
 40
10.0
  1
8
 41
1.0
 72
0
  0
TEXT
  8
0
 62
5
  6
CONTINUOUS
 10
681.1701188654
 20
497.5000140089
  7
STANDARD
 40
10.0
  1
[
 41
1.0
 72
0
  0
TEXT
  8
0
 62
5
  6
CONTINUOUS
 10
685.0362898691
 20
497.5000140089
  7
STANDARD
 40
10.0
  1
.3
 41
1.0
 72
0
  0
TEXT
  8
0
 62
5
  6
CONTINUOUS
 10
696.6719776015
 20
497.5000140089
  7
STANDARD
 40
10.0
  1
]
 41
1.0
 72
0
  0
LINE
  8
0
 62
2
  6
CONTINUOUS
 10
619.274763081
 20
480.6416620257
 11
663.8367855321
 21
510.0000140089
  0
LINE
  8
0
 62
2
  6
CONTINUOUS
 10
663.8367855321
 20
510.0000140089
 11
703.0381486052
 21
510.0000140089
  0
LINE
  8
0
 62
2
  6
CONTINUOUS
 10
703.0381486052
 20
510.0000140089
 11
663.8367855321
 21
510.0000140089
  0
INSERT
  8
0
 62
2
  6
CONTINUOUS
  2
_FILLED
 10
619.274763081
 20
480.6416620257
 41
7.5
 42
7.5
 43
7.5
 50
213.3776913381
  0
ENDBLK
  8
0
  6
BYBLOCK
 62
0
  0
ENDSEC
  0
SECTION
  2
ENTITIES
  0
DIMENSION
  8
0
 62
2
  6
CONTINUOUS
  2
*D0
 10
195.9345145412
 20
1108.1410394564
 11
425.9345145412
 21
1108.1410394564
 70
128
 13
655.9345145412
 23
1053.1410394564
 14
195.9345145412
 24
1053.1410394564
 50
180.0
  0
DIMENSION
  8
0
 62
2
  6
CONTINUOUS
  2
*D1
 10
173.9345145412
 20
1018.2410394564
 11
173.9345145412
 21
1035.6910394564
 70
128
 13
195.9345145412
 23
1053.1410394564
 14
235.9345145412
 24
1018.2410394564
 50
270.0
  0
DIMENSION
  8
0
 62
2
  6
CONTINUOUS
  2
*D2
 10
173.9345145412
 20
1018.2410394564
 11
173.9345145412
 21
929.3410394564
 70
128
 13
235.9345145412
 23
840.4410394564
 14
235.9345145412
 24
1018.2410394564
 50
90.0
  0
DIMENSION
  8
0
 62
2
  6
CONTINUOUS
  2
*D3
 10
173.9345145412
 20
662.6410394564
 11
173.9345145412
 21
751.5410394564
 70
128
 13
235.9345145412
 23
840.4410394564
 14
235.9345145412
 24
662.6410394564
 50
270.0
  0
DIMENSION
  8
0
 62
2
  6
CONTINUOUS
  2
*D4
 10
173.9345145412
 20
478.4410394564
 11
173.9345145412
 21
570.5410394564
 70
128
 13
235.9345145412
 23
662.6410394564
 14
235.9345145412
 24
478.4410394564
 50
270.0
  0
DIMENSION
  8
0
 62
2
  6
CONTINUOUS
  2
*D5
 10
173.9345145412
 20
173.6410394564
 11
173.9345145412
 21
326.0410394564
 70
128
 13
235.9345145412
 23
478.4410394564
 14
235.9345145412
 24
173.6410394564
 50
270.0
  0
DIMENSION
  8
0
 62
2
  6
CONTINUOUS
  2
*D6
 10
173.9345145412
 20
173.6410394564
 11
173.9345145412
 21
156.1910394564
 70
128
 13
195.9345145412
 23
138.7410394564
 14
235.9345145412
 24
173.6410394564
 50
90.0
  0
DIMENSION
  8
0
 62
2
  6
CONTINUOUS
  2
*D7
 10
707.0787971293
 20
725.6410394564
 11
707.0787971293
 21
868.1410394564
 70
128
 13
573.9345145412
 23
1010.6410394564
 14
573.9345145412
 24
725.6410394564
 50
270.0
  0
DIMENSION
  8
0
 62
2
  6
CONTINUOUS
  2
*D8
 10
707.0787971293
 20
1010.6410394564
 11
707.0787971293
 21
1031.8910394564
 70
128
 13
655.9345145412
 23
1053.1410394564
 14
573.9345145412
 24
1010.6410394564
 50
270.0
  0
DIMENSION
  8
0
 62
2
  6
CONTINUOUS
  2
*D9
 10
707.0787971293
 20
459.6410394564
 11
707.0787971293
 21
592.6410394564
 70
128
 13
573.9345145412
 23
725.6410394564
 14
629.9345145412
 24
459.6410394564
 50
270.0
  0
DIMENSION
  8
0
 62
2
  6
CONTINUOUS
  2
*D10
 10
707.0787971293
 20
196.1410394564
 11
707.0787971293
 21
327.8910394564
 70
128
 13
629.9345145412
 23
459.6410394564
 14
629.9345145412
 24
196.1410394564
 50
270.0
  0
DIMENSION
  8
0
 62
2
  6
CONTINUOUS
  2
*D11
 10
707.0787971293
 20
138.7410394564
 11
707.0787971293
 21
167.4410394564
 70
128
 13
629.9345145412
 23
196.1410394564
 14
655.9345145412
 24
138.7410394564
 50
270.0
  0
DIMENSION
  8
0
 62
2
  6
CONTINUOUS
  2
*D12
 10
195.9345145412
 20
1075.1410394564
 11
222.4345145412
 21
1075.1410394564
 70
128
 13
248.9345145412
 23
1010.6410394564
 14
195.9345145412
 24
1053.1410394564
 50
180.0
  0
DIMENSION
  8
0
 62
2
  6
CONTINUOUS
  2
*D13
 10
573.9345145412
 20
1075.1410394564
 11
411.4345145412
 21
1075.1410394564
 70
128
 13
248.9345145412
 23
1010.6410394564
 14
573.9345145412
 24
1010.6410394564
  0
DIMENSION
  8
0
 62
2
  6
CONTINUOUS
  2
*D14
 10
195.9345145412
 20
116.7410394564
 11
337.9345145412
 21
116.7410394564
 70
128
 13
479.9345145412
 23
196.1410394564
 14
195.9345145412
 24
138.7410394564
 50
180.0
  0
DIMENSION
  8
0
 62
2
  6
CONTINUOUS
  2
*D15
 10
629.9345145412
 20
116.7410394564
 11
554.9345145412
 21
116.7410394564
 70
128
 13
479.9345145412
 23
199.3620010832
 14
629.9345145412
 24
459.6410394564
  0
DIMENSION
  8
0
 62
2
  6
CONTINUOUS
  2
*D16
 10
629.9345145412
 20
116.7410394564
 11
682.352722435
 21
116.7410394564
 70
128
 13
655.9345145412
 23
138.7410394564
 14
629.9345145412
 24
196.1410394564
 50
180.0
  0
DIMENSION
  8
0
 62
2
  6
CONTINUOUS
  2
*D17
 10
235.9345145412
 20
83.7410394564
 11
215.9345145412
 21
83.7410394564
 70
128
 13
195.9345145412
 23
138.7410394564
 14
235.9345145412
 24
173.6410394564
  0
DIMENSION
  8
0
 62
2
  6
CONTINUOUS
  2
*D18
 10
425.9345145412
 20
83.7410394564
 11
330.9345145412
 21
83.7410394564
 70
128
 13
235.9345145412
 23
173.6410394564
 14
425.9345145412
 24
173.6410394564
  0
DIMENSION
  8
0
 62
2
  6
CONTINUOUS
  2
*D19
 10
425.9345145412
 20
83.7410394564
 11
520.9345145412
 21
83.7410394564
 70
128
 13
615.9345145412
 23
173.6410394564
 14
425.9345145412
 24
173.6410394564
 50
180.0
  0
DIMENSION
  8
0
 62
2
  6
CONTINUOUS
  2
*D20
 10
619.274763081
 20
480.6416620257
 11
684.1874670686
 21
510.0000140089
 70
131
 15
612.5942660015
 25
476.240416887
1001
ACAD
1000
DSTYLE
1002
{
1070
73
1070
1
1070
74
1070
1
1002
}
  0
LINE
  8
0
 62
3
  6
CONTINUOUS
 10
195.9345145412
 20
138.7410394564
 11
655.9345145412
 21
138.7410394564
  0
LINE
  8
0
 62
3
  6
CONTINUOUS
 10
629.9345145412
 20
196.1410394564
 11
479.9345145412
 21
196.1410394564
  0
LINE
  8
0
 62
3
  6
CONTINUOUS
 10
195.9345145412
 20
1053.1410394564
 11
195.9345145412
 21
138.7410394564
  0
LINE
  8
0
 62
3
  6
CONTINUOUS
 10
248.9345145412
 20
725.6410394564
 11
248.9345145412
 21
1010.6410394564
  0
LINE
  8
0
 62
3
  6
CONTINUOUS
 10
479.9345145412
 20
459.6410394564
 11
629.9345145412
 21
459.6410394564
  0
LINE
  8
0
 62
3
  6
CONTINUOUS
 10
479.9345145412
 20
196.1410394564
 11
479.9345145412
 21
459.6410394564
  0
LINE
  8
0
 62
3
  6
CONTINUOUS
 10
573.9345145412
 20
725.6410394564
 11
248.9345145412
 21
725.6410394564
  0
LINE
  8
0
 62
3
  6
CONTINUOUS
 10
573.9345145412
 20
1010.6410394564
 11
573.9345145412
 21
725.6410394564
  0
LINE
  8
0
 62
3
  6
CONTINUOUS
 10
629.9345145412
 20
459.6410394564
 11
629.9345145412
 21
196.1410394564
  0
LINE
  8
0
 62
3
  6
CONTINUOUS
 10
655.9345145412
 20
138.7410394564
 11
655.9345145412
 21
1053.1410394564
  0
LINE
  8
0
 62
3
  6
CONTINUOUS
 10
248.9345145412
 20
1010.6410394564
 11
573.9345145412
 21
1010.6410394564
  0
LINE
  8
0
 62
3
  6
CONTINUOUS
 10
655.9345145412
 20
1053.1410394564
 11
195.9345145412
 21
1053.1410394564
  0
CIRCLE
  8
02___PRT_ALL_AXES
 62
3
  6
CONTINUOUS
 10
615.9345145412
 20
173.6410394564
 40
4.0
  0
CIRCLE
  8
02___PRT_ALL_AXES
 62
3
  6
CONTINUOUS
 10
615.9345145412
 20
478.4410394564
 40
4.0
  0
CIRCLE
  8
02___PRT_ALL_AXES
 62
3
  6
CONTINUOUS
 10
615.9345145412
 20
662.6410394564
 40
4.0
  0
CIRCLE
  8
02___PRT_ALL_AXES
 62
3
  6
CONTINUOUS
 10
615.9345145412
 20
840.4410394564
 40
4.0
  0
CIRCLE
  8
02___PRT_ALL_AXES
 62
3
  6
CONTINUOUS
 10
615.9345145412
 20
1018.2410394564
 40
4.0
  0
CIRCLE
  8
02___PRT_ALL_AXES
 62
3
  6
CONTINUOUS
 10
425.9345145412
 20
173.6410394564
 40
4.0
  0
CIRCLE
  8
02___PRT_ALL_AXES
 62
3
  6
CONTINUOUS
 10
425.9345145412
 20
1018.2410394564
 40
4.0
  0
CIRCLE
  8
02___PRT_ALL_AXES
 62
3
  6
CONTINUOUS
 10
235.9345145412
 20
173.6410394564
 40
4.0
  0
CIRCLE
  8
02___PRT_ALL_AXES
 62
3
  6
CONTINUOUS
 10
235.9345145412
 20
478.4410394564
 40
4.0
  0
CIRCLE
  8
02___PRT_ALL_AXES
 62
3
  6
CONTINUOUS
 10
235.9345145412
 20
662.6410394564
 40
4.0
  0
CIRCLE
  8
02___PRT_ALL_AXES
 62
3
  6
CONTINUOUS
 10
235.9345145412
 20
840.4410394564
 40
4.0
  0
CIRCLE
  8
02___PRT_ALL_AXES
 62
3
  6
CONTINUOUS
 10
235.9345145412
 20
1018.2410394564
 40
4.0
  0
ENDSEC
  0
EOF
