  0
SECTION
  2
HEADER
  9
$ACADVER
  1
AC1009
  9
$DWGCODEPAGE
  3
ansi_1252
  9
$INSBASE
 10
0.0
 20
0.0
 30
0.0
  9
$EXTMIN
 10
-28.94643940383605
 20
61.04492136889928
 30
0.0
  9
$EXTMAX
 10
589.9777297157659
 20
1198.416337619608
 30
0.0
  9
$LIMMIN
 10
0.0
 20
0.0
  9
$LIMMAX
 10
594.0
 20
420.0
  9
$ORTHOMODE
 70
     0
  9
$REGENMODE
 70
     1
  9
$FILLMODE
 70
     1
  9
$QTEXTMODE
 70
     0
  9
$MIRRTEXT
 70
     1
  9
$DRAGMODE
 70
     2
  9
$LTSCALE
 40
32.67
  9
$OSMODE
 70
   511
  9
$ATTMODE
 70
     1
  9
$TEXTSIZE
 40
0.2
  9
$TRACEWID
 40
0.05
  9
$TEXTSTYLE
  7
STANDARD
  9
$CLAYER
  8
DIMENSIONS
  9
$CELTYPE
  6
BYBLOCK
  9
$CECOLOR
 62
   256
  9
$DIMSCALE
 40
1.0
  9
$DIMASZ
 40
5.0
  9
$DIMEXO
 40
1.5
  9
$DIMDLI
 40
1.0
  9
$DIMRND
 40
0.0
  9
$DIMDLE
 40
0.0
  9
$DIMEXE
 40
0.18
  9
$DIMTP
 40
0.0
  9
$DIMTM
 40
0.0
  9
$DIMTXT
 40
5.0
  9
$DIMCEN
 40
2.5
  9
$DIMTSZ
 40
0.0
  9
$DIMTOL
 70
     0
  9
$DIMLIM
 70
     0
  9
$DIMTIH
 70
     0
  9
$DIMTOH
 70
     0
  9
$DIMSE1
 70
     0
  9
$DIMSE2
 70
     0
  9
$DIMTAD
 70
     1
  9
$DIMZIN
 70
     8
  9
$DIMBLK
  1

  9
$DIMASO
 70
     1
  9
$DIMSHO
 70
     1
  9
$DIMPOST
  1

  9
$DIMAPOST
  1

  9
$DIMALT
 70
     1
  9
$DIMALTD
 70
     2
  9
$DIMALTF
 40
0.03937
  9
$DIMLFAC
 40
1.0
  9
$DIMTOFL
 70
     0
  9
$DIMTVP
 40
0.0
  9
$DIMTIX
 70
     0
  9
$DIMSOXD
 70
     0
  9
$DIMSAH
 70
     0
  9
$DIMBLK1
  1

  9
$DIMBLK2
  1

  9
$DIMSTYLE
  2
DUAL-DIM
  9
$DIMCLRD
 70
     0
  9
$DIMCLRE
 70
     0
  9
$DIMCLRT
 70
     5
  9
$DIMTFAC
 40
1.0
  9
$DIMGAP
 40
1.0
  9
$LUNITS
 70
     2
  9
$LUPREC
 70
     4
  9
$SKETCHINC
 40
0.1
  9
$FILLETRAD
 40
15.0
  9
$AUNITS
 70
     0
  9
$AUPREC
 70
     0
  9
$MENU
  1
.
  9
$ELEVATION
 40
0.0
  9
$PELEVATION
 40
0.0
  9
$THICKNESS
 40
0.0
  9
$LIMCHECK
 70
     0
  9
$CHAMFERA
 40
0.0
  9
$CHAMFERB
 40
0.0
  9
$SKPOLY
 70
     0
  9
$TDCREATE
 40
2457428.354677859
  9
$TDUPDATE
 40
2457438.362089352
  9
$TDINDWG
 40
0.0484434375
  9
$TDUSRTIMER
 40
2457438.317604549
  9
$USRTIMER
 70
     1
  9
$ANGBASE
 50
0.0
  9
$ANGDIR
 70
     0
  9
$PDMODE
 70
     3
  9
$PDSIZE
 40
0.3125
  9
$PLINEWID
 40
0.0
  9
$COORDS
 70
     2
  9
$SPLFRAME
 70
     0
  9
$SPLINETYPE
 70
     6
  9
$SPLINESEGS
 70
     8
  9
$ATTDIA
 70
     0
  9
$ATTREQ
 70
     1
  9
$HANDLING
 70
     1
  9
$HANDSEED
  5
1174
  9
$SURFTAB1
 70
     6
  9
$SURFTAB2
 70
     6
  9
$SURFTYPE
 70
     6
  9
$SURFU
 70
     6
  9
$SURFV
 70
     6
  9
$UCSNAME
  2

  9
$UCSORG
 10
0.0
 20
0.0
 30
0.0
  9
$UCSXDIR
 10
1.0
 20
0.0
 30
0.0
  9
$UCSYDIR
 10
0.0
 20
1.0
 30
0.0
  9
$PUCSNAME
  2

  9
$PUCSORG
 10
0.0
 20
0.0
 30
0.0
  9
$PUCSXDIR
 10
1.0
 20
0.0
 30
0.0
  9
$PUCSYDIR
 10
0.0
 20
1.0
 30
0.0
  9
$USERI1
 70
     0
  9
$USERI2
 70
     0
  9
$USERI3
 70
     0
  9
$USERI4
 70
     0
  9
$USERI5
 70
     0
  9
$USERR1
 40
0.0
  9
$USERR2
 40
0.0
  9
$USERR3
 40
0.0
  9
$USERR4
 40
0.0
  9
$USERR5
 40
0.0
  9
$WORLDVIEW
 70
     1
  9
$SHADEDGE
 70
     3
  9
$SHADEDIF
 70
    70
  9
$TILEMODE
 70
     1
  9
$MAXACTVP
 70
    64
  9
$PLIMCHECK
 70
     0
  9
$PEXTMIN
 10
1.05
 20
0.6999999999999997
 30
0.0
  9
$PEXTMAX
 10
9.45
 20
6.300000000000001
 30
0.0
  9
$PLIMMIN
 10
-0.25
 20
-0.7499999999999999
  9
$PLIMMAX
 10
10.75
 20
7.75
  9
$UNITMODE
 70
     0
  9
$VISRETAIN
 70
     1
  9
$PLINEGEN
 70
     0
  9
$PSLTSCALE
 70
     1
  0
ENDSEC
  0
SECTION
  2
TABLES
  0
TABLE
  2
VPORT
 70
     1
  0
VPORT
  2
*ACTIVE
 70
     0
 10
0.0
 20
0.0
 11
1.0
 21
1.0
 12
761.4281857482739
 22
45.41522578571997
 13
0.0
 23
0.0
 14
0.5
 24
0.5
 15
0.5
 25
0.5
 16
0.0
 26
0.0
 36
1.0
 17
0.0
 27
0.0
 37
0.0
 40
398.0799956877484
 41
2.450549450549451
 42
50.0
 43
0.0
 44
0.0
 50
0.0
 51
0.0
 71
    16
 72
   100
 73
     1
 74
     3
 75
     0
 76
     0
 77
     0
 78
     0
  0
ENDTAB
  0
TABLE
  2
LTYPE
 70
     6
  0
LTYPE
  2
CONTINUOUS
 70
     0
  3
Solid line
 72
    65
 73
     0
 40
0.0
  0
LTYPE
  2
CENTER
 70
     0
  3
____ _ ____ _ ____ _ ____ _ ____ _ ____ _ ____
 72
    65
 73
     4
 40
0.6
 49
0.375
 49
-0.075
 49
0.075
 49
-0.075
  0
LTYPE
  2
HIDDEN
 70
     0
  3
- - - - - - - - - - - - - - - - - - - -
 72
    65
 73
     2
 40
0.2
 49
0.1
 49
-0.1
  0
LTYPE
  2
PHANTOM
 70
     0
  3
_____ _ _ _____ _ _ _____ _ _ _____
 72
    65
 73
     6
 40
0.8
 49
0.45
 49
-0.05
 49
0.1
 49
-0.05
 49
0.1
 49
-0.05
  0
LTYPE
  2
DOT
 70
     0
  3
. . . . . . . . . . . . . . . . . . . .
 72
    65
 73
     2
 40
0.2
 49
0.1
 49
-0.1
  0
LTYPE
  2
DASHED
 70
     0
  3
- - - - - - - - - - - - - - - - - - - -
 72
    65
 73
     2
 40
0.2
 49
0.1
 49
-0.1
  0
ENDTAB
  0
TABLE
  2
LAYER
 70
    17
  0
LAYER
  2
0
 70
     0
 62
     7
  6
CONTINUOUS
  0
LAYER
  2
DEFAULT_1
 70
     0
 62
     7
  6
CENTER
  0
LAYER
  2
DEFAULT_2
 70
     0
 62
     7
  6
HIDDEN
  0
LAYER
  2
DEFAULT_3
 70
     0
 62
     7
  6
PHANTOM
  0
LAYER
  2
01___PRT_ALL_DTM_PLN
 70
     0
 62
     7
  6
CONTINUOUS
  0
LAYER
  2
01___PRT_DEF_DTM_PLN
 70
     0
 62
     7
  6
CONTINUOUS
  0
LAYER
  2
02___PRT_ALL_AXES
 70
     0
 62
     7
  6
CONTINUOUS
  0
LAYER
  2
03___PRT_ALL_CURVES
 70
     0
 62
     7
  6
CONTINUOUS
  0
LAYER
  2
04___PRT_ALL_DTM_PNT
 70
     0
 62
     7
  6
CONTINUOUS
  0
LAYER
  2
05___PRT_ALL_DTM_CSYS
 70
     0
 62
     7
  6
CONTINUOUS
  0
LAYER
  2
05___PRT_DEF_DTM_CSYS
 70
     0
 62
     7
  6
CONTINUOUS
  0
LAYER
  2
06___PRT_ALL_SURFS
 70
     0
 62
     7
  6
CONTINUOUS
  0
LAYER
  2
DEFPOINTS
 70
     0
 62
     7
  6
CONTINUOUS
  0
LAYER
  2
DIMENSIONS
 70
     0
 62
     2
  6
CONTINUOUS
  0
LAYER
  2
AM_5
 70
     0
 62
     3
  6
CONTINUOUS
  0
LAYER
  2
CUTOUT
 70
     0
 62
     7
  6
CONTINUOUS
  0
LAYER
  2
EXTERNAL_OUTFIT
 70
     0
 62
     7
  6
CENTER
  0
ENDTAB
  0
TABLE
  2
STYLE
 70
     2
  0
STYLE
  2
STANDARD
 70
     0
 40
0.0
 41
1.0
 50
0.0
 71
     0
 42
0.2
  3
arial.ttf
  4

  0
STYLE
  2
TEXTSTYLE_1
 70
     0
 40
0.0
 41
0.8
 50
0.0
 71
     0
 42
0.2
  3
gdt
  4

  0
ENDTAB
  0
TABLE
  2
VIEW
 70
     0
  0
ENDTAB
  0
TABLE
  2
UCS
 70
     0
  0
ENDTAB
  0
TABLE
  2
APPID
 70
    10
  0
APPID
  2
ACAD
 70
     0
  0
APPID
  2
ACAECLAYERSTANDARD
 70
     0
  0
APPID
  2
ACAD_DSTYLE_DIMRADIAL_EXTE
 70
     0
  0
APPID
  2
ACAD_DSTYLE_DIMJOGGED_JOGA
 70
     0
  0
APPID
  2
ACAD_DSTYLE_DIMJAG
 70
     0
  0
APPID
  2
ACAD_DSTYLE_DIMBREAK
 70
     0
  0
APPID
  2
ACAD_PSEXT
 70
     0
  0
APPID
  2
ACAD_DSTYLE_DIMINSPECT
 70
     0
  0
APPID
  2
ACAD_DSTYLE_DIMRADIAL_EXT0
 70
     0
  0
APPID
  2
ACAD_DSTYLE_DIMJOGGED_JOG0
 70
     0
  0
ENDTAB
  0
TABLE
  2
DIMSTYLE
 70
     5
  0
DIMSTYLE
  2
STANDARD
 70
     0
  3

  4

  5

  6

  7

 40
1.0
 41
0.18
 42
0.0625
 43
0.38
 44
0.18
 45
0.0
 46
0.0
 47
0.0
 48
0.0
140
0.18
141
0.09
142
0.0
143
25.4
144
1.0
145
0.0
146
1.0
147
0.09
 71
     0
 72
     0
 73
     1
 74
     1
 75
     0
 76
     0
 77
     0
 78
     0
170
     0
171
     2
172
     0
173
     0
174
     0
175
     0
176
     0
177
     0
178
     0
  0
DIMSTYLE
  2
DUAL-DIM
 70
     0
  3

  4

  5

  6

  7

 40
1.0
 41
5.0
 42
1.5
 43
1.0
 44
0.18
 45
0.0
 46
0.0
 47
0.0
 48
0.0
140
5.0
141
2.5
142
0.0
143
0.03937
144
1.0
145
0.0
146
1.0
147
1.0
 71
     0
 72
     0
 73
     0
 74
     0
 75
     0
 76
     0
 77
     1
 78
     8
170
     1
171
     2
172
     0
173
     0
174
     0
175
     0
176
     0
177
     0
178
     5
  0
DIMSTYLE
  2
AM_ISO
 70
     0
  3

  4
"
  5

  6

  7

 40
1.0
 41
3.5
 42
1.0
 43
10.0
 44
1.0
 45
0.0
 46
0.0
 47
0.1
 48
0.1
140
3.5
141
0.0
142
0.0
143
0.0393701
144
1.0
145
0.0
146
0.71
147
1.5
 71
     0
 72
     0
 73
     0
 74
     0
 75
     0
 76
     0
 77
     1
 78
     8
170
     0
171
     2
172
     1
173
     0
174
     0
175
     0
176
   256
177
   256
178
     2
  0
DIMSTYLE
  2
AM_ISO$3
 70
     0
  3

  4
"
  5

  6

  7

 40
1.0
 41
3.5
 42
1.0
 43
10.0
 44
1.0
 45
0.0
 46
0.0
 47
0.1
 48
0.1
140
3.5
141
0.0
142
0.0
143
0.0393701
144
1.0
145
0.0
146
0.71
147
1.5
 71
     0
 72
     0
 73
     0
 74
     1
 75
     0
 76
     0
 77
     1
 78
     8
170
     0
171
     2
172
     0
173
     0
174
     0
175
     0
176
   256
177
   256
178
     2
  0
DIMSTYLE
  2
AM_ISO$0
 70
     0
  3

  4
"
  5

  6

  7

 40
1.0
 41
3.5
 42
1.0
 43
10.0
 44
1.0
 45
0.0
 46
0.0
 47
0.1
 48
0.1
140
3.5
141
0.0
142
0.0
143
0.0393701
144
1.0
145
0.0
146
0.71
147
1.5
 71
     0
 72
     0
 73
     0
 74
     0
 75
     0
 76
     0
 77
     1
 78
     8
170
     0
171
     2
172
     1
173
     0
174
     0
175
     0
176
   256
177
   256
178
     2
  0
ENDTAB
  0
ENDSEC
  0
SECTION
  2
BLOCKS
  0
BLOCK
  8
0
  2
$MODEL_SPACE
 70
     0
 10
0.0
 20
0.0
 30
0.0
  3
$MODEL_SPACE
  1

  0
ENDBLK
  5
110
  8
0
  0
BLOCK
 67
     1
  8
0
  2
$PAPER_SPACE
 70
     0
 10
0.0
 20
0.0
 30
0.0
  3
$PAPER_SPACE
  1

  0
ENDBLK
  5
112
 67
     1
  8
0
  0
BLOCK
  8
0
  2
_FILLED
 70
     0
 10
0.0
 20
0.0
 30
0.0
  3
_FILLED
  1

  0
SOLID
  5
3D
  8
0
  6
BYBLOCK
 62
     0
 10
0.0
 20
0.0
 30
0.0
 11
-1.0
 21
0.2
 31
0.0
 12
-1.0
 22
-0.2
 32
0.0
 13
-1.0
 23
-0.2
 33
0.0
  0
ENDBLK
  5
3E
  8
0
  6
BYBLOCK
 62
     0
  0
BLOCK
  8
0
  2
*X178
 70
     1
 10
0.0
 20
0.0
 30
0.0
  3
*X178
  1

  0
LINE
  5
1059
  8
CUTOUT
 10
22.5
 20
817.9951288348661
 30
0.0
 11
73.50487116513366
 21
868.9999999999998
 31
0.0
  0
LINE
  5
105A
  8
CUTOUT
 10
22.50000000000006
 20
764.962120245875
 30
0.0
 11
126.5378797541248
 21
868.9999999999998
 31
0.0
  0
LINE
  5
105B
  8
CUTOUT
 10
22.50000000000003
 20
711.9291116568838
 30
0.0
 11
179.5708883431158
 21
868.9999999999998
 31
0.0
  0
LINE
  5
105C
  8
CUTOUT
 10
22.50000000000003
 20
658.8961030678929
 30
0.0
 11
232.6038969321069
 21
868.9999999999998
 31
0.0
  0
LINE
  5
105D
  8
CUTOUT
 10
55.63690552109816
 20
638.9999999999999
 30
0.0
 11
285.6369055210979
 21
868.9999999999998
 31
0.0
  0
LINE
  5
105E
  8
CUTOUT
 10
108.6699141100892
 20
638.9999999999999
 30
0.0
 11
338.6699141100889
 21
868.9999999999997
 31
0.0
  0
LINE
  5
105F
  8
CUTOUT
 10
161.7029226990803
 20
638.9999999999999
 30
0.0
 11
391.70292269908
 21
868.9999999999997
 31
0.0
  0
LINE
  5
1060
  8
CUTOUT
 10
214.7359312880713
 20
638.9999999999999
 30
0.0
 11
442.4999999999999
 21
866.7640687119285
 31
0.0
  0
LINE
  5
1061
  8
CUTOUT
 10
267.7689398770624
 20
638.9999999999999
 30
0.0
 11
442.5
 21
813.7310601229376
 31
0.0
  0
LINE
  5
1062
  8
CUTOUT
 10
320.8019484660534
 20
638.9999999999999
 30
0.0
 11
442.5
 21
760.6980515339465
 31
0.0
  0
LINE
  5
1063
  8
CUTOUT
 10
373.8349570550445
 20
638.9999999999999
 30
0.0
 11
442.5
 21
707.6650429449554
 31
0.0
  0
LINE
  5
1064
  8
CUTOUT
 10
426.8679656440355
 20
638.9999999999999
 30
0.0
 11
442.5
 21
654.6320343559644
 31
0.0
  0
LINE
  5
1065
  8
CUTOUT
 10
22.49999999999997
 20
181.5990257669732
 30
0.0
 11
55.90097423302669
 21
214.9999999999999
 31
0.0
  0
LINE
  5
1066
  8
CUTOUT
 10
22.49999999999997
 20
128.5660171779821
 30
0.0
 11
108.9339828220177
 21
214.9999999999999
 31
0.0
  0
LINE
  5
1067
  8
CUTOUT
 10
22.5
 20
75.53300858899104
 30
0.0
 11
161.9669914110088
 21
214.9999999999999
 31
0.0
  0
LINE
  5
1068
  8
CUTOUT
 10
22.5
 20
22.5
 30
0.0
 11
214.9999999999999
 21
214.9999999999999
 31
0.0
  0
LINE
  5
1069
  8
CUTOUT
 10
73.03300858899101
 20
20.0
 30
0.0
 11
268.0330085889909
 21
214.9999999999999
 31
0.0
  0
LINE
  5
106A
  8
CUTOUT
 10
126.0660171779821
 20
19.99999999999994
 30
0.0
 11
321.066017177982
 21
214.9999999999999
 31
0.0
  0
LINE
  5
106B
  8
CUTOUT
 10
179.0990257669731
 20
19.99999999999994
 30
0.0
 11
374.0990257669731
 21
214.9999999999999
 31
0.0
  0
LINE
  5
106C
  8
CUTOUT
 10
232.1320343559642
 20
19.99999999999994
 30
0.0
 11
427.1320343559642
 21
214.9999999999999
 31
0.0
  0
LINE
  5
106D
  8
CUTOUT
 10
285.1650429449552
 20
19.99999999999994
 30
0.0
 11
442.5
 21
177.3349570550447
 31
0.0
  0
LINE
  5
106E
  8
CUTOUT
 10
338.1980515339463
 20
19.99999999999994
 30
0.0
 11
442.5
 21
124.3019484660537
 31
0.0
  0
LINE
  5
106F
  8
CUTOUT
 10
391.2310601229374
 20
19.99999999999994
 30
0.0
 11
442.5
 21
71.26893987706256
 31
0.0
  0
ENDBLK
  5
1070
  8
0
  0
BLOCK
  8
0
  2
*D179
 70
     1
 10
0.0
 20
0.0
 30
0.0
  3
*D179
  1

  0
LINE
  5
107F
  8
DIMENSIONS
  6
BYBLOCK
 62
     0
 10
86.27604965988485
 20
978.6095802879282
 30
0.0
 11
86.27604965988485
 21
1129.633412647794
 31
0.0
  0
LINE
  5
1080
  8
DIMENSIONS
  6
BYBLOCK
 62
     0
 10
506.2760496598848
 20
978.6095802879282
 30
0.0
 11
506.2760496598848
 21
1129.633412647794
 31
0.0
  0
LINE
  5
1081
  8
DIMENSIONS
  6
BYBLOCK
 62
     0
 10
91.27604965988485
 20
1129.453412647794
 30
0.0
 11
501.2760496598848
 21
1129.453412647794
 31
0.0
  0
SOLID
  5
1082
  8
DIMENSIONS
 62
     0
 10
91.27604965988485
 20
1130.286745981127
 30
0.0
 11
91.27604965988485
 21
1128.620079314461
 31
0.0
 12
86.27604965988485
 22
1129.453412647794
 32
0.0
 13
86.27604965988485
 23
1129.453412647794
 33
0.0
  0
SOLID
  5
1083
  8
DIMENSIONS
 62
     0
 10
501.2760496598848
 20
1128.620079314461
 30
0.0
 11
501.2760496598848
 21
1130.286745981127
 31
0.0
 12
506.2760496598848
 22
1129.453412647794
 32
0.0
 13
506.2760496598848
 23
1129.453412647794
 33
0.0
  0
TEXT
  5
1084
  8
DIMENSIONS
  6
CONTINUOUS
 62
     5
 10
278.9985496598849
 20
1131.848412647794
 30
0.0
 40
5.0
  1
420 [16.54]
  0
POINT
  5
1085
  8
DEFPOINTS
 62
     0
 10
86.27604965988485
 20
977.1095802879282
 30
0.0
  0
POINT
  5
1086
  8
DEFPOINTS
 62
     0
 10
506.2760496598848
 20
977.1095802879282
 30
0.0
  0
POINT
  5
1087
  8
DEFPOINTS
 62
     0
 10
506.2760496598848
 20
1129.453412647794
 30
0.0
  0
ENDBLK
  5
107E
  8
0
  0
BLOCK
  8
0
  2
*D180
 70
     1
 10
0.0
 20
0.0
 30
0.0
  3
*D180
  1

  0
LINE
  5
108E
  8
DIMENSIONS
  6
BYBLOCK
 62
     0
 10
63.77604965988451
 20
1119.609580287929
 30
0.0
 11
63.77604965988451
 21
1143.899808206838
 31
0.0
  0
LINE
  5
108F
  8
DIMENSIONS
  6
BYBLOCK
 62
     0
 10
528.7760496598848
 20
1119.609580287929
 30
0.0
 11
528.7760496598848
 21
1143.899808206838
 31
0.0
  0
LINE
  5
1090
  8
DIMENSIONS
  6
BYBLOCK
 62
     0
 10
68.7760496598845
 20
1143.719808206838
 30
0.0
 11
523.7760496598848
 21
1143.719808206838
 31
0.0
  0
SOLID
  5
1091
  8
DIMENSIONS
 62
     0
 10
68.7760496598845
 20
1144.553141540171
 30
0.0
 11
68.7760496598845
 21
1142.886474873505
 31
0.0
 12
63.77604965988451
 22
1143.719808206838
 32
0.0
 13
63.77604965988451
 23
1143.719808206838
 33
0.0
  0
SOLID
  5
1092
  8
DIMENSIONS
 62
     0
 10
523.7760496598848
 20
1142.886474873505
 30
0.0
 11
523.7760496598848
 21
1144.553141540171
 31
0.0
 12
528.7760496598848
 22
1143.719808206838
 32
0.0
 13
528.7760496598848
 23
1143.719808206838
 33
0.0
  0
TEXT
  5
1093
  8
DIMENSIONS
  6
CONTINUOUS
 62
     5
 10
278.9985496598847
 20
1146.114808206838
 30
0.0
 40
5.0
  1
465 [18.31]
  0
POINT
  5
1094
  8
DEFPOINTS
 62
     0
 10
63.77604965988451
 20
1118.109580287929
 30
0.0
  0
POINT
  5
1095
  8
DEFPOINTS
 62
     0
 10
528.7760496598848
 20
1118.109580287929
 30
0.0
  0
POINT
  5
1096
  8
DEFPOINTS
 62
     0
 10
528.7760496598848
 20
1143.719808206838
 30
0.0
  0
ENDBLK
  5
108D
  8
0
  0
BLOCK
  8
0
  2
*D181
 70
     1
 10
0.0
 20
0.0
 30
0.0
  3
*D181
  1

  0
LINE
  5
109D
  8
DIMENSIONS
  6
BYBLOCK
 62
     0
 10
62.27604965988451
 20
1118.109580287929
 30
0.0
 11
51.16067631813151
 21
1118.109580287929
 31
0.0
  0
LINE
  5
109E
  8
DIMENSIONS
  6
BYBLOCK
 62
     0
 10
84.77604965988485
 20
977.1095802879282
 30
0.0
 11
51.1606763181315
 21
977.1095802879282
 31
0.0
  0
LINE
  5
109F
  8
DIMENSIONS
  6
BYBLOCK
 62
     0
 10
51.34067631813151
 20
1113.109580287929
 30
0.0
 11
51.3406763181315
 21
982.1095802879282
 31
0.0
  0
SOLID
  5
10A0
  8
DIMENSIONS
 62
     0
 10
52.17400965146484
 20
1113.109580287929
 30
0.0
 11
50.50734298479817
 21
1113.109580287929
 31
0.0
 12
51.34067631813151
 22
1118.109580287929
 32
0.0
 13
51.34067631813151
 23
1118.109580287929
 33
0.0
  0
SOLID
  5
10A1
  8
DIMENSIONS
 62
     0
 10
50.50734298479816
 20
982.1095802879282
 30
0.0
 11
52.17400965146484
 21
982.1095802879282
 31
0.0
 12
51.3406763181315
 22
977.1095802879282
 32
0.0
 13
51.3406763181315
 23
977.1095802879282
 33
0.0
  0
TEXT
  5
10A2
  8
DIMENSIONS
  6
CONTINUOUS
 62
     5
 10
48.94567631813129
 20
1031.937080287928
 30
0.0
 40
5.0
  1
141 [5.55]
 50
90.0
  0
POINT
  5
10A3
  8
DEFPOINTS
 62
     0
 10
63.77604965988451
 20
1118.109580287929
 30
0.0
  0
POINT
  5
10A4
  8
DEFPOINTS
 62
     0
 10
86.27604965988485
 20
977.1095802879282
 30
0.0
  0
POINT
  5
10A5
  8
DEFPOINTS
 62
     0
 10
51.3406763181315
 20
977.1095802879282
 30
0.0
  0
ENDBLK
  5
109C
  8
0
  0
BLOCK
  8
0
  2
*D182
 70
     1
 10
0.0
 20
0.0
 30
0.0
  3
*D182
  1

  0
LINE
  5
10AC
  8
DIMENSIONS
  6
BYBLOCK
 62
     0
 10
84.77604965988485
 20
977.1095802879282
 30
0.0
 11
51.1606763181315
 21
977.1095802879282
 31
0.0
  0
LINE
  5
10AD
  8
DIMENSIONS
  6
BYBLOCK
 62
     0
 10
84.77604965988485
 20
747.1095802879283
 30
0.0
 11
51.16067631813149
 21
747.1095802879283
 31
0.0
  0
LINE
  5
10AE
  8
DIMENSIONS
  6
BYBLOCK
 62
     0
 10
51.3406763181315
 20
972.1095802879282
 30
0.0
 11
51.34067631813149
 21
752.1095802879283
 31
0.0
  0
SOLID
  5
10AF
  8
DIMENSIONS
 62
     0
 10
52.17400965146484
 20
972.1095802879282
 30
0.0
 11
50.50734298479816
 21
972.1095802879282
 31
0.0
 12
51.3406763181315
 22
977.1095802879282
 32
0.0
 13
51.3406763181315
 23
977.1095802879282
 33
0.0
  0
SOLID
  5
10B0
  8
DIMENSIONS
 62
     0
 10
50.50734298479815
 20
752.1095802879283
 30
0.0
 11
52.17400965146482
 21
752.1095802879283
 31
0.0
 12
51.34067631813149
 22
747.1095802879283
 32
0.0
 13
51.34067631813149
 23
747.1095802879283
 33
0.0
  0
TEXT
  5
10B1
  8
DIMENSIONS
  6
CONTINUOUS
 62
     5
 10
48.94567631813152
 20
846.7145802879284
 30
0.0
 40
5.0
  1
230 [9.06]
 50
90.0
  0
POINT
  5
10B2
  8
DEFPOINTS
 62
     0
 10
86.27604965988485
 20
977.1095802879282
 30
0.0
  0
POINT
  5
10B3
  8
DEFPOINTS
 62
     0
 10
86.27604965988485
 20
747.1095802879283
 30
0.0
  0
POINT
  5
10B4
  8
DEFPOINTS
 62
     0
 10
51.34067631813149
 20
747.1095802879283
 30
0.0
  0
ENDBLK
  5
10AB
  8
0
  0
BLOCK
  8
0
  2
*D183
 70
     1
 10
0.0
 20
0.0
 30
0.0
  3
*D183
  1

  0
LINE
  5
10BB
  8
DIMENSIONS
  6
BYBLOCK
 62
     0
 10
84.77604965988485
 20
747.1095802879283
 30
0.0
 11
51.16067631813149
 21
747.1095802879283
 31
0.0
  0
LINE
  5
10BC
  8
DIMENSIONS
  6
BYBLOCK
 62
     0
 10
84.77604965988485
 20
323.1095802879283
 30
0.0
 11
51.16067631813146
 21
323.1095802879283
 31
0.0
  0
LINE
  5
10BD
  8
DIMENSIONS
  6
BYBLOCK
 62
     0
 10
51.34067631813149
 20
742.1095802879283
 30
0.0
 11
51.34067631813146
 21
328.1095802879283
 31
0.0
  0
SOLID
  5
10BE
  8
DIMENSIONS
 62
     0
 10
52.17400965146482
 20
742.1095802879283
 30
0.0
 11
50.50734298479815
 21
742.1095802879283
 31
0.0
 12
51.34067631813149
 22
747.1095802879283
 32
0.0
 13
51.34067631813149
 23
747.1095802879283
 33
0.0
  0
SOLID
  5
10BF
  8
DIMENSIONS
 62
     0
 10
50.50734298479812
 20
328.1095802879283
 30
0.0
 11
52.17400965146479
 21
328.1095802879283
 31
0.0
 12
51.34067631813146
 22
323.1095802879283
 32
0.0
 13
51.34067631813146
 23
323.1095802879283
 33
0.0
  0
TEXT
  5
10C0
  8
DIMENSIONS
  6
CONTINUOUS
 62
     5
 10
48.94567631813152
 20
517.8320802879283
 30
0.0
 40
5.0
  1
424 [16.69]
 50
90.0
  0
POINT
  5
10C1
  8
DEFPOINTS
 62
     0
 10
86.27604965988485
 20
747.1095802879283
 30
0.0
  0
POINT
  5
10C2
  8
DEFPOINTS
 62
     0
 10
86.27604965988485
 20
323.1095802879283
 30
0.0
  0
POINT
  5
10C3
  8
DEFPOINTS
 62
     0
 10
51.34067631813146
 20
323.1095802879283
 30
0.0
  0
ENDBLK
  5
10BA
  8
0
  0
BLOCK
  8
0
  2
*D184
 70
     1
 10
0.0
 20
0.0
 30
0.0
  3
*D184
  1

  0
LINE
  5
10CA
  8
DIMENSIONS
  6
BYBLOCK
 62
     0
 10
84.77604965988485
 20
323.1095802879283
 30
0.0
 11
51.16067631813146
 21
323.1095802879283
 31
0.0
  0
LINE
  5
10CB
  8
DIMENSIONS
  6
BYBLOCK
 62
     0
 10
84.77604965988485
 20
128.1095802879285
 30
0.0
 11
51.16067631813144
 21
128.1095802879285
 31
0.0
  0
LINE
  5
10CC
  8
DIMENSIONS
  6
BYBLOCK
 62
     0
 10
51.34067631813146
 20
318.1095802879283
 30
0.0
 11
51.34067631813144
 21
133.1095802879285
 31
0.0
  0
SOLID
  5
10CD
  8
DIMENSIONS
 62
     0
 10
52.17400965146479
 20
318.1095802879283
 30
0.0
 11
50.50734298479812
 21
318.1095802879283
 31
0.0
 12
51.34067631813146
 22
323.1095802879283
 32
0.0
 13
51.34067631813146
 23
323.1095802879283
 33
0.0
  0
SOLID
  5
10CE
  8
DIMENSIONS
 62
     0
 10
50.50734298479811
 20
133.1095802879285
 30
0.0
 11
52.17400965146478
 21
133.1095802879285
 31
0.0
 12
51.34067631813144
 22
128.1095802879285
 32
0.0
 13
51.34067631813144
 23
128.1095802879285
 33
0.0
  0
TEXT
  5
10CF
  8
DIMENSIONS
  6
CONTINUOUS
 62
     5
 10
48.94567631813149
 20
209.9370802879284
 30
0.0
 40
5.0
  1
195 [7.68]
 50
90.0
  0
POINT
  5
10D0
  8
DEFPOINTS
 62
     0
 10
86.27604965988485
 20
323.1095802879283
 30
0.0
  0
POINT
  5
10D1
  8
DEFPOINTS
 62
     0
 10
86.27604965988485
 20
128.1095802879285
 30
0.0
  0
POINT
  5
10D2
  8
DEFPOINTS
 62
     0
 10
51.34067631813144
 20
128.1095802879285
 30
0.0
  0
ENDBLK
  5
10C9
  8
0
  0
BLOCK
  8
0
  2
*D185
 70
     1
 10
0.0
 20
0.0
 30
0.0
  3
*D185
  1

  0
LINE
  5
10D9
  8
DIMENSIONS
  6
BYBLOCK
 62
     0
 10
84.77604965988485
 20
128.1095802879285
 30
0.0
 11
38.97903789825778
 21
128.1095802879285
 31
0.0
  0
LINE
  5
10DA
  8
DIMENSIONS
  6
BYBLOCK
 62
     0
 10
62.27604965988451
 20
108.1095802879283
 30
0.0
 11
38.97903789825778
 21
108.1095802879283
 31
0.0
  0
LINE
  5
10DB
  8
DIMENSIONS
  6
BYBLOCK
 62
     0
 10
39.15903789825778
 20
128.1095802879285
 30
0.0
 11
39.15903789825778
 21
161.6095802879285
 31
0.0
  0
LINE
  5
10DC
  8
DIMENSIONS
  6
BYBLOCK
 62
     0
 10
39.15903789825778
 20
123.1095802879285
 30
0.0
 11
39.15903789825778
 21
113.1095802879283
 31
0.0
  0
SOLID
  5
10DD
  8
DIMENSIONS
 62
     0
 10
39.99237123159111
 20
123.1095802879285
 30
0.0
 11
38.32570456492444
 21
123.1095802879285
 31
0.0
 12
39.15903789825778
 22
128.1095802879285
 32
0.0
 13
39.15903789825778
 23
128.1095802879285
 33
0.0
  0
SOLID
  5
10DE
  8
DIMENSIONS
 62
     0
 10
38.32570456492444
 20
113.1095802879283
 30
0.0
 11
39.99237123159111
 21
113.1095802879283
 31
0.0
 12
39.15903789825778
 22
108.1095802879283
 32
0.0
 13
39.15903789825778
 23
108.1095802879283
 33
0.0
  0
TEXT
  5
10DF
  8
DIMENSIONS
  6
CONTINUOUS
 62
     5
 10
36.76403789825784
 20
133.9045802879285
 30
0.0
 40
5.0
  1
20 [0.79]
 50
90.0
  0
POINT
  5
10E0
  8
DEFPOINTS
 62
     0
 10
86.27604965988485
 20
128.1095802879285
 30
0.0
  0
POINT
  5
10E1
  8
DEFPOINTS
 62
     0
 10
63.77604965988451
 20
108.1095802879283
 30
0.0
  0
POINT
  5
10F2
  8
DEFPOINTS
 62
     0
 10
39.15903789825778
 20
108.1095802879283
 30
0.0
  0
ENDBLK
  5
10D8
  8
0
  0
BLOCK
  8
0
  2
*D186
 70
     1
 10
0.0
 20
0.0
 30
0.0
  3
*D186
  1

  0
LINE
  5
10E8
  8
DIMENSIONS
  6
BYBLOCK
 62
     0
 10
297.7760496598846
 20
114.6095802879283
 30
0.0
 11
542.6670763631046
 21
114.6095802879283
 31
0.0
  0
LINE
  5
10E9
  8
DIMENSIONS
  6
BYBLOCK
 62
     0
 10
297.7760496598847
 20
108.1095802879283
 30
0.0
 11
542.6670763631046
 21
108.1095802879283
 31
0.0
  0
LINE
  5
10EA
  8
DIMENSIONS
  6
BYBLOCK
 62
     0
 10
542.4870763631046
 20
114.6095802879283
 30
0.0
 11
542.4870763631046
 21
154.9945802879283
 31
0.0
  0
LINE
  5
10EB
  8
DIMENSIONS
  6
BYBLOCK
 62
     0
 10
542.4870763631046
 20
119.6095802879283
 30
0.0
 11
542.4870763631046
 21
124.6095802879283
 31
0.0
  0
LINE
  5
10EC
  8
DIMENSIONS
  6
BYBLOCK
 62
     0
 10
542.4870763631046
 20
103.1095802879283
 30
0.0
 11
542.4870763631046
 21
98.10958028792832
 31
0.0
  0
SOLID
  5
10ED
  8
DIMENSIONS
 62
     0
 10
541.6537430297712
 20
119.6095802879283
 30
0.0
 11
543.320409696438
 21
119.6095802879283
 31
0.0
 12
542.4870763631046
 22
114.6095802879283
 32
0.0
 13
542.4870763631046
 23
114.6095802879283
 33
0.0
  0
SOLID
  5
10EE
  8
DIMENSIONS
 62
     0
 10
543.320409696438
 20
103.1095802879283
 30
0.0
 11
541.6537430297712
 21
103.1095802879283
 31
0.0
 12
542.4870763631046
 22
108.1095802879283
 32
0.0
 13
542.4870763631046
 23
108.1095802879283
 33
0.0
  0
TEXT
  5
10EF
  8
DIMENSIONS
  6
CONTINUOUS
 62
     5
 10
540.0920763631046
 20
125.3495802879283
 30
0.0
 40
5.0
  1
6.5 [0.26]
 50
90.0
  0
POINT
  5
10F0
  8
DEFPOINTS
 62
     0
 10
296.2760496598846
 20
114.6095802879283
 30
0.0
  0
POINT
  5
10F1
  8
DEFPOINTS
 62
     0
 10
296.2760496598847
 20
108.1095802879283
 30
0.0
  0
POINT
  5
10F3
  8
DEFPOINTS
 62
     0
 10
542.4870763631046
 20
108.1095802879283
 30
0.0
  0
ENDBLK
  5
10E7
  8
0
  0
BLOCK
  8
0
  2
*D187
 70
     1
 10
0.0
 20
0.0
 30
0.0
  3
*D187
  1

  0
LINE
  5
10FA
  8
DIMENSIONS
  6
BYBLOCK
 62
     0
 10
288.0260620166268
 20
114.6238591566726
 30
0.0
 11
241.8011312518274
 21
114.7038640909395
 31
0.0
  0
TEXT
  5
10FB
  8
DIMENSIONS
  6
CONTINUOUS
 62
     5
 10
242.5254138340441
 20
117.1776142280992
 30
0.0
 40
5.0
  1
Ø6.5 [Ø0.26]
 50
359.900834021367
  0
SOLID
  5
10FC
  8
DIMENSIONS
 62
     0
 10
288.0246197066526
 20
113.790527071495
 30
0.0
 11
288.0275043266009
 21
115.4571912418501
 31
0.0
 12
293.0260545276922
 22
114.6152052968276
 32
0.0
 13
293.0260545276922
 23
114.6152052968276
 33
0.0
  0
LINE
  5
10FD
  8
DIMENSIONS
  6
BYBLOCK
 62
     0
 10
293.7760496598846
 20
114.6095802879283
 30
0.0
 11
298.7760496598846
 21
114.6095802879283
 31
0.0
  0
LINE
  5
10FE
  8
DIMENSIONS
  6
BYBLOCK
 62
     0
 10
296.2760496598846
 20
112.1095802879283
 30
0.0
 11
296.2760496598846
 21
117.1095802879283
 31
0.0
  0
POINT
  5
10FF
  8
DEFPOINTS
 62
     0
 10
293.0260545276922
 20
114.6152052968276
 30
0.0
  0
POINT
  5
1100
  8
DEFPOINTS
 62
     0
 10
299.5260447920771
 20
114.6039552790291
 30
0.0
  0
ENDBLK
  5
10F9
  8
0
  0
BLOCK
  8
0
  2
*D188
 70
     1
 10
0.0
 20
0.0
 30
0.0
  3
*D188
  1

  0
LINE
  5
1122
  8
DIMENSIONS
  6
BYBLOCK
 62
     0
 10
62.27604965988451
 20
1118.109580287929
 30
0.0
 11
19.25199528147158
 21
1118.109580287929
 31
0.0
  0
LINE
  5
1123
  8
DIMENSIONS
  6
BYBLOCK
 62
     0
 10
62.27604965988451
 20
108.1095802879283
 30
0.0
 11
19.25199528147152
 21
108.1095802879283
 31
0.0
  0
LINE
  5
1124
  8
DIMENSIONS
  6
BYBLOCK
 62
     0
 10
19.43199528147158
 20
1113.109580287929
 30
0.0
 11
19.43199528147152
 21
113.1095802879283
 31
0.0
  0
SOLID
  5
1125
  8
DIMENSIONS
 62
     0
 10
20.26532861480491
 20
1113.109580287929
 30
0.0
 11
18.59866194813824
 21
1113.109580287929
 31
0.0
 12
19.43199528147158
 22
1118.109580287929
 32
0.0
 13
19.43199528147158
 23
1118.109580287929
 33
0.0
  0
SOLID
  5
1126
  8
DIMENSIONS
 62
     0
 10
18.59866194813818
 20
113.1095802879283
 30
0.0
 11
20.26532861480485
 21
113.1095802879283
 31
0.0
 12
19.43199528147152
 22
108.1095802879283
 32
0.0
 13
19.43199528147152
 23
108.1095802879283
 33
0.0
  0
TEXT
  5
1127
  8
DIMENSIONS
  6
CONTINUOUS
 62
     5
 10
17.0369952814716
 20
593.5570802879284
 30
0.0
 40
5.0
  1
1010 [39.76]
 50
90.0
  0
POINT
  5
1128
  8
DEFPOINTS
 62
     0
 10
63.77604965988451
 20
1118.109580287929
 30
0.0
  0
POINT
  5
1129
  8
DEFPOINTS
 62
     0
 10
63.77604965988451
 20
108.1095802879283
 30
0.0
  0
POINT
  5
112A
  8
DEFPOINTS
 62
     0
 10
19.43199528147152
 20
108.1095802879283
 30
0.0
  0
ENDBLK
  5
1121
  8
0
  0
ENDSEC
  0
SECTION
  2
ENTITIES
  0
TEXT
  5
698
  8
DIMENSIONS
  6
BYBLOCK
 10
66.76679083336063
 20
88.96611836251466
 30
0.0
 40
5.0
  1
Note:
  0
TEXT
  5
699
  8
DIMENSIONS
  6
BYBLOCK
 10
66.90071687364613
 20
78.4371505145216
 30
0.0
 40
5.0
  1
Primary dimensions in millimeters.
  0
TEXT
  5
69A
  8
DIMENSIONS
  6
BYBLOCK
 10
67.1221308100362
 20
67.86512490573753
 30
0.0
 40
5.0
  1
Secondary dimensions in inches.
  0
POLYLINE
  5
1074
  8
0
 66
     1
 10
0.0
 20
0.0
 30
0.0
 70
     1
  0
VERTEX
  5
1160
  8
0
 10
528.7760496598848
 20
1118.109580287929
 30
0.0
  0
VERTEX
  5
1161
  8
0
 10
528.7760496598848
 20
108.1095802879283
 30
0.0
  0
VERTEX
  5
1162
  8
0
 10
63.77604965988451
 20
108.1095802879283
 30
0.0
  0
VERTEX
  5
1163
  8
0
 10
63.77604965988451
 20
1118.109580287929
 30
0.0
  0
SEQEND
  5
1170
  8
0
  0
POLYLINE
  5
1075
  8
0
 66
     1
 10
0.0
 20
0.0
 30
0.0
 70
     1
  0
VERTEX
  5
1164
  8
0
 10
86.27604965988485
 20
128.1095802879285
 30
0.0
  0
VERTEX
  5
1165
  8
0
 10
86.27604965988485
 20
323.1095802879283
 30
0.0
  0
VERTEX
  5
1166
  8
0
 10
506.2760496598848
 20
323.1095802879283
 30
0.0
  0
VERTEX
  5
1167
  8
0
 10
506.2760496598848
 20
128.1095802879285
 30
0.0
  0
SEQEND
  5
1171
  8
0
  0
POLYLINE
  5
1076
  8
0
 66
     1
 10
0.0
 20
0.0
 30
0.0
 70
     1
  0
VERTEX
  5
1168
  8
0
 10
86.27604965988485
 20
747.1095802879283
 30
0.0
  0
VERTEX
  5
1169
  8
0
 10
86.27604965988485
 20
977.1095802879282
 30
0.0
  0
VERTEX
  5
116A
  8
0
 10
506.2760496598848
 20
977.1095802879282
 30
0.0
  0
VERTEX
  5
116B
  8
0
 10
506.2760496598848
 20
747.1095802879283
 30
0.0
  0
SEQEND
  5
1172
  8
0
  0
CIRCLE
  5
1077
  8
0
 10
296.2760496598846
 20
114.6095802879283
 30
0.0
 40
3.25
  0
INSERT
  5
1078
  8
0
  2
*X178
 10
63.77604965988485
 20
108.1095802879285
 30
0.0
  0
DIMENSION
  5
1079
  8
DIMENSIONS
  6
BYBLOCK
  2
*D179
 10
506.2760496598848
 20
1129.453412647794
 30
0.0
 11
296.2760496598848
 21
1133.655912647794
 31
0.0
 70
    32
  3
DUAL-DIM
 13
86.27604965988485
 23
977.1095802879282
 33
0.0
 14
506.2760496598848
 24
977.1095802879282
 34
0.0
1001
ACAD
1000
DSTYLE
1002
{
1070
   287
1070
     5
1070
   279
1070
     2
1002
}
  0
DIMENSION
  5
1088
  8
DIMENSIONS
  6
BYBLOCK
  2
*D180
 10
528.7760496598848
 20
1143.719808206838
 30
0.0
 11
296.2760496598847
 21
1147.922308206838
 31
0.0
 70
    32
  3
DUAL-DIM
 13
63.77604965988451
 23
1118.109580287929
 33
0.0
 14
528.7760496598848
 24
1118.109580287929
 34
0.0
1001
ACAD
1000
DSTYLE
1002
{
1070
   287
1070
     5
1070
   279
1070
     2
1002
}
  0
DIMENSION
  5
1097
  8
DIMENSIONS
  6
BYBLOCK
  2
*D181
 10
51.3406763181315
 20
977.1095802879282
 30
0.0
 11
47.1381763181314
 21
1047.609580287928
 31
0.0
 70
    32
  3
DUAL-DIM
 13
63.77604965988451
 23
1118.109580287929
 33
0.0
 14
86.27604965988485
 24
977.1095802879282
 34
0.0
 50
90.0
1001
ACAD
1000
DSTYLE
1002
{
1070
   287
1070
     5
1070
   279
1070
     2
1002
}
  0
DIMENSION
  5
10A6
  8
DIMENSIONS
  6
BYBLOCK
  2
*D182
 10
51.34067631813149
 20
747.1095802879283
 30
0.0
 11
47.13817631813151
 21
862.1095802879283
 31
0.0
 70
    32
  3
DUAL-DIM
 13
86.27604965988485
 23
977.1095802879282
 33
0.0
 14
86.27604965988485
 24
747.1095802879283
 34
0.0
 50
90.0
1001
ACAD
1000
DSTYLE
1002
{
1070
   287
1070
     5
1070
   279
1070
     2
1002
}
  0
DIMENSION
  5
10B5
  8
DIMENSIONS
  6
BYBLOCK
  2
*D183
 10
51.34067631813146
 20
323.1095802879283
 30
0.0
 11
47.13817631813149
 21
535.1095802879283
 31
0.0
 70
    32
  3
DUAL-DIM
 13
86.27604965988485
 23
747.1095802879283
 33
0.0
 14
86.27604965988485
 24
323.1095802879283
 34
0.0
 50
90.0
1001
ACAD
1000
DSTYLE
1002
{
1070
   287
1070
     5
1070
   279
1070
     2
1002
}
  0
DIMENSION
  5
10C4
  8
DIMENSIONS
  6
BYBLOCK
  2
*D184
 10
51.34067631813144
 20
128.1095802879285
 30
0.0
 11
47.13817631813146
 21
225.6095802879284
 31
0.0
 70
    32
  3
DUAL-DIM
 13
86.27604965988485
 23
323.1095802879283
 33
0.0
 14
86.27604965988485
 24
128.1095802879285
 34
0.0
 50
90.0
1001
ACAD
1000
DSTYLE
1002
{
1070
   287
1070
     5
1070
   279
1070
     2
1002
}
  0
DIMENSION
  5
10D3
  8
DIMENSIONS
  6
BYBLOCK
  2
*D185
 10
39.15903789825778
 20
108.1095802879283
 30
0.0
 11
39.15903789825778
 21
147.3595802879285
 31
0.0
 70
   160
  3
DUAL-DIM
 13
86.27604965988485
 23
128.1095802879285
 33
0.0
 14
63.77604965988451
 24
108.1095802879283
 34
0.0
 50
90.0
1001
ACAD
1000
DSTYLE
1002
{
1070
   287
1070
     3
1070
   279
1070
     0
1002
}
  0
DIMENSION
  5
10E2
  8
DIMENSIONS
  6
BYBLOCK
  2
*D186
 10
542.4870763631046
 20
108.1095802879283
 30
0.0
 11
542.4870763631046
 21
139.8020802879283
 31
0.0
 70
   160
  3
DUAL-DIM
 13
296.2760496598846
 23
114.6095802879283
 33
0.0
 14
296.2760496598847
 24
108.1095802879283
 34
0.0
 50
90.0
1001
ACAD
1000
DSTYLE
1002
{
1070
   287
1070
     3
1070
   279
1070
     0
1002
}
  0
DIMENSION
  5
10F4
  8
DIMENSIONS
  6
BYBLOCK
  2
*D187
 10
299.5260447920771
 20
114.6039552790291
 30
0.0
 11
262.4136003786944
 21
114.6681885537285
 31
0.0
 70
   163
  1
<>
  3
DUAL-DIM
 15
293.0260545276922
 25
114.6152052968276
 35
0.0
 40
0.0
1001
ACAD
1000
DSTYLE
1002
{
1070
   287
1070
     3
1070
   279
1070
     0
1002
}
1001
ACAD_DSTYLE_DIMRADIAL_EXT0
1070
   387
1070
     1
1070
   388
1040
0.0
1070
   390
1040
6.283185307179586
  0
DIMENSION
  5
111C
  8
DIMENSIONS
  6
BYBLOCK
  2
*D188
 10
19.43199528147152
 20
108.1095802879283
 30
0.0
 11
15.22949528147156
 21
613.1095802879285
 31
0.0
 70
    32
  3
DUAL-DIM
 13
63.77604965988451
 23
1118.109580287929
 33
0.0
 14
63.77604965988451
 24
108.1095802879283
 34
0.0
 50
90.0
1001
ACAD
1000
DSTYLE
1002
{
1070
   287
1070
     5
1070
   279
1070
     2
1002
}
  0
POLYLINE
  5
112B
  8
0
  6
BYBLOCK
 66
     1
 10
0.0
 20
0.0
 30
0.0
 70
     1
  0
VERTEX
  5
116C
  8
0
  6
BYBLOCK
 10
-28.94643940383605
 20
61.04492136889928
 30
0.0
  0
VERTEX
  5
116D
  8
0
  6
BYBLOCK
 10
-28.94643940383605
 20
1198.416337619608
 30
0.0
  0
VERTEX
  5
116E
  8
0
  6
BYBLOCK
 10
589.9777297157659
 20
1198.416337619608
 30
0.0
  0
VERTEX
  5
116F
  8
0
  6
BYBLOCK
 10
589.9777297157659
 20
61.04492136889928
 30
0.0
  0
SEQEND
  5
1173
  8
0
  6
BYBLOCK
  0
VIEWPORT
  5
B1C
 67
     1
  8
0
 10
5.25
 20
3.5
 30
0.0
 40
12.6
 41
8.4
 68
     1
 69
     1
1001
ACAD
1000
MVIEW
1002
{
1070
    16
1010
0.0
1020
0.0
1030
0.0
1010
0.0
1020
0.0
1030
1.0
1040
0.0
1040
8.4
1040
5.25
1040
3.5
1040
50.0
1040
0.0
1040
0.0
1070
     0
1070
   100
1070
     0
1070
     3
1070
     0
1070
     0
1070
     0
1070
     0
1040
0.0
1040
0.0
1040
0.0
1040
0.5
1040
0.5
1040
0.0
1040
0.0
1070
     0
1002
{
1002
}
1002
}
  0
VIEWPORT
  5
B1D
 67
     1
  8
0
 10
5.25
 20
3.5
 30
0.0
 40
8.4
 41
5.600000000000001
 68
     2
 69
     2
1001
ACAD
1000
MVIEW
1002
{
1070
    16
1010
0.0
1020
0.0
1030
0.0
1010
0.0
1020
0.0
1030
1.0
1040
0.0
1040
278.6419840998563
1040
207.1268606538857
1040
36.27547653054833
1040
50.0
1040
0.0
1040
0.0
1070
     0
1070
   100
1070
     0
1070
     3
1070
     0
1070
     0
1070
     0
1070
     0
1040
0.0
1040
0.0
1040
0.0
1040
0.5
1040
0.5
1040
0.0
1040
0.0
1070
     0
1002
{
1002
}
1002
}
  0
ENDSEC
  0
EOF
