  0
SECTION
  2
HEADER
  9
$ACADVER
  1
AC1009
  9
$DWGCODEPAGE
  3
ansi_1252
  9
$INSBASE
 10
0.0
 20
0.0
 30
0.0
  9
$EXTMIN
 10
-559.0501153634157
 20
75.44938664180336
 30
0.0
  9
$EXTMAX
 10
29.7817691431768
 20
1339.319312443795
 30
0.0
  9
$LIMMIN
 10
0.0
 20
0.0
  9
$LIMMAX
 10
594.0
 20
420.0
  9
$ORTHOMODE
 70
     1
  9
$REGENMODE
 70
     1
  9
$FILLMODE
 70
     1
  9
$QTEXTMODE
 70
     0
  9
$MIRRTEXT
 70
     1
  9
$DRAGMODE
 70
     2
  9
$LTSCALE
 40
32.67
  9
$OSMODE
 70
   511
  9
$ATTMODE
 70
     1
  9
$TEXTSIZE
 40
0.2
  9
$TRACEWID
 40
0.05
  9
$TEXTSTYLE
  7
STANDARD
  9
$CLAYER
  8
DIMENSIONS
  9
$CELTYPE
  6
BYBLOCK
  9
$CECOLOR
 62
   256
  9
$DIMSCALE
 40
1.0
  9
$DIMASZ
 40
5.0
  9
$DIMEXO
 40
1.5
  9
$DIMDLI
 40
1.0
  9
$DIMRND
 40
0.0
  9
$DIMDLE
 40
0.0
  9
$DIMEXE
 40
0.18
  9
$DIMTP
 40
0.0
  9
$DIMTM
 40
0.0
  9
$DIMTXT
 40
5.0
  9
$DIMCEN
 40
2.5
  9
$DIMTSZ
 40
0.0
  9
$DIMTOL
 70
     0
  9
$DIMLIM
 70
     0
  9
$DIMTIH
 70
     0
  9
$DIMTOH
 70
     0
  9
$DIMSE1
 70
     0
  9
$DIMSE2
 70
     0
  9
$DIMTAD
 70
     1
  9
$DIMZIN
 70
     8
  9
$DIMBLK
  1

  9
$DIMASO
 70
     1
  9
$DIMSHO
 70
     1
  9
$DIMPOST
  1

  9
$DIMAPOST
  1

  9
$DIMALT
 70
     1
  9
$DIMALTD
 70
     2
  9
$DIMALTF
 40
0.03937
  9
$DIMLFAC
 40
1.0
  9
$DIMTOFL
 70
     0
  9
$DIMTVP
 40
0.0
  9
$DIMTIX
 70
     0
  9
$DIMSOXD
 70
     0
  9
$DIMSAH
 70
     0
  9
$DIMBLK1
  1

  9
$DIMBLK2
  1

  9
$DIMSTYLE
  2
DUAL-DIM
  9
$DIMCLRD
 70
     0
  9
$DIMCLRE
 70
     0
  9
$DIMCLRT
 70
     5
  9
$DIMTFAC
 40
1.0
  9
$DIMGAP
 40
1.0
  9
$LUNITS
 70
     2
  9
$LUPREC
 70
     4
  9
$SKETCHINC
 40
0.1
  9
$FILLETRAD
 40
15.0
  9
$AUNITS
 70
     0
  9
$AUPREC
 70
     0
  9
$MENU
  1
.
  9
$ELEVATION
 40
0.0
  9
$PELEVATION
 40
0.0
  9
$THICKNESS
 40
0.0
  9
$LIMCHECK
 70
     0
  9
$CHAMFERA
 40
0.0
  9
$CHAMFERB
 40
0.0
  9
$SKPOLY
 70
     0
  9
$TDCREATE
 40
2457428.354677859
  9
$TDUPDATE
 40
2457434.352938137
  9
$TDINDWG
 40
0.0551869676
  9
$TDUSRTIMER
 40
2457434.30678434
  9
$USRTIMER
 70
     1
  9
$ANGBASE
 50
0.0
  9
$ANGDIR
 70
     0
  9
$PDMODE
 70
     3
  9
$PDSIZE
 40
0.3125
  9
$PLINEWID
 40
0.0
  9
$COORDS
 70
     1
  9
$SPLFRAME
 70
     0
  9
$SPLINETYPE
 70
     6
  9
$SPLINESEGS
 70
     8
  9
$ATTDIA
 70
     0
  9
$ATTREQ
 70
     1
  9
$HANDLING
 70
     1
  9
$HANDSEED
  5
132A
  9
$SURFTAB1
 70
     6
  9
$SURFTAB2
 70
     6
  9
$SURFTYPE
 70
     6
  9
$SURFU
 70
     6
  9
$SURFV
 70
     6
  9
$UCSNAME
  2

  9
$UCSORG
 10
0.0
 20
0.0
 30
0.0
  9
$UCSXDIR
 10
1.0
 20
0.0
 30
0.0
  9
$UCSYDIR
 10
0.0
 20
1.0
 30
0.0
  9
$PUCSNAME
  2

  9
$PUCSORG
 10
0.0
 20
0.0
 30
0.0
  9
$PUCSXDIR
 10
1.0
 20
0.0
 30
0.0
  9
$PUCSYDIR
 10
0.0
 20
1.0
 30
0.0
  9
$USERI1
 70
     0
  9
$USERI2
 70
     0
  9
$USERI3
 70
     0
  9
$USERI4
 70
     0
  9
$USERI5
 70
     0
  9
$USERR1
 40
0.0
  9
$USERR2
 40
0.0
  9
$USERR3
 40
0.0
  9
$USERR4
 40
0.0
  9
$USERR5
 40
0.0
  9
$WORLDVIEW
 70
     1
  9
$SHADEDGE
 70
     3
  9
$SHADEDIF
 70
    70
  9
$TILEMODE
 70
     1
  9
$MAXACTVP
 70
    64
  9
$PLIMCHECK
 70
     0
  9
$PEXTMIN
 10
1.05
 20
0.6999999999999997
 30
0.0
  9
$PEXTMAX
 10
9.45
 20
6.300000000000001
 30
0.0
  9
$PLIMMIN
 10
-0.25
 20
-0.7499999999999999
  9
$PLIMMAX
 10
10.75
 20
7.75
  9
$UNITMODE
 70
     0
  9
$VISRETAIN
 70
     1
  9
$PLINEGEN
 70
     0
  9
$PSLTSCALE
 70
     1
  0
ENDSEC
  0
SECTION
  2
TABLES
  0
TABLE
  2
VPORT
 70
     1
  0
VPORT
  2
*ACTIVE
 70
     0
 10
0.0
 20
0.0
 11
1.0
 21
1.0
 12
-258.3352360445662
 22
1296.055867954735
 13
0.0
 23
0.0
 14
0.5
 24
0.5
 15
0.5
 25
0.5
 16
0.0
 26
0.0
 36
1.0
 17
0.0
 27
0.0
 37
0.0
 40
281.9746981931614
 41
2.214132762312634
 42
50.0
 43
0.0
 44
0.0
 50
0.0
 51
0.0
 71
    16
 72
   100
 73
     1
 74
     3
 75
     0
 76
     0
 77
     0
 78
     0
  0
ENDTAB
  0
TABLE
  2
LTYPE
 70
     6
  0
LTYPE
  2
CONTINUOUS
 70
     0
  3
Solid line
 72
    65
 73
     0
 40
0.0
  0
LTYPE
  2
CENTER
 70
     0
  3
____ _ ____ _ ____ _ ____ _ ____ _ ____ _ ____
 72
    65
 73
     4
 40
0.6
 49
0.375
 49
-0.075
 49
0.075
 49
-0.075
  0
LTYPE
  2
HIDDEN
 70
     0
  3
- - - - - - - - - - - - - - - - - - - -
 72
    65
 73
     2
 40
0.2
 49
0.1
 49
-0.1
  0
LTYPE
  2
PHANTOM
 70
     0
  3
_____ _ _ _____ _ _ _____ _ _ _____
 72
    65
 73
     6
 40
0.8
 49
0.45
 49
-0.05
 49
0.1
 49
-0.05
 49
0.1
 49
-0.05
  0
LTYPE
  2
DOT
 70
     0
  3
. . . . . . . . . . . . . . . . . . . .
 72
    65
 73
     2
 40
0.2
 49
0.1
 49
-0.1
  0
LTYPE
  2
DASHED
 70
     0
  3
- - - - - - - - - - - - - - - - - - - -
 72
    65
 73
     2
 40
0.2
 49
0.1
 49
-0.1
  0
ENDTAB
  0
TABLE
  2
LAYER
 70
    17
  0
LAYER
  2
0
 70
     0
 62
     7
  6
CONTINUOUS
  0
LAYER
  2
DEFAULT_1
 70
     0
 62
     7
  6
CENTER
  0
LAYER
  2
DEFAULT_2
 70
     0
 62
     7
  6
HIDDEN
  0
LAYER
  2
DEFAULT_3
 70
     0
 62
     7
  6
PHANTOM
  0
LAYER
  2
01___PRT_ALL_DTM_PLN
 70
     0
 62
     7
  6
CONTINUOUS
  0
LAYER
  2
01___PRT_DEF_DTM_PLN
 70
     0
 62
     7
  6
CONTINUOUS
  0
LAYER
  2
02___PRT_ALL_AXES
 70
     0
 62
     7
  6
CONTINUOUS
  0
LAYER
  2
03___PRT_ALL_CURVES
 70
     0
 62
     7
  6
CONTINUOUS
  0
LAYER
  2
04___PRT_ALL_DTM_PNT
 70
     0
 62
     7
  6
CONTINUOUS
  0
LAYER
  2
05___PRT_ALL_DTM_CSYS
 70
     0
 62
     7
  6
CONTINUOUS
  0
LAYER
  2
05___PRT_DEF_DTM_CSYS
 70
     0
 62
     7
  6
CONTINUOUS
  0
LAYER
  2
06___PRT_ALL_SURFS
 70
     0
 62
     7
  6
CONTINUOUS
  0
LAYER
  2
DEFPOINTS
 70
     0
 62
     7
  6
CONTINUOUS
  0
LAYER
  2
DIMENSIONS
 70
     0
 62
     2
  6
CONTINUOUS
  0
LAYER
  2
AM_5
 70
     0
 62
     3
  6
CONTINUOUS
  0
LAYER
  2
CUTOUT
 70
     0
 62
     7
  6
CONTINUOUS
  0
LAYER
  2
EXTERNAL_OUTFIT
 70
     0
 62
     7
  6
CENTER
  0
ENDTAB
  0
TABLE
  2
STYLE
 70
     2
  0
STYLE
  2
STANDARD
 70
     0
 40
0.0
 41
1.0
 50
0.0
 71
     0
 42
0.2
  3
arial.ttf
  4

  0
STYLE
  2
TEXTSTYLE_1
 70
     0
 40
0.0
 41
0.8
 50
0.0
 71
     0
 42
0.2
  3
gdt
  4

  0
ENDTAB
  0
TABLE
  2
VIEW
 70
     0
  0
ENDTAB
  0
TABLE
  2
UCS
 70
     0
  0
ENDTAB
  0
TABLE
  2
APPID
 70
    10
  0
APPID
  2
ACAD
 70
     0
  0
APPID
  2
ACAECLAYERSTANDARD
 70
     0
  0
APPID
  2
ACAD_DSTYLE_DIMRADIAL_EXTE
 70
     0
  0
APPID
  2
ACAD_DSTYLE_DIMJOGGED_JOGA
 70
     0
  0
APPID
  2
ACAD_DSTYLE_DIMJAG
 70
     0
  0
APPID
  2
ACAD_DSTYLE_DIMBREAK
 70
     0
  0
APPID
  2
ACAD_PSEXT
 70
     0
  0
APPID
  2
ACAD_DSTYLE_DIMINSPECT
 70
     0
  0
APPID
  2
ACAD_DSTYLE_DIMRADIAL_EXT0
 70
     0
  0
APPID
  2
ACAD_DSTYLE_DIMJOGGED_JOG0
 70
     0
  0
ENDTAB
  0
TABLE
  2
DIMSTYLE
 70
     5
  0
DIMSTYLE
  2
STANDARD
 70
     0
  3

  4

  5

  6

  7

 40
1.0
 41
0.18
 42
0.0625
 43
0.38
 44
0.18
 45
0.0
 46
0.0
 47
0.0
 48
0.0
140
0.18
141
0.09
142
0.0
143
25.4
144
1.0
145
0.0
146
1.0
147
0.09
 71
     0
 72
     0
 73
     1
 74
     1
 75
     0
 76
     0
 77
     0
 78
     0
170
     0
171
     2
172
     0
173
     0
174
     0
175
     0
176
     0
177
     0
178
     0
  0
DIMSTYLE
  2
DUAL-DIM
 70
     0
  3

  4

  5

  6

  7

 40
1.0
 41
5.0
 42
1.5
 43
1.0
 44
0.18
 45
0.0
 46
0.0
 47
0.0
 48
0.0
140
5.0
141
2.5
142
0.0
143
0.03937
144
1.0
145
0.0
146
1.0
147
1.0
 71
     0
 72
     0
 73
     0
 74
     0
 75
     0
 76
     0
 77
     1
 78
     8
170
     1
171
     2
172
     0
173
     0
174
     0
175
     0
176
     0
177
     0
178
     5
  0
DIMSTYLE
  2
AM_ISO
 70
     0
  3

  4
"
  5

  6

  7

 40
1.0
 41
3.5
 42
1.0
 43
10.0
 44
1.0
 45
0.0
 46
0.0
 47
0.1
 48
0.1
140
3.5
141
0.0
142
0.0
143
0.0393701
144
1.0
145
0.0
146
0.71
147
1.5
 71
     0
 72
     0
 73
     0
 74
     0
 75
     0
 76
     0
 77
     1
 78
     8
170
     0
171
     2
172
     1
173
     0
174
     0
175
     0
176
   256
177
   256
178
     2
  0
DIMSTYLE
  2
AM_ISO$3
 70
     0
  3

  4
"
  5

  6

  7

 40
1.0
 41
3.5
 42
1.0
 43
10.0
 44
1.0
 45
0.0
 46
0.0
 47
0.1
 48
0.1
140
3.5
141
0.0
142
0.0
143
0.0393701
144
1.0
145
0.0
146
0.71
147
1.5
 71
     0
 72
     0
 73
     0
 74
     1
 75
     0
 76
     0
 77
     1
 78
     8
170
     0
171
     2
172
     0
173
     0
174
     0
175
     0
176
   256
177
   256
178
     2
  0
DIMSTYLE
  2
AM_ISO$0
 70
     0
  3

  4
"
  5

  6

  7

 40
1.0
 41
3.5
 42
1.0
 43
10.0
 44
1.0
 45
0.0
 46
0.0
 47
0.1
 48
0.1
140
3.5
141
0.0
142
0.0
143
0.0393701
144
1.0
145
0.0
146
0.71
147
1.5
 71
     0
 72
     0
 73
     0
 74
     0
 75
     0
 76
     0
 77
     1
 78
     8
170
     0
171
     2
172
     1
173
     0
174
     0
175
     0
176
   256
177
   256
178
     2
  0
ENDTAB
  0
ENDSEC
  0
SECTION
  2
BLOCKS
  0
BLOCK
  8
0
  2
$MODEL_SPACE
 70
     0
 10
0.0
 20
0.0
 30
0.0
  3
$MODEL_SPACE
  1

  0
ENDBLK
  5
110
  8
0
  0
BLOCK
 67
     1
  8
0
  2
$PAPER_SPACE
 70
     0
 10
0.0
 20
0.0
 30
0.0
  3
$PAPER_SPACE
  1

  0
ENDBLK
  5
112
 67
     1
  8
0
  0
BLOCK
  8
0
  2
_FILLED
 70
     0
 10
0.0
 20
0.0
 30
0.0
  3
_FILLED
  1

  0
SOLID
  5
3D
  8
0
  6
BYBLOCK
 62
     0
 10
0.0
 20
0.0
 30
0.0
 11
-1.0
 21
0.2
 31
0.0
 12
-1.0
 22
-0.2
 32
0.0
 13
-1.0
 23
-0.2
 33
0.0
  0
ENDBLK
  5
3E
  8
0
  6
BYBLOCK
 62
     0
  0
BLOCK
  8
0
  2
*X191
 70
     1
 10
0.0
 20
0.0
 30
0.0
  3
*X191
  1

  0
LINE
  5
11AF
  8
CUTOUT
 10
14.99999999999997
 20
766.3009550107067
 30
0.0
 11
32.69904498929318
 21
784.0
 31
0.0
  0
LINE
  5
11B0
  8
CUTOUT
 10
14.99999999999997
 20
691.1708595096361
 30
0.0
 11
107.8291404903639
 21
784.0
 31
0.0
  0
LINE
  5
11B1
  8
CUTOUT
 10
42.95923599143453
 20
644.0
 30
0.0
 11
182.9592359914345
 21
784.0
 31
0.0
  0
LINE
  5
11B2
  8
CUTOUT
 10
118.0893314925052
 20
644.0
 30
0.0
 11
258.0893314925053
 21
784.0
 31
0.0
  0
LINE
  5
11B3
  8
CUTOUT
 10
193.2194269935759
 20
644.0
 30
0.0
 11
333.2194269935759
 21
784.0
 31
0.0
  0
LINE
  5
11B4
  8
CUTOUT
 10
268.3495224946466
 20
644.0
 30
0.0
 11
408.3495224946465
 21
784.0
 31
0.0
  0
LINE
  5
11B5
  8
CUTOUT
 10
343.4796179957173
 20
644.0
 30
0.0
 11
435.0
 21
735.5203820042827
 31
0.0
  0
LINE
  5
11B6
  8
CUTOUT
 10
418.6097134967879
 20
644.0
 30
0.0
 11
435.0
 21
660.3902865032121
 31
0.0
  0
LINE
  5
11B7
  8
CUTOUT
 10
110.0000000000001
 20
185.1300955010707
 30
0.0
 11
161.8699044989293
 21
236.9999999999999
 31
0.0
  0
LINE
  5
11B8
  8
CUTOUT
 10
110.0
 20
110.0000000000001
 30
0.0
 11
236.9999999999999
 21
237.0
 31
0.0
  0
LINE
  5
11B9
  8
CUTOUT
 10
112.1300955010707
 20
37.0
 30
0.0
 11
310.0000000000001
 21
234.8699044989294
 31
0.0
  0
LINE
  5
11BA
  8
CUTOUT
 10
187.2601910021413
 20
37.0
 30
0.0
 11
310.0000000000001
 21
159.7398089978587
 31
0.0
  0
LINE
  5
11BB
  8
CUTOUT
 10
262.390286503212
 20
37.0
 30
0.0
 11
310.0000000000001
 21
84.60971349678812
 31
0.0
  0
ENDBLK
  5
11BC
  8
0
  0
BLOCK
  8
0
  2
*D192
 70
     1
 10
0.0
 20
0.0
 30
0.0
  3
*D192
  1

  0
LINE
  5
11CE
  8
DIMENSIONS
  6
BYBLOCK
 62
     0
 10
-442.0643844954623
 20
1234.531360188034
 30
0.0
 11
-442.0643844954623
 21
1282.550050535765
 31
0.0
  0
LINE
  5
11CF
  8
DIMENSIONS
  6
BYBLOCK
 62
     0
 10
-62.06438449546221
 20
1234.531360188034
 30
0.0
 11
-62.06438449546221
 21
1282.550050535765
 31
0.0
  0
LINE
  5
11D0
  8
DIMENSIONS
  6
BYBLOCK
 62
     0
 10
-437.0643844954623
 20
1282.370050535765
 30
0.0
 11
-67.0643844954622
 21
1282.370050535765
 31
0.0
  0
SOLID
  5
11D1
  8
DIMENSIONS
 62
     0
 10
-437.0643844954623
 20
1283.203383869099
 30
0.0
 11
-437.0643844954623
 21
1281.536717202432
 31
0.0
 12
-442.0643844954623
 22
1282.370050535765
 32
0.0
 13
-442.0643844954623
 23
1282.370050535765
 33
0.0
  0
SOLID
  5
11D2
  8
DIMENSIONS
 62
     0
 10
-67.0643844954622
 20
1281.536717202432
 30
0.0
 11
-67.0643844954622
 21
1283.203383869099
 31
0.0
 12
-62.06438449546221
 22
1282.370050535765
 32
0.0
 13
-62.06438449546221
 23
1282.370050535765
 33
0.0
  0
TEXT
  5
11D3
  8
DIMENSIONS
  6
CONTINUOUS
 62
     5
 10
-269.4443844954623
 20
1284.765050535766
 30
0.0
 40
5.0
  1
380 [14.96]
  0
POINT
  5
11D4
  8
DEFPOINTS
 62
     0
 10
-442.0643844954623
 20
1233.031360188034
 30
0.0
  0
POINT
  5
11D5
  8
DEFPOINTS
 62
     0
 10
-62.06438449546221
 20
1233.031360188034
 30
0.0
  0
POINT
  5
11D6
  8
DEFPOINTS
 62
     0
 10
-62.06438449546221
 20
1282.370050535765
 30
0.0
  0
ENDBLK
  5
11CD
  8
0
  0
BLOCK
  8
0
  2
*D193
 70
     1
 10
0.0
 20
0.0
 30
0.0
  3
*D193
  1

  0
LINE
  5
11DD
  8
DIMENSIONS
  6
BYBLOCK
 62
     0
 10
-27.06438449546221
 20
1269.531360188034
 30
0.0
 11
-27.06438449546221
 21
1298.110407948275
 31
0.0
  0
LINE
  5
11DE
  8
DIMENSIONS
  6
BYBLOCK
 62
     0
 10
-477.0643844954623
 20
1269.531360188034
 30
0.0
 11
-477.0643844954623
 21
1298.110407948275
 31
0.0
  0
LINE
  5
11DF
  8
DIMENSIONS
  6
BYBLOCK
 62
     0
 10
-32.06438449546221
 20
1297.930407948275
 30
0.0
 11
-472.0643844954623
 21
1297.930407948275
 31
0.0
  0
SOLID
  5
11E0
  8
DIMENSIONS
 62
     0
 10
-32.06438449546221
 20
1297.097074614942
 30
0.0
 11
-32.06438449546221
 21
1298.763741281608
 31
0.0
 12
-27.06438449546221
 22
1297.930407948275
 32
0.0
 13
-27.06438449546221
 23
1297.930407948275
 33
0.0
  0
SOLID
  5
11E1
  8
DIMENSIONS
 62
     0
 10
-472.0643844954623
 20
1298.763741281608
 30
0.0
 11
-472.0643844954623
 21
1297.097074614942
 31
0.0
 12
-477.0643844954623
 22
1297.930407948275
 32
0.0
 13
-477.0643844954623
 23
1297.930407948275
 33
0.0
  0
TEXT
  5
11E2
  8
DIMENSIONS
  6
CONTINUOUS
 62
     5
 10
-269.3418844954622
 20
1300.325407948275
 30
0.0
 40
5.0
  1
450 [17.72]
  0
POINT
  5
11E3
  8
DEFPOINTS
 62
     0
 10
-27.06438449546221
 20
1268.031360188034
 30
0.0
  0
POINT
  5
11E4
  8
DEFPOINTS
 62
     0
 10
-477.0643844954623
 20
1268.031360188034
 30
0.0
  0
POINT
  5
11E5
  8
DEFPOINTS
 62
     0
 10
-477.0643844954623
 20
1297.930407948275
 30
0.0
  0
ENDBLK
  5
11DC
  8
0
  0
BLOCK
  8
0
  2
*D194
 70
     1
 10
0.0
 20
0.0
 30
0.0
  3
*D194
  1

  0
LINE
  5
11EC
  8
DIMENSIONS
  6
BYBLOCK
 62
     0
 10
-462.0643844954623
 20
903.5313601880339
 30
0.0
 11
-462.0643844954623
 21
916.7090987605646
 31
0.0
  0
LINE
  5
11ED
  8
DIMENSIONS
  6
BYBLOCK
 62
     0
 10
-42.06438449546226
 20
903.5313601880339
 30
0.0
 11
-42.06438449546226
 21
916.7090987605646
 31
0.0
  0
LINE
  5
11EE
  8
DIMENSIONS
  6
BYBLOCK
 62
     0
 10
-457.0643844954623
 20
916.5290987605647
 30
0.0
 11
-47.06438449546226
 21
916.5290987605647
 31
0.0
  0
SOLID
  5
11EF
  8
DIMENSIONS
 62
     0
 10
-457.0643844954623
 20
917.3624320938981
 30
0.0
 11
-457.0643844954623
 21
915.6957654272313
 31
0.0
 12
-462.0643844954623
 22
916.5290987605647
 32
0.0
 13
-462.0643844954623
 23
916.5290987605647
 33
0.0
  0
SOLID
  5
11F0
  8
DIMENSIONS
 62
     0
 10
-47.06438449546226
 20
915.6957654272313
 30
0.0
 11
-47.06438449546226
 21
917.3624320938981
 31
0.0
 12
-42.06438449546226
 22
916.5290987605647
 32
0.0
 13
-42.06438449546226
 23
916.5290987605647
 33
0.0
  0
TEXT
  5
11F1
  8
DIMENSIONS
  6
CONTINUOUS
 62
     5
 10
-269.3418844954622
 20
918.9240987605647
 30
0.0
 40
5.0
  1
420 [16.54]
  0
POINT
  5
11F2
  8
DEFPOINTS
 62
     0
 10
-462.0643844954623
 20
902.0313601880339
 30
0.0
  0
POINT
  5
11F3
  8
DEFPOINTS
 62
     0
 10
-42.06438449546226
 20
902.0313601880339
 30
0.0
  0
POINT
  5
11F4
  8
DEFPOINTS
 62
     0
 10
-42.06438449546226
 20
916.5290987605647
 30
0.0
  0
ENDBLK
  5
11EB
  8
0
  0
BLOCK
  8
0
  2
*D200
 70
     1
 10
0.0
 20
0.0
 30
0.0
  3
*D200
  1

  0
LINE
  5
125C
  8
DIMENSIONS
  6
BYBLOCK
 62
     0
 10
-443.5643844954623
 20
153.0313601880339
 30
0.0
 11
-496.0134413336494
 21
153.0313601880339
 31
0.0
  0
LINE
  5
125D
  8
DIMENSIONS
  6
BYBLOCK
 62
     0
 10
-443.5643844954623
 20
1234.531360188034
 30
0.0
 11
-496.0134413336494
 21
1234.531360188034
 31
0.0
  0
LINE
  5
125E
  8
DIMENSIONS
  6
BYBLOCK
 62
     0
 10
-495.8334413336494
 20
158.0313601880339
 30
0.0
 11
-495.8334413336494
 21
1229.531360188034
 31
0.0
  0
SOLID
  5
125F
  8
DIMENSIONS
 62
     0
 10
-496.6667746669827
 20
158.0313601880339
 30
0.0
 11
-495.0001080003161
 21
158.0313601880339
 31
0.0
 12
-495.8334413336494
 22
153.0313601880339
 32
0.0
 13
-495.8334413336494
 23
153.0313601880339
 33
0.0
  0
SOLID
  5
1260
  8
DIMENSIONS
 62
     0
 10
-495.0001080003161
 20
1229.531360188034
 30
0.0
 11
-496.6667746669827
 21
1229.531360188034
 31
0.0
 12
-495.8334413336494
 22
1234.531360188034
 32
0.0
 13
-495.8334413336494
 23
1234.531360188034
 33
0.0
  0
TEXT
  5
1261
  8
DIMENSIONS
  6
CONTINUOUS
 62
     5
 10
-498.2284413336494
 20
671.3188601880339
 30
0.0
 40
5.0
  1
1081.5 [42.58]
 50
90.0
  0
POINT
  5
1262
  8
DEFPOINTS
 62
     0
 10
-442.0643844954623
 20
153.0313601880339
 30
0.0
  0
POINT
  5
1263
  8
DEFPOINTS
 62
     0
 10
-442.0643844954623
 20
1234.531360188034
 30
0.0
  0
POINT
  5
1264
  8
DEFPOINTS
 62
     0
 10
-495.8334413336494
 20
1234.531360188034
 30
0.0
  0
ENDBLK
  5
125B
  8
0
  0
BLOCK
  8
0
  2
*D201
 70
     1
 10
0.0
 20
0.0
 30
0.0
  3
*D201
  1

  0
LINE
  5
126B
  8
DIMENSIONS
  6
BYBLOCK
 62
     0
 10
-478.5643844954623
 20
1268.031360188034
 30
0.0
 11
-516.976148935273
 21
1268.031360188034
 31
0.0
  0
LINE
  5
126C
  8
DIMENSIONS
  6
BYBLOCK
 62
     0
 10
-478.5643844954623
 20
118.0313601880339
 30
0.0
 11
-516.9761489352732
 21
118.0313601880339
 31
0.0
  0
LINE
  5
126D
  8
DIMENSIONS
  6
BYBLOCK
 62
     0
 10
-516.7961489352731
 20
1263.031360188034
 30
0.0
 11
-516.7961489352732
 21
123.0313601880339
 31
0.0
  0
SOLID
  5
126E
  8
DIMENSIONS
 62
     0
 10
-515.9628156019397
 20
1263.031360188034
 30
0.0
 11
-517.6294822686065
 21
1263.031360188034
 31
0.0
 12
-516.7961489352731
 22
1268.031360188034
 32
0.0
 13
-516.7961489352731
 23
1268.031360188034
 33
0.0
  0
SOLID
  5
126F
  8
DIMENSIONS
 62
     0
 10
-517.6294822686066
 20
123.0313601880339
 30
0.0
 11
-515.9628156019398
 21
123.0313601880339
 31
0.0
 12
-516.7961489352732
 22
118.0313601880339
 32
0.0
 13
-516.7961489352732
 23
118.0313601880339
 33
0.0
  0
TEXT
  5
1270
  8
DIMENSIONS
  6
CONTINUOUS
 62
     5
 10
-519.1911489352731
 20
673.4788601880339
 30
0.0
 40
5.0
  1
1150 [45.28]
 50
90.0
  0
POINT
  5
1271
  8
DEFPOINTS
 62
     0
 10
-477.0643844954623
 20
1268.031360188034
 30
0.0
  0
POINT
  5
1272
  8
DEFPOINTS
 62
     0
 10
-477.0643844954623
 20
118.0313601880339
 30
0.0
  0
POINT
  5
1273
  8
DEFPOINTS
 62
     0
 10
-516.7961489352732
 20
118.0313601880339
 30
0.0
  0
ENDBLK
  5
126A
  8
0
  0
BLOCK
  8
0
  2
*D202
 70
     1
 10
0.0
 20
0.0
 30
0.0
  3
*D202
  1

  0
LINE
  5
127A
  8
DIMENSIONS
  6
BYBLOCK
 62
     0
 10
-25.56438449546221
 20
1268.031360188034
 30
0.0
 11
-7.028371364362711
 21
1268.031360188034
 31
0.0
  0
LINE
  5
127B
  8
DIMENSIONS
  6
BYBLOCK
 62
     0
 10
-40.56438449546226
 20
902.0313601880339
 30
0.0
 11
-7.028371364362734
 21
902.0313601880339
 31
0.0
  0
LINE
  5
127C
  8
DIMENSIONS
  6
BYBLOCK
 62
     0
 10
-7.208371364362711
 20
1263.031360188034
 30
0.0
 11
-7.208371364362733
 21
907.0313601880339
 31
0.0
  0
SOLID
  5
127D
  8
DIMENSIONS
 62
     0
 10
-6.375038031029378
 20
1263.031360188034
 30
0.0
 11
-8.041704697696044
 21
1263.031360188034
 31
0.0
 12
-7.208371364362711
 22
1268.031360188034
 32
0.0
 13
-7.208371364362711
 23
1268.031360188034
 33
0.0
  0
SOLID
  5
127E
  8
DIMENSIONS
 62
     0
 10
-8.041704697696067
 20
907.0313601880339
 30
0.0
 11
-6.3750380310294
 21
907.0313601880339
 31
0.0
 12
-7.208371364362733
 22
902.0313601880339
 32
0.0
 13
-7.208371364362733
 23
902.0313601880339
 33
0.0
  0
TEXT
  5
127F
  8
DIMENSIONS
  6
CONTINUOUS
 62
     5
 10
-9.603371364362829
 20
1067.651360188034
 30
0.0
 40
5.0
  1
366 [14.41]
 50
90.0
  0
POINT
  5
1280
  8
DEFPOINTS
 62
     0
 10
-27.06438449546221
 20
1268.031360188034
 30
0.0
  0
POINT
  5
1281
  8
DEFPOINTS
 62
     0
 10
-42.06438449546226
 20
902.0313601880339
 30
0.0
  0
POINT
  5
1282
  8
DEFPOINTS
 62
     0
 10
-7.208371364362733
 20
902.0313601880339
 30
0.0
  0
ENDBLK
  5
1279
  8
0
  0
BLOCK
  8
0
  2
*D203
 70
     1
 10
0.0
 20
0.0
 30
0.0
  3
*D203
  1

  0
LINE
  5
1289
  8
DIMENSIONS
  6
BYBLOCK
 62
     0
 10
-40.56438449546226
 20
902.0313601880339
 30
0.0
 11
-7.028371364362734
 21
902.0313601880339
 31
0.0
  0
LINE
  5
128A
  8
DIMENSIONS
  6
BYBLOCK
 62
     0
 10
-40.56438449546226
 20
762.0313601880339
 30
0.0
 11
-7.028371364362743
 21
762.0313601880339
 31
0.0
  0
LINE
  5
128B
  8
DIMENSIONS
  6
BYBLOCK
 62
     0
 10
-7.208371364362733
 20
897.0313601880339
 30
0.0
 11
-7.208371364362742
 21
767.0313601880339
 31
0.0
  0
SOLID
  5
128C
  8
DIMENSIONS
 62
     0
 10
-6.3750380310294
 20
897.0313601880339
 30
0.0
 11
-8.041704697696067
 21
897.0313601880339
 31
0.0
 12
-7.208371364362733
 22
902.0313601880339
 32
0.0
 13
-7.208371364362733
 23
902.0313601880339
 33
0.0
  0
SOLID
  5
128D
  8
DIMENSIONS
 62
     0
 10
-8.041704697696076
 20
767.0313601880339
 30
0.0
 11
-6.375038031029409
 21
767.0313601880339
 31
0.0
 12
-7.208371364362742
 22
762.0313601880339
 32
0.0
 13
-7.208371364362742
 23
762.0313601880339
 33
0.0
  0
TEXT
  5
128E
  8
DIMENSIONS
  6
CONTINUOUS
 62
     5
 10
-9.603371364362715
 20
816.358860188034
 30
0.0
 40
5.0
  1
140 [5.51]
 50
90.0
  0
POINT
  5
128F
  8
DEFPOINTS
 62
     0
 10
-42.06438449546226
 20
902.0313601880339
 30
0.0
  0
POINT
  5
1290
  8
DEFPOINTS
 62
     0
 10
-42.06438449546226
 20
762.0313601880339
 30
0.0
  0
POINT
  5
1291
  8
DEFPOINTS
 62
     0
 10
-7.208371364362742
 20
762.0313601880339
 30
0.0
  0
ENDBLK
  5
1288
  8
0
  0
BLOCK
  8
0
  2
*D204
 70
     1
 10
0.0
 20
0.0
 30
0.0
  3
*D204
  1

  0
LINE
  5
1298
  8
DIMENSIONS
  6
BYBLOCK
 62
     0
 10
-40.56438449546226
 20
762.0313601880339
 30
0.0
 11
-7.028371364362743
 21
762.0313601880339
 31
0.0
  0
LINE
  5
1299
  8
DIMENSIONS
  6
BYBLOCK
 62
     0
 10
-165.5643844954621
 20
355.0313601880339
 30
0.0
 11
-7.028371364362767
 21
355.0313601880339
 31
0.0
  0
LINE
  5
129A
  8
DIMENSIONS
  6
BYBLOCK
 62
     0
 10
-7.208371364362742
 20
757.0313601880339
 30
0.0
 11
-7.208371364362767
 21
360.0313601880339
 31
0.0
  0
SOLID
  5
129B
  8
DIMENSIONS
 62
     0
 10
-6.375038031029409
 20
757.0313601880339
 30
0.0
 11
-8.041704697696076
 21
757.0313601880339
 31
0.0
 12
-7.208371364362742
 22
762.0313601880339
 32
0.0
 13
-7.208371364362742
 23
762.0313601880339
 33
0.0
  0
SOLID
  5
129C
  8
DIMENSIONS
 62
     0
 10
-8.041704697696101
 20
360.0313601880339
 30
0.0
 11
-6.375038031029434
 21
360.0313601880339
 31
0.0
 12
-7.208371364362767
 22
355.0313601880339
 32
0.0
 13
-7.208371364362767
 23
355.0313601880339
 33
0.0
  0
TEXT
  5
129D
  8
DIMENSIONS
  6
CONTINUOUS
 62
     5
 10
-9.603371364362715
 20
541.2538601880339
 30
0.0
 40
5.0
  1
407 [16.02]
 50
90.0
  0
POINT
  5
129E
  8
DEFPOINTS
 62
     0
 10
-42.06438449546226
 20
762.0313601880339
 30
0.0
  0
POINT
  5
129F
  8
DEFPOINTS
 62
     0
 10
-167.0643844954621
 20
355.0313601880339
 30
0.0
  0
POINT
  5
12A0
  8
DEFPOINTS
 62
     0
 10
-7.208371364362767
 20
355.0313601880339
 30
0.0
  0
ENDBLK
  5
1297
  8
0
  0
BLOCK
  8
0
  2
*D205
 70
     1
 10
0.0
 20
0.0
 30
0.0
  3
*D205
  1

  0
LINE
  5
12A7
  8
DIMENSIONS
  6
BYBLOCK
 62
     0
 10
-165.5643844954621
 20
355.0313601880339
 30
0.0
 11
-7.028371364362767
 21
355.0313601880339
 31
0.0
  0
LINE
  5
12A8
  8
DIMENSIONS
  6
BYBLOCK
 62
     0
 10
-165.5643844954621
 20
155.0313601880339
 30
0.0
 11
-7.02837136436278
 21
155.0313601880339
 31
0.0
  0
LINE
  5
12A9
  8
DIMENSIONS
  6
BYBLOCK
 62
     0
 10
-7.208371364362767
 20
350.0313601880339
 30
0.0
 11
-7.20837136436278
 21
160.0313601880339
 31
0.0
  0
SOLID
  5
12AA
  8
DIMENSIONS
 62
     0
 10
-6.375038031029434
 20
350.0313601880339
 30
0.0
 11
-8.041704697696101
 21
350.0313601880339
 31
0.0
 12
-7.208371364362767
 22
355.0313601880339
 32
0.0
 13
-7.208371364362767
 23
355.0313601880339
 33
0.0
  0
SOLID
  5
12AB
  8
DIMENSIONS
 62
     0
 10
-8.041704697696114
 20
160.0313601880339
 30
0.0
 11
-6.375038031029447
 21
160.0313601880339
 31
0.0
 12
-7.20837136436278
 22
155.0313601880339
 32
0.0
 13
-7.20837136436278
 23
155.0313601880339
 33
0.0
  0
TEXT
  5
12AC
  8
DIMENSIONS
  6
CONTINUOUS
 62
     5
 10
-9.603371364362715
 20
239.6363601880338
 30
0.0
 40
5.0
  1
200 [7.87]
 50
90.0
  0
POINT
  5
12AD
  8
DEFPOINTS
 62
     0
 10
-167.0643844954621
 20
355.0313601880339
 30
0.0
  0
POINT
  5
12AE
  8
DEFPOINTS
 62
     0
 10
-167.0643844954621
 20
155.0313601880339
 30
0.0
  0
POINT
  5
12AF
  8
DEFPOINTS
 62
     0
 10
-7.20837136436278
 20
155.0313601880339
 30
0.0
  0
ENDBLK
  5
12A6
  8
0
  0
BLOCK
  8
0
  2
*D206
 70
     1
 10
0.0
 20
0.0
 30
0.0
  3
*D206
  1

  0
LINE
  5
12B6
  8
DIMENSIONS
  6
BYBLOCK
 62
     0
 10
-165.5643844954621
 20
155.0313601880339
 30
0.0
 11
-7.02837136436278
 21
155.0313601880339
 31
0.0
  0
LINE
  5
12B7
  8
DIMENSIONS
  6
BYBLOCK
 62
     0
 10
-25.56438449546221
 20
118.0313601880339
 30
0.0
 11
-7.028371364362783
 21
118.0313601880339
 31
0.0
  0
LINE
  5
12B8
  8
DIMENSIONS
  6
BYBLOCK
 62
     0
 10
-7.20837136436278
 20
150.0313601880339
 30
0.0
 11
-7.208371364362782
 21
123.0313601880339
 31
0.0
  0
SOLID
  5
12B9
  8
DIMENSIONS
 62
     0
 10
-6.375038031029447
 20
150.0313601880339
 30
0.0
 11
-8.041704697696114
 21
150.0313601880339
 31
0.0
 12
-7.20837136436278
 22
155.0313601880339
 32
0.0
 13
-7.20837136436278
 23
155.0313601880339
 33
0.0
  0
SOLID
  5
12BA
  8
DIMENSIONS
 62
     0
 10
-8.041704697696115
 20
123.0313601880339
 30
0.0
 11
-6.375038031029449
 21
123.0313601880339
 31
0.0
 12
-7.208371364362782
 22
118.0313601880339
 32
0.0
 13
-7.208371364362782
 23
118.0313601880339
 33
0.0
  0
TEXT
  5
12BB
  8
DIMENSIONS
  6
CONTINUOUS
 62
     5
 10
-9.60337136436273
 20
123.0313601880339
 30
0.0
 40
5.0
  1
37 [1.46]
 50
90.0
  0
POINT
  5
12BC
  8
DEFPOINTS
 62
     0
 10
-167.0643844954621
 20
155.0313601880339
 30
0.0
  0
POINT
  5
12BD
  8
DEFPOINTS
 62
     0
 10
-27.06438449546221
 20
118.0313601880339
 30
0.0
  0
POINT
  5
12BE
  8
DEFPOINTS
 62
     0
 10
-7.208371364362782
 20
118.0313601880339
 30
0.0
  0
ENDBLK
  5
12B5
  8
0
  0
BLOCK
  8
0
  2
*D207
 70
     1
 10
0.0
 20
0.0
 30
0.0
  3
*D207
  1

  0
LINE
  5
12C5
  8
DIMENSIONS
  6
BYBLOCK
 62
     0
 10
-367.0643844954622
 20
356.5313601880339
 30
0.0
 11
-367.0643844954622
 21
367.9984377399057
 31
0.0
  0
LINE
  5
12C6
  8
DIMENSIONS
  6
BYBLOCK
 62
     0
 10
-167.0643844954621
 20
356.5313601880339
 30
0.0
 11
-167.0643844954621
 21
367.9984377399057
 31
0.0
  0
LINE
  5
12C7
  8
DIMENSIONS
  6
BYBLOCK
 62
     0
 10
-362.0643844954622
 20
367.8184377399057
 30
0.0
 11
-172.0643844954621
 21
367.8184377399057
 31
0.0
  0
SOLID
  5
12C8
  8
DIMENSIONS
 62
     0
 10
-362.0643844954622
 20
368.651771073239
 30
0.0
 11
-362.0643844954622
 21
366.9851044065724
 31
0.0
 12
-367.0643844954622
 22
367.8184377399057
 32
0.0
 13
-367.0643844954622
 23
367.8184377399057
 33
0.0
  0
SOLID
  5
12C9
  8
DIMENSIONS
 62
     0
 10
-172.0643844954621
 20
366.9851044065724
 30
0.0
 11
-172.0643844954621
 21
368.651771073239
 31
0.0
 12
-167.0643844954621
 22
367.8184377399057
 32
0.0
 13
-167.0643844954621
 23
367.8184377399057
 33
0.0
  0
TEXT
  5
12CA
  8
DIMENSIONS
  6
CONTINUOUS
 62
     5
 10
-282.4593844954621
 20
370.2134377399057
 30
0.0
 40
5.0
  1
200 [7.87]
  0
POINT
  5
12CB
  8
DEFPOINTS
 62
     0
 10
-367.0643844954622
 20
355.0313601880339
 30
0.0
  0
POINT
  5
12CC
  8
DEFPOINTS
 62
     0
 10
-167.0643844954621
 20
355.0313601880339
 30
0.0
  0
POINT
  5
12CD
  8
DEFPOINTS
 62
     0
 10
-167.0643844954621
 20
367.8184377399057
 30
0.0
  0
ENDBLK
  5
12C4
  8
0
  0
BLOCK
  8
0
  2
*D208
 70
     1
 10
0.0
 20
0.0
 30
0.0
  3
*D208
  1

  0
LINE
  5
12D5
  8
DIMENSIONS
  6
BYBLOCK
 62
     0
 10
-367.0643844954622
 20
356.5313601880339
 30
0.0
 11
-367.0643844954622
 21
367.9984377399057
 31
0.0
  0
LINE
  5
12D6
  8
DIMENSIONS
  6
BYBLOCK
 62
     0
 10
-477.0643844954623
 20
356.5313601880339
 30
0.0
 11
-477.0643844954623
 21
367.9984377399057
 31
0.0
  0
LINE
  5
12D7
  8
DIMENSIONS
  6
BYBLOCK
 62
     0
 10
-372.0643844954622
 20
367.8184377399057
 30
0.0
 11
-472.0643844954623
 21
367.8184377399057
 31
0.0
  0
SOLID
  5
12D8
  8
DIMENSIONS
 62
     0
 10
-372.0643844954622
 20
366.9851044065724
 30
0.0
 11
-372.0643844954622
 21
368.651771073239
 31
0.0
 12
-367.0643844954622
 22
367.8184377399057
 32
0.0
 13
-367.0643844954622
 23
367.8184377399057
 33
0.0
  0
SOLID
  5
12D9
  8
DIMENSIONS
 62
     0
 10
-472.0643844954623
 20
368.651771073239
 30
0.0
 11
-472.0643844954623
 21
366.9851044065724
 31
0.0
 12
-477.0643844954623
 22
367.8184377399057
 32
0.0
 13
-477.0643844954623
 23
367.8184377399057
 33
0.0
  0
TEXT
  5
12DA
  8
DIMENSIONS
  6
CONTINUOUS
 62
     5
 10
-437.7368844954623
 20
370.2134377399057
 30
0.0
 40
5.0
  1
110 [4.33]
  0
POINT
  5
12DB
  8
DEFPOINTS
 62
     0
 10
-367.0643844954622
 20
355.0313601880339
 30
0.0
  0
POINT
  5
12DC
  8
DEFPOINTS
 62
     0
 10
-477.0643844954623
 20
355.0313601880339
 30
0.0
  0
POINT
  5
12DD
  8
DEFPOINTS
 62
     0
 10
-477.0643844954623
 20
367.8184377399057
 30
0.0
  0
ENDBLK
  5
12D4
  8
0
  0
BLOCK
  8
0
  2
*D209
 70
     1
 10
0.0
 20
0.0
 30
0.0
  3
*D209
  1

  0
LINE
  5
12E4
  8
DIMENSIONS
  6
BYBLOCK
 62
     0
 10
-167.0643844954621
 20
356.5313601880339
 30
0.0
 11
-167.0643844954621
 21
367.9938547994585
 31
0.0
  0
LINE
  5
12E5
  8
DIMENSIONS
  6
BYBLOCK
 62
     0
 10
-27.06438449546221
 20
356.5313601880339
 30
0.0
 11
-27.06438449546221
 21
367.9938547994585
 31
0.0
  0
LINE
  5
12E6
  8
DIMENSIONS
  6
BYBLOCK
 62
     0
 10
-162.0643844954621
 20
367.8138547994585
 30
0.0
 11
-32.06438449546221
 21
367.8138547994585
 31
0.0
  0
SOLID
  5
12E7
  8
DIMENSIONS
 62
     0
 10
-162.0643844954621
 20
368.6471881327918
 30
0.0
 11
-162.0643844954621
 21
366.9805214661252
 31
0.0
 12
-167.0643844954621
 22
367.8138547994585
 32
0.0
 13
-167.0643844954621
 23
367.8138547994585
 33
0.0
  0
SOLID
  5
12E8
  8
DIMENSIONS
 62
     0
 10
-32.06438449546221
 20
366.9805214661252
 30
0.0
 11
-32.06438449546221
 21
368.6471881327918
 31
0.0
 12
-27.06438449546221
 22
367.8138547994585
 32
0.0
 13
-27.06438449546221
 23
367.8138547994585
 33
0.0
  0
TEXT
  5
12E9
  8
DIMENSIONS
  6
CONTINUOUS
 62
     5
 10
-112.7368844954622
 20
370.2088547994585
 30
0.0
 40
5.0
  1
140 [5.51]
  0
POINT
  5
12EA
  8
DEFPOINTS
 62
     0
 10
-167.0643844954621
 20
355.0313601880339
 30
0.0
  0
POINT
  5
12EB
  8
DEFPOINTS
 62
     0
 10
-27.06438449546221
 20
355.0313601880339
 30
0.0
  0
POINT
  5
12EC
  8
DEFPOINTS
 62
     0
 10
-27.06438449546221
 20
367.8138547994585
 30
0.0
  0
ENDBLK
  5
12E3
  8
0
  0
BLOCK
  8
0
  2
*D210
 70
     1
 10
0.0
 20
0.0
 30
0.0
  3
*D210
  1

  0
LINE
  5
12F3
  8
DIMENSIONS
  6
BYBLOCK
 62
     0
 10
-443.5643844954623
 20
1233.031360188034
 30
0.0
 11
-496.5987893740061
 21
1233.031360188034
 31
0.0
  0
LINE
  5
12F4
  8
DIMENSIONS
  6
BYBLOCK
 62
     0
 10
-443.5643844954623
 20
153.0313601880339
 30
0.0
 11
-496.5987893740061
 21
153.0313601880339
 31
0.0
  0
LINE
  5
12F5
  8
DIMENSIONS
  6
BYBLOCK
 62
     0
 10
-496.4187893740061
 20
1228.031360188034
 30
0.0
 11
-496.4187893740061
 21
158.0313601880339
 31
0.0
  0
SOLID
  5
12F6
  8
DIMENSIONS
 62
     0
 10
-495.5854560406727
 20
1228.031360188034
 30
0.0
 11
-497.2521227073394
 21
1228.031360188034
 31
0.0
 12
-496.4187893740061
 22
1233.031360188034
 32
0.0
 13
-496.4187893740061
 23
1233.031360188034
 33
0.0
  0
SOLID
  5
12F7
  8
DIMENSIONS
 62
     0
 10
-497.2521227073394
 20
158.0313601880339
 30
0.0
 11
-495.5854560406728
 21
158.0313601880339
 31
0.0
 12
-496.4187893740061
 22
153.0313601880339
 32
0.0
 13
-496.4187893740061
 23
153.0313601880339
 33
0.0
  0
TEXT
  5
12F8
  8
DIMENSIONS
  6
CONTINUOUS
 62
     5
 10
-498.8137893740061
 20
673.4788601880338
 30
0.0
 40
5.0
  1
1080 [42.52]
 50
90.0
  0
POINT
  5
12F9
  8
DEFPOINTS
 62
     0
 10
-442.0643844954623
 20
1233.031360188034
 30
0.0
  0
POINT
  5
12FA
  8
DEFPOINTS
 62
     0
 10
-442.0643844954623
 20
153.0313601880339
 30
0.0
  0
POINT
  5
12FB
  8
DEFPOINTS
 62
     0
 10
-496.4187893740061
 20
153.0313601880339
 30
0.0
  0
ENDBLK
  5
12F2
  8
0
  0
ENDSEC
  0
SECTION
  2
ENTITIES
  0
TEXT
  5
698
  8
DIMENSIONS
  6
BYBLOCK
 10
-470.5492953832685
 20
103.9770169431404
 30
0.0
 40
5.0
  1
Note:
  0
TEXT
  5
699
  8
DIMENSIONS
  6
BYBLOCK
 10
-470.415369342983
 20
93.4480490951473
 30
0.0
 40
5.0
  1
Primary dimensions in millimeters.
  0
TEXT
  5
69A
  8
DIMENSIONS
  6
BYBLOCK
 10
-470.1939554065929
 20
82.87602348636322
 30
0.0
 40
5.0
  1
Secondary dimensions in inches.
  0
POLYLINE
  5
11C0
  8
0
 66
     1
 10
0.0
 20
0.0
 30
0.0
 70
     1
  0
VERTEX
  5
1316
  8
0
 10
-477.0643844954623
 20
118.0313601880339
 30
0.0
  0
VERTEX
  5
1317
  8
0
 10
-477.0643844954623
 20
1268.031360188034
 30
0.0
  0
VERTEX
  5
1318
  8
0
 10
-27.06438449546221
 20
1268.031360188034
 30
0.0
  0
VERTEX
  5
1319
  8
0
 10
-27.06438449546221
 20
118.0313601880339
 30
0.0
  0
SEQEND
  5
1326
  8
0
  0
CIRCLE
  5
11C1
  8
0
 10
-442.0643844954623
 20
153.0313601880339
 30
0.0
 40
4.75
  0
CIRCLE
  5
11C2
  8
0
 10
-62.06438449546221
 20
153.0313601880339
 30
0.0
 40
4.75
  0
CIRCLE
  5
11C3
  8
0
 10
-62.06438449546221
 20
1233.031360188034
 30
0.0
 40
4.75
  0
CIRCLE
  5
11C4
  8
0
 10
-442.0643844954623
 20
1233.031360188034
 30
0.0
 40
4.75
  0
POLYLINE
  5
11C5
  8
0
 66
     1
 10
0.0
 20
0.0
 30
0.0
 70
     1
  0
VERTEX
  5
131A
  8
0
 10
-367.0643844954622
 20
155.0313601880339
 30
0.0
  0
VERTEX
  5
131B
  8
0
 10
-367.0643844954622
 20
355.0313601880339
 30
0.0
  0
VERTEX
  5
131C
  8
0
 10
-167.0643844954621
 20
355.0313601880339
 30
0.0
  0
VERTEX
  5
131D
  8
0
 10
-167.0643844954621
 20
155.0313601880339
 30
0.0
  0
SEQEND
  5
1327
  8
0
  0
POLYLINE
  5
11C6
  8
0
 66
     1
 10
0.0
 20
0.0
 30
0.0
 70
     1
  0
VERTEX
  5
131E
  8
0
 10
-42.06438449546226
 20
902.0313601880339
 30
0.0
  0
VERTEX
  5
131F
  8
0
 10
-42.06438449546226
 20
762.0313601880339
 30
0.0
  0
VERTEX
  5
1320
  8
0
 10
-462.0643844954623
 20
762.0313601880339
 30
0.0
  0
VERTEX
  5
1321
  8
0
 10
-462.0643844954623
 20
902.0313601880339
 30
0.0
  0
SEQEND
  5
1328
  8
0
  0
INSERT
  5
11C7
  8
0
  2
*X191
 10
-477.0643844954623
 20
118.0313601880339
 30
0.0
  0
DIMENSION
  5
11C8
  8
DIMENSIONS
  6
BYBLOCK
  2
*D192
 10
-62.06438449546221
 20
1282.370050535765
 30
0.0
 11
-252.0643844954622
 21
1286.572550535765
 31
0.0
 70
    32
  3
DUAL-DIM
 13
-442.0643844954623
 23
1233.031360188034
 33
0.0
 14
-62.06438449546221
 24
1233.031360188034
 34
0.0
1001
ACAD
1000
DSTYLE
1002
{
1070
   287
1070
     5
1070
   279
1070
     2
1002
}
  0
DIMENSION
  5
11D7
  8
DIMENSIONS
  6
BYBLOCK
  2
*D193
 10
-477.0643844954623
 20
1297.930407948275
 30
0.0
 11
-252.0643844954622
 21
1302.132907948275
 31
0.0
 70
    32
  3
DUAL-DIM
 13
-27.06438449546221
 23
1268.031360188034
 33
0.0
 14
-477.0643844954623
 24
1268.031360188034
 34
0.0
1001
ACAD
1000
DSTYLE
1002
{
1070
   287
1070
     5
1070
   279
1070
     2
1002
}
  0
DIMENSION
  5
11E6
  8
DIMENSIONS
  6
BYBLOCK
  2
*D194
 10
-42.06438449546226
 20
916.5290987605647
 30
0.0
 11
-252.0643844954623
 21
920.7315987605647
 31
0.0
 70
    32
  3
DUAL-DIM
 13
-462.0643844954623
 23
902.0313601880339
 33
0.0
 14
-42.06438449546226
 24
902.0313601880339
 34
0.0
1001
ACAD
1000
DSTYLE
1002
{
1070
   287
1070
     5
1070
   279
1070
     2
1002
}
  0
DIMENSION
  5
1265
  8
DIMENSIONS
  6
BYBLOCK
  2
*D201
 10
-516.7961489352732
 20
118.0313601880339
 30
0.0
 11
-520.9986489352731
 21
693.0313601880339
 31
0.0
 70
    32
  3
DUAL-DIM
 13
-477.0643844954623
 23
1268.031360188034
 33
0.0
 14
-477.0643844954623
 24
118.0313601880339
 34
0.0
 50
90.0
1001
ACAD
1000
DSTYLE
1002
{
1070
   287
1070
     5
1070
   279
1070
     2
1002
}
  0
DIMENSION
  5
1274
  8
DIMENSIONS
  6
BYBLOCK
  2
*D202
 10
-7.208371364362733
 20
902.0313601880339
 30
0.0
 11
-11.41087136436282
 21
1085.031360188034
 31
0.0
 70
    32
  3
DUAL-DIM
 13
-27.06438449546221
 23
1268.031360188034
 33
0.0
 14
-42.06438449546226
 24
902.0313601880339
 34
0.0
 50
90.0
1001
ACAD
1000
DSTYLE
1002
{
1070
   287
1070
     5
1070
   279
1070
     2
1002
}
  0
DIMENSION
  5
1283
  8
DIMENSIONS
  6
BYBLOCK
  2
*D203
 10
-7.208371364362742
 20
762.0313601880339
 30
0.0
 11
-11.41087136436272
 21
832.0313601880339
 31
0.0
 70
    32
  3
DUAL-DIM
 13
-42.06438449546226
 23
902.0313601880339
 33
0.0
 14
-42.06438449546226
 24
762.0313601880339
 34
0.0
 50
90.0
1001
ACAD
1000
DSTYLE
1002
{
1070
   287
1070
     5
1070
   279
1070
     2
1002
}
  0
DIMENSION
  5
1292
  8
DIMENSIONS
  6
BYBLOCK
  2
*D204
 10
-7.208371364362767
 20
355.0313601880339
 30
0.0
 11
-11.41087136436274
 21
558.5313601880339
 31
0.0
 70
    32
  3
DUAL-DIM
 13
-42.06438449546226
 23
762.0313601880339
 33
0.0
 14
-167.0643844954621
 24
355.0313601880339
 34
0.0
 50
90.0
1001
ACAD
1000
DSTYLE
1002
{
1070
   287
1070
     5
1070
   279
1070
     2
1002
}
  0
DIMENSION
  5
12A1
  8
DIMENSIONS
  6
BYBLOCK
  2
*D205
 10
-7.20837136436278
 20
155.0313601880339
 30
0.0
 11
-11.41087136436276
 21
255.0313601880339
 31
0.0
 70
    32
  3
DUAL-DIM
 13
-167.0643844954621
 23
355.0313601880339
 33
0.0
 14
-167.0643844954621
 24
155.0313601880339
 34
0.0
 50
90.0
1001
ACAD
1000
DSTYLE
1002
{
1070
   287
1070
     5
1070
   279
1070
     2
1002
}
  0
DIMENSION
  5
12B0
  8
DIMENSIONS
  6
BYBLOCK
  2
*D206
 10
-7.208371364362782
 20
118.0313601880339
 30
0.0
 11
-11.41087136436277
 21
136.5313601880339
 31
0.0
 70
    32
  3
DUAL-DIM
 13
-167.0643844954621
 23
155.0313601880339
 33
0.0
 14
-27.06438449546221
 24
118.0313601880339
 34
0.0
 50
90.0
1001
ACAD
1000
DSTYLE
1002
{
1070
   287
1070
     5
1070
   279
1070
     2
1002
}
  0
DIMENSION
  5
12BF
  8
DIMENSIONS
  6
BYBLOCK
  2
*D207
 10
-167.0643844954621
 20
367.8184377399057
 30
0.0
 11
-267.0643844954621
 21
372.0209377399057
 31
0.0
 70
    32
  3
DUAL-DIM
 13
-367.0643844954622
 23
355.0313601880339
 33
0.0
 14
-167.0643844954621
 24
355.0313601880339
 34
0.0
1001
ACAD
1000
DSTYLE
1002
{
1070
   287
1070
     5
1070
   279
1070
     2
1002
}
  0
POLYLINE
  5
12CE
  8
0
  6
BYBLOCK
 66
     1
 10
0.0
 20
0.0
 30
0.0
 70
     1
  0
VERTEX
  5
1322
  8
0
  6
BYBLOCK
 10
-559.0501153634157
 20
75.44938664180347
 30
0.0
  0
VERTEX
  5
1323
  8
0
  6
BYBLOCK
 10
-559.0501153634157
 20
1339.319312443795
 30
0.0
  0
VERTEX
  5
1324
  8
0
  6
BYBLOCK
 10
29.7817691431768
 20
1339.319312443795
 30
0.0
  0
VERTEX
  5
1325
  8
0
  6
BYBLOCK
 10
29.7817691431768
 20
75.44938664180347
 30
0.0
  0
SEQEND
  5
1329
  8
0
  6
BYBLOCK
  0
DIMENSION
  5
12CF
  8
DIMENSIONS
  6
BYBLOCK
  2
*D208
 10
-477.0643844954623
 20
367.8184377399057
 30
0.0
 11
-422.0643844954623
 21
372.0209377399057
 31
0.0
 70
    32
  3
DUAL-DIM
 13
-367.0643844954622
 23
355.0313601880339
 33
0.0
 14
-477.0643844954623
 24
355.0313601880339
 34
0.0
1001
ACAD
1000
DSTYLE
1002
{
1070
   287
1070
     5
1070
   279
1070
     2
1002
}
  0
DIMENSION
  5
12ED
  8
DIMENSIONS
  6
BYBLOCK
  2
*D210
 10
-496.4187893740061
 20
153.0313601880339
 30
0.0
 11
-500.6212893740061
 21
693.0313601880339
 31
0.0
 70
    32
  3
DUAL-DIM
 13
-442.0643844954623
 23
1233.031360188034
 33
0.0
 14
-442.0643844954623
 24
153.0313601880339
 34
0.0
 50
90.0
1001
ACAD
1000
DSTYLE
1002
{
1070
   287
1070
     5
1070
   279
1070
     2
1002
}
  0
VIEWPORT
  5
B1C
 67
     1
  8
0
 10
5.25
 20
3.5
 30
0.0
 40
12.6
 41
8.4
 68
     1
 69
     1
1001
ACAD
1000
MVIEW
1002
{
1070
    16
1010
0.0
1020
0.0
1030
0.0
1010
0.0
1020
0.0
1030
1.0
1040
0.0
1040
8.4
1040
5.25
1040
3.5
1040
50.0
1040
0.0
1040
0.0
1070
     0
1070
   100
1070
     0
1070
     3
1070
     0
1070
     0
1070
     0
1070
     0
1040
0.0
1040
0.0
1040
0.0
1040
0.5
1040
0.5
1040
0.0
1040
0.0
1070
     0
1002
{
1002
}
1002
}
  0
VIEWPORT
  5
B1D
 67
     1
  8
0
 10
5.25
 20
3.5
 30
0.0
 40
8.4
 41
5.600000000000001
 68
     2
 69
     2
1001
ACAD
1000
MVIEW
1002
{
1070
    16
1010
0.0
1020
0.0
1030
0.0
1010
0.0
1020
0.0
1030
1.0
1040
0.0
1040
278.6419840998563
1040
207.1268606538857
1040
36.27547653054833
1040
50.0
1040
0.0
1040
0.0
1070
     0
1070
   100
1070
     0
1070
     3
1070
     0
1070
     0
1070
     0
1070
     0
1040
0.0
1040
0.0
1040
0.0
1040
0.5
1040
0.5
1040
0.0
1040
0.0
1070
     0
1002
{
1002
}
1002
}
  0
ENDSEC
  0
EOF
