  0
SECTION
  2
HEADER
  9
$ACADVER
  1
AC1009
  9
$DWGCODEPAGE
  3
ansi_1252
  9
$INSBASE
 10
0.0
 20
0.0
 30
0.0
  9
$EXTMIN
 10
16.24313518113047
 20
-109.4607392704125
 30
0.0
  9
$EXTMAX
 10
481.4888364121843
 20
335.871721830129
 30
0.0
  9
$LIMMIN
 10
0.0
 20
0.0
  9
$LIMMAX
 10
594.0
 20
420.0
  9
$ORTHOMODE
 70
     0
  9
$REGENMODE
 70
     1
  9
$FILLMODE
 70
     1
  9
$QTEXTMODE
 70
     0
  9
$MIRRTEXT
 70
     1
  9
$DRAGMODE
 70
     2
  9
$LTSCALE
 40
32.67
  9
$OSMODE
 70
   511
  9
$ATTMODE
 70
     1
  9
$TEXTSIZE
 40
0.2
  9
$TRACEWID
 40
0.05
  9
$TEXTSTYLE
  7
STANDARD
  9
$CLAYER
  8
DIMENSIONS
  9
$CELTYPE
  6
BYBLOCK
  9
$CECOLOR
 62
   256
  9
$DIMSCALE
 40
1.0
  9
$DIMASZ
 40
5.0
  9
$DIMEXO
 40
1.5
  9
$DIMDLI
 40
1.0
  9
$DIMRND
 40
0.0
  9
$DIMDLE
 40
0.0
  9
$DIMEXE
 40
0.18
  9
$DIMTP
 40
0.0
  9
$DIMTM
 40
0.0
  9
$DIMTXT
 40
5.0
  9
$DIMCEN
 40
2.5
  9
$DIMTSZ
 40
0.0
  9
$DIMTOL
 70
     0
  9
$DIMLIM
 70
     0
  9
$DIMTIH
 70
     0
  9
$DIMTOH
 70
     0
  9
$DIMSE1
 70
     0
  9
$DIMSE2
 70
     0
  9
$DIMTAD
 70
     1
  9
$DIMZIN
 70
     8
  9
$DIMBLK
  1

  9
$DIMASO
 70
     1
  9
$DIMSHO
 70
     1
  9
$DIMPOST
  1

  9
$DIMAPOST
  1

  9
$DIMALT
 70
     1
  9
$DIMALTD
 70
     2
  9
$DIMALTF
 40
0.03937
  9
$DIMLFAC
 40
1.0
  9
$DIMTOFL
 70
     0
  9
$DIMTVP
 40
0.0
  9
$DIMTIX
 70
     0
  9
$DIMSOXD
 70
     0
  9
$DIMSAH
 70
     0
  9
$DIMBLK1
  1

  9
$DIMBLK2
  1

  9
$DIMSTYLE
  2
DUAL-DIM
  9
$DIMCLRD
 70
     0
  9
$DIMCLRE
 70
     0
  9
$DIMCLRT
 70
     5
  9
$DIMTFAC
 40
1.0
  9
$DIMGAP
 40
1.0
  9
$LUNITS
 70
     2
  9
$LUPREC
 70
     4
  9
$SKETCHINC
 40
0.1
  9
$FILLETRAD
 40
15.0
  9
$AUNITS
 70
     0
  9
$AUPREC
 70
     0
  9
$MENU
  1
.
  9
$ELEVATION
 40
0.0
  9
$PELEVATION
 40
0.0
  9
$THICKNESS
 40
0.0
  9
$LIMCHECK
 70
     0
  9
$CHAMFERA
 40
0.0
  9
$CHAMFERB
 40
0.0
  9
$SKPOLY
 70
     0
  9
$TDCREATE
 40
2457428.354677859
  9
$TDUPDATE
 40
2457431.412563044
  9
$TDINDWG
 40
0.0437275231
  9
$TDUSRTIMER
 40
2457431.370108044
  9
$USRTIMER
 70
     1
  9
$ANGBASE
 50
0.0
  9
$ANGDIR
 70
     0
  9
$PDMODE
 70
     3
  9
$PDSIZE
 40
0.3125
  9
$PLINEWID
 40
0.0
  9
$COORDS
 70
     1
  9
$SPLFRAME
 70
     0
  9
$SPLINETYPE
 70
     6
  9
$SPLINESEGS
 70
     8
  9
$ATTDIA
 70
     0
  9
$ATTREQ
 70
     1
  9
$HANDLING
 70
     1
  9
$HANDSEED
  5
DDF
  9
$SURFTAB1
 70
     6
  9
$SURFTAB2
 70
     6
  9
$SURFTYPE
 70
     6
  9
$SURFU
 70
     6
  9
$SURFV
 70
     6
  9
$UCSNAME
  2

  9
$UCSORG
 10
0.0
 20
0.0
 30
0.0
  9
$UCSXDIR
 10
1.0
 20
0.0
 30
0.0
  9
$UCSYDIR
 10
0.0
 20
1.0
 30
0.0
  9
$PUCSNAME
  2

  9
$PUCSORG
 10
0.0
 20
0.0
 30
0.0
  9
$PUCSXDIR
 10
1.0
 20
0.0
 30
0.0
  9
$PUCSYDIR
 10
0.0
 20
1.0
 30
0.0
  9
$USERI1
 70
     0
  9
$USERI2
 70
     0
  9
$USERI3
 70
     0
  9
$USERI4
 70
     0
  9
$USERI5
 70
     0
  9
$USERR1
 40
0.0
  9
$USERR2
 40
0.0
  9
$USERR3
 40
0.0
  9
$USERR4
 40
0.0
  9
$USERR5
 40
0.0
  9
$WORLDVIEW
 70
     1
  9
$SHADEDGE
 70
     3
  9
$SHADEDIF
 70
    70
  9
$TILEMODE
 70
     1
  9
$MAXACTVP
 70
    64
  9
$PLIMCHECK
 70
     0
  9
$PEXTMIN
 10
1.000000000000000E+20
 20
1.000000000000000E+20
 30
1.000000000000000E+20
  9
$PEXTMAX
 10
-1.000000000000000E+20
 20
-1.000000000000000E+20
 30
-1.000000000000000E+20
  9
$PLIMMIN
 10
0.0
 20
0.0
  9
$PLIMMAX
 10
0.0
 20
0.0
  9
$UNITMODE
 70
     0
  9
$VISRETAIN
 70
     1
  9
$PLINEGEN
 70
     0
  9
$PSLTSCALE
 70
     1
  0
ENDSEC
  0
SECTION
  2
TABLES
  0
TABLE
  2
VPORT
 70
     1
  0
VPORT
  2
*ACTIVE
 70
     0
 10
0.0
 20
0.0
 11
1.0
 21
1.0
 12
825.4448023028466
 22
184.7121262939697
 13
0.0
 23
0.0
 14
0.5
 24
0.5
 15
0.5
 25
0.5
 16
0.0
 26
0.0
 36
1.0
 17
0.0
 27
0.0
 37
0.0
 40
845.4075582681016
 41
2.792291220556745
 42
50.0
 43
0.0
 44
0.0
 50
0.0
 51
0.0
 71
    16
 72
   100
 73
     1
 74
     3
 75
     0
 76
     0
 77
     0
 78
     0
  0
ENDTAB
  0
TABLE
  2
LTYPE
 70
     6
  0
LTYPE
  2
CONTINUOUS
 70
     0
  3
Solid line
 72
    65
 73
     0
 40
0.0
  0
LTYPE
  2
CENTER
 70
     0
  3
____ _ ____ _ ____ _ ____ _ ____ _ ____ _ ____
 72
    65
 73
     4
 40
0.6
 49
0.375
 49
-0.075
 49
0.075
 49
-0.075
  0
LTYPE
  2
HIDDEN
 70
     0
  3
- - - - - - - - - - - - - - - - - - - -
 72
    65
 73
     2
 40
0.2
 49
0.1
 49
-0.1
  0
LTYPE
  2
PHANTOM
 70
     0
  3
_____ _ _ _____ _ _ _____ _ _ _____
 72
    65
 73
     6
 40
0.8
 49
0.45
 49
-0.05
 49
0.1
 49
-0.05
 49
0.1
 49
-0.05
  0
LTYPE
  2
DOT
 70
     0
  3
. . . . . . . . . . . . . . . . . . . .
 72
    65
 73
     2
 40
0.2
 49
0.1
 49
-0.1
  0
LTYPE
  2
DASHED
 70
     0
  3
- - - - - - - - - - - - - - - - - - - -
 72
    65
 73
     2
 40
0.2
 49
0.1
 49
-0.1
  0
ENDTAB
  0
TABLE
  2
LAYER
 70
    15
  0
LAYER
  2
0
 70
     0
 62
     7
  6
CONTINUOUS
  0
LAYER
  2
DEFAULT_1
 70
     0
 62
     7
  6
CENTER
  0
LAYER
  2
DEFAULT_2
 70
     0
 62
     8
  6
HIDDEN
  0
LAYER
  2
DEFAULT_3
 70
     0
 62
     7
  6
PHANTOM
  0
LAYER
  2
01___PRT_ALL_DTM_PLN
 70
     0
 62
     7
  6
CONTINUOUS
  0
LAYER
  2
01___PRT_DEF_DTM_PLN
 70
     0
 62
     7
  6
CONTINUOUS
  0
LAYER
  2
02___PRT_ALL_AXES
 70
     0
 62
     7
  6
CONTINUOUS
  0
LAYER
  2
03___PRT_ALL_CURVES
 70
     0
 62
     7
  6
CONTINUOUS
  0
LAYER
  2
04___PRT_ALL_DTM_PNT
 70
     0
 62
     7
  6
CONTINUOUS
  0
LAYER
  2
05___PRT_ALL_DTM_CSYS
 70
     0
 62
     7
  6
CONTINUOUS
  0
LAYER
  2
05___PRT_DEF_DTM_CSYS
 70
     0
 62
     7
  6
CONTINUOUS
  0
LAYER
  2
06___PRT_ALL_SURFS
 70
     0
 62
     7
  6
CONTINUOUS
  0
LAYER
  2
DEFPOINTS
 70
     0
 62
     7
  6
CONTINUOUS
  0
LAYER
  2
DIMENSIONS
 70
     0
 62
     2
  6
CONTINUOUS
  0
LAYER
  2
AM_5
 70
     0
 62
     3
  6
CONTINUOUS
  0
ENDTAB
  0
TABLE
  2
STYLE
 70
     2
  0
STYLE
  2
STANDARD
 70
     0
 40
0.0
 41
1.0
 50
0.0
 71
     0
 42
0.2
  3
arial.ttf
  4

  0
STYLE
  2
TEXTSTYLE_1
 70
     0
 40
0.0
 41
0.8
 50
0.0
 71
     0
 42
0.2
  3
gdt
  4

  0
ENDTAB
  0
TABLE
  2
VIEW
 70
     0
  0
ENDTAB
  0
TABLE
  2
UCS
 70
     0
  0
ENDTAB
  0
TABLE
  2
APPID
 70
    10
  0
APPID
  2
ACAD
 70
     0
  0
APPID
  2
ACAECLAYERSTANDARD
 70
     0
  0
APPID
  2
ACAD_DSTYLE_DIMRADIAL_EXTE
 70
     0
  0
APPID
  2
ACAD_DSTYLE_DIMJOGGED_JOGA
 70
     0
  0
APPID
  2
ACAD_DSTYLE_DIMJAG
 70
     0
  0
APPID
  2
ACAD_DSTYLE_DIMBREAK
 70
     0
  0
APPID
  2
ACAD_PSEXT
 70
     0
  0
APPID
  2
ACAD_DSTYLE_DIMINSPECT
 70
     0
  0
APPID
  2
ACAD_DSTYLE_DIMRADIAL_EXT0
 70
     0
  0
APPID
  2
ACAD_DSTYLE_DIMJOGGED_JOG0
 70
     0
  0
ENDTAB
  0
TABLE
  2
DIMSTYLE
 70
     5
  0
DIMSTYLE
  2
STANDARD
 70
     0
  3

  4

  5

  6

  7

 40
1.0
 41
0.18
 42
0.0625
 43
0.38
 44
0.18
 45
0.0
 46
0.0
 47
0.0
 48
0.0
140
0.18
141
0.09
142
0.0
143
25.4
144
1.0
145
0.0
146
1.0
147
0.09
 71
     0
 72
     0
 73
     1
 74
     1
 75
     0
 76
     0
 77
     0
 78
     0
170
     0
171
     2
172
     0
173
     0
174
     0
175
     0
176
     0
177
     0
178
     0
  0
DIMSTYLE
  2
DUAL-DIM
 70
     0
  3

  4

  5

  6

  7

 40
1.0
 41
5.0
 42
1.5
 43
1.0
 44
0.18
 45
0.0
 46
0.0
 47
0.0
 48
0.0
140
5.0
141
2.5
142
0.0
143
0.03937
144
1.0
145
0.0
146
1.0
147
1.0
 71
     0
 72
     0
 73
     0
 74
     0
 75
     0
 76
     0
 77
     1
 78
     8
170
     1
171
     2
172
     0
173
     0
174
     0
175
     0
176
     0
177
     0
178
     5
  0
DIMSTYLE
  2
AM_ISO
 70
     0
  3

  4
"
  5

  6

  7

 40
1.0
 41
3.5
 42
1.0
 43
10.0
 44
1.0
 45
0.0
 46
0.0
 47
0.1
 48
0.1
140
3.5
141
0.0
142
0.0
143
0.0393701
144
1.0
145
0.0
146
0.71
147
1.5
 71
     0
 72
     0
 73
     0
 74
     0
 75
     0
 76
     0
 77
     1
 78
     8
170
     0
171
     2
172
     1
173
     0
174
     0
175
     0
176
   256
177
   256
178
     2
  0
DIMSTYLE
  2
AM_ISO$3
 70
     0
  3

  4
"
  5

  6

  7

 40
1.0
 41
3.5
 42
1.0
 43
10.0
 44
1.0
 45
0.0
 46
0.0
 47
0.1
 48
0.1
140
3.5
141
0.0
142
0.0
143
0.0393701
144
1.0
145
0.0
146
0.71
147
1.5
 71
     0
 72
     0
 73
     0
 74
     1
 75
     0
 76
     0
 77
     1
 78
     8
170
     0
171
     2
172
     0
173
     0
174
     0
175
     0
176
   256
177
   256
178
     2
  0
DIMSTYLE
  2
AM_ISO$0
 70
     0
  3

  4
"
  5

  6

  7

 40
1.0
 41
3.5
 42
1.0
 43
10.0
 44
1.0
 45
0.0
 46
0.0
 47
0.1
 48
0.1
140
3.5
141
0.0
142
0.0
143
0.0393701
144
1.0
145
0.0
146
0.71
147
1.5
 71
     0
 72
     0
 73
     0
 74
     0
 75
     0
 76
     0
 77
     1
 78
     8
170
     0
171
     2
172
     1
173
     0
174
     0
175
     0
176
   256
177
   256
178
     2
  0
ENDTAB
  0
ENDSEC
  0
SECTION
  2
BLOCKS
  0
BLOCK
  8
0
  2
$MODEL_SPACE
 70
     0
 10
0.0
 20
0.0
 30
0.0
  3
$MODEL_SPACE
  1

  0
ENDBLK
  5
110
  8
0
  0
BLOCK
 67
     1
  8
0
  2
$PAPER_SPACE
 70
     0
 10
0.0
 20
0.0
 30
0.0
  3
$PAPER_SPACE
  1

  0
ENDBLK
  5
112
 67
     1
  8
0
  0
BLOCK
  8
0
  2
_FILLED
 70
     0
 10
0.0
 20
0.0
 30
0.0
  3
_FILLED
  1

  0
SOLID
  5
3D
  8
0
  6
BYBLOCK
 62
     0
 10
0.0
 20
0.0
 30
0.0
 11
-1.0
 21
0.2
 31
0.0
 12
-1.0
 22
-0.2
 32
0.0
 13
-1.0
 23
-0.2
 33
0.0
  0
ENDBLK
  5
3E
  8
0
  6
BYBLOCK
 62
     0
  0
BLOCK
  8
0
  2
*D149
 70
     1
 10
0.0
 20
0.0
 30
0.0
  3
*D149
  1

  0
LINE
  5
D33
  8
DIMENSIONS
  6
BYBLOCK
 62
     0
 10
144.2831013431949
 20
230.9690674582473
 30
0.0
 11
144.2831013431949
 21
265.8112060225714
 31
0.0
  0
LINE
  5
D34
  8
DIMENSIONS
  6
BYBLOCK
 62
     0
 10
414.2831013431948
 20
230.9690674582473
 30
0.0
 11
414.2831013431948
 21
265.8112060225714
 31
0.0
  0
LINE
  5
D35
  8
DIMENSIONS
  6
BYBLOCK
 62
     0
 10
149.2831013431949
 20
265.6312060225714
 30
0.0
 11
409.2831013431948
 21
265.6312060225714
 31
0.0
  0
SOLID
  5
D36
  8
DIMENSIONS
 62
     0
 10
149.2831013431949
 20
266.4645393559047
 30
0.0
 11
149.2831013431949
 21
264.7978726892381
 31
0.0
 12
144.2831013431949
 22
265.6312060225714
 32
0.0
 13
144.2831013431949
 23
265.6312060225714
 33
0.0
  0
SOLID
  5
D37
  8
DIMENSIONS
 62
     0
 10
409.2831013431948
 20
264.7978726892381
 30
0.0
 11
409.2831013431948
 21
266.4645393559047
 31
0.0
 12
414.2831013431948
 22
265.6312060225714
 32
0.0
 13
414.2831013431948
 23
265.6312060225714
 33
0.0
  0
TEXT
  5
D38
  8
DIMENSIONS
  6
CONTINUOUS
 62
     5
 10
261.9481013431949
 20
268.0262060225714
 30
0.0
 40
5.0
  1
270 [10.63]
  0
POINT
  5
D39
  8
DEFPOINTS
 62
     0
 10
144.2831013431949
 20
229.4690674582473
 30
0.0
  0
POINT
  5
D3A
  8
DEFPOINTS
 62
     0
 10
414.2831013431948
 20
229.4690674582473
 30
0.0
  0
POINT
  5
D3B
  8
DEFPOINTS
 62
     0
 10
414.2831013431948
 20
265.6312060225714
 30
0.0
  0
ENDBLK
  5
D32
  8
0
  0
BLOCK
  8
0
  2
*D150
 70
     1
 10
0.0
 20
0.0
 30
0.0
  3
*D150
  1

  0
LINE
  5
D42
  8
DIMENSIONS
  6
BYBLOCK
 62
     0
 10
128.2831013431949
 20
248.9690674582487
 30
0.0
 11
128.2831013431949
 21
298.2705859303356
 31
0.0
  0
LINE
  5
D43
  8
DIMENSIONS
  6
BYBLOCK
 62
     0
 10
430.2831013431948
 20
248.9690674582487
 30
0.0
 11
430.2831013431948
 21
298.2705859303356
 31
0.0
  0
LINE
  5
D44
  8
DIMENSIONS
  6
BYBLOCK
 62
     0
 10
133.2831013431949
 20
298.0905859303356
 30
0.0
 11
425.2831013431948
 21
298.0905859303356
 31
0.0
  0
SOLID
  5
D45
  8
DIMENSIONS
 62
     0
 10
133.2831013431949
 20
298.9239192636689
 30
0.0
 11
133.2831013431949
 21
297.2572525970023
 31
0.0
 12
128.2831013431949
 22
298.0905859303356
 32
0.0
 13
128.2831013431949
 23
298.0905859303356
 33
0.0
  0
SOLID
  5
D46
  8
DIMENSIONS
 62
     0
 10
425.2831013431948
 20
297.2572525970023
 30
0.0
 11
425.2831013431948
 21
298.9239192636689
 31
0.0
 12
430.2831013431948
 22
298.0905859303356
 32
0.0
 13
430.2831013431948
 23
298.0905859303356
 33
0.0
  0
TEXT
  5
D47
  8
DIMENSIONS
  6
CONTINUOUS
 62
     5
 10
261.9031013431949
 20
300.4855859303356
 30
0.0
 40
5.0
  1
302 [11.89]
  0
POINT
  5
D48
  8
DEFPOINTS
 62
     0
 10
128.2831013431949
 20
247.4690674582487
 30
0.0
  0
POINT
  5
D49
  8
DEFPOINTS
 62
     0
 10
430.2831013431948
 20
247.4690674582487
 30
0.0
  0
POINT
  5
D4A
  8
DEFPOINTS
 62
     0
 10
430.2831013431948
 20
298.0905859303356
 30
0.0
  0
ENDBLK
  5
D41
  8
0
  0
BLOCK
  8
0
  2
*D151
 70
     1
 10
0.0
 20
0.0
 30
0.0
  3
*D151
  1

  0
LINE
  5
D51
  8
DIMENSIONS
  6
BYBLOCK
 62
     0
 10
135.2831013431949
 20
174.4690674582473
 30
0.0
 11
112.2169976162451
 21
174.4690674582473
 31
0.0
  0
LINE
  5
D52
  8
DIMENSIONS
  6
BYBLOCK
 62
     0
 10
135.2831013431949
 20
14.46906745824731
 30
0.0
 11
112.216997616245
 21
14.46906745824731
 31
0.0
  0
LINE
  5
D53
  8
DIMENSIONS
  6
BYBLOCK
 62
     0
 10
112.3969976162451
 20
169.4690674582473
 30
0.0
 11
112.396997616245
 21
19.46906745824731
 31
0.0
  0
SOLID
  5
D54
  8
DIMENSIONS
 62
     0
 10
113.2303309495784
 20
169.4690674582473
 30
0.0
 11
111.5636642829117
 21
169.4690674582473
 31
0.0
 12
112.3969976162451
 22
174.4690674582473
 32
0.0
 13
112.3969976162451
 23
174.4690674582473
 33
0.0
  0
SOLID
  5
D55
  8
DIMENSIONS
 62
     0
 10
111.5636642829117
 20
19.46906745824731
 30
0.0
 11
113.2303309495784
 21
19.46906745824731
 31
0.0
 12
112.396997616245
 22
14.46906745824731
 32
0.0
 13
112.396997616245
 23
14.46906745824731
 33
0.0
  0
TEXT
  5
D56
  8
DIMENSIONS
  6
CONTINUOUS
 62
     5
 10
110.001997616245
 20
78.79656745824731
 30
0.0
 40
5.0
  1
160 [6.30]
 50
90.0
  0
POINT
  5
D57
  8
DEFPOINTS
 62
     0
 10
136.7831013431949
 20
174.4690674582473
 30
0.0
  0
POINT
  5
D58
  8
DEFPOINTS
 62
     0
 10
136.7831013431949
 20
14.46906745824731
 30
0.0
  0
POINT
  5
D59
  8
DEFPOINTS
 62
     0
 10
112.396997616245
 20
14.46906745824731
 30
0.0
  0
ENDBLK
  5
D50
  8
0
  0
BLOCK
  8
0
  2
*D152
 70
     1
 10
0.0
 20
0.0
 30
0.0
  3
*D152
  1

  0
LINE
  5
D60
  8
DIMENSIONS
  6
BYBLOCK
 62
     0
 10
142.7831013431949
 20
229.4690674582473
 30
0.0
 11
93.84306316453332
 21
229.4690674582473
 31
0.0
  0
LINE
  5
D61
  8
DIMENSIONS
  6
BYBLOCK
 62
     0
 10
142.7831013431949
 20
-40.53093254175269
 30
0.0
 11
93.8430631645333
 21
-40.53093254175269
 31
0.0
  0
LINE
  5
D62
  8
DIMENSIONS
  6
BYBLOCK
 62
     0
 10
94.02306316453333
 20
224.4690674582473
 30
0.0
 11
94.02306316453331
 21
-35.53093254175269
 31
0.0
  0
SOLID
  5
D63
  8
DIMENSIONS
 62
     0
 10
94.85639649786665
 20
224.4690674582473
 30
0.0
 11
93.1897298312
 21
224.4690674582473
 31
0.0
 12
94.02306316453333
 22
229.4690674582473
 32
0.0
 13
94.02306316453333
 23
229.4690674582473
 33
0.0
  0
SOLID
  5
D64
  8
DIMENSIONS
 62
     0
 10
93.18972983119998
 20
-35.53093254175269
 30
0.0
 11
94.85639649786664
 21
-35.53093254175269
 31
0.0
 12
94.02306316453331
 22
-40.53093254175269
 32
0.0
 13
94.02306316453331
 23
-40.53093254175269
 33
0.0
  0
TEXT
  5
D65
  8
DIMENSIONS
  6
CONTINUOUS
 62
     5
 10
91.62806316453332
 20
77.13406745824732
 30
0.0
 40
5.0
  1
270 [10.63]
 50
90.0
  0
POINT
  5
D66
  8
DEFPOINTS
 62
     0
 10
144.2831013431949
 20
229.4690674582473
 30
0.0
  0
POINT
  5
D67
  8
DEFPOINTS
 62
     0
 10
144.2831013431949
 20
-40.53093254175269
 30
0.0
  0
POINT
  5
D68
  8
DEFPOINTS
 62
     0
 10
94.02306316453331
 20
-40.53093254175269
 30
0.0
  0
ENDBLK
  5
D5F
  8
0
  0
BLOCK
  8
0
  2
*D153
 70
     1
 10
0.0
 20
0.0
 30
0.0
  3
*D153
  1

  0
LINE
  5
D6F
  8
DIMENSIONS
  6
BYBLOCK
 62
     0
 10
277.7831013431949
 20
-48.03093254175269
 30
0.0
 11
75.61612018843526
 21
-48.03093254175269
 31
0.0
  0
LINE
  5
D70
  8
DIMENSIONS
  6
BYBLOCK
 62
     0
 10
277.7831013431949
 20
236.9690674582473
 30
0.0
 11
75.61612018843527
 21
236.9690674582473
 31
0.0
  0
LINE
  5
D71
  8
DIMENSIONS
  6
BYBLOCK
 62
     0
 10
75.79612018843527
 20
-43.03093254175269
 30
0.0
 11
75.79612018843528
 21
231.9690674582473
 31
0.0
  0
SOLID
  5
D72
  8
DIMENSIONS
 62
     0
 10
74.96278685510194
 20
-43.03093254175269
 30
0.0
 11
76.6294535217686
 21
-43.03093254175269
 31
0.0
 12
75.79612018843527
 22
-48.03093254175269
 32
0.0
 13
75.79612018843527
 23
-48.03093254175269
 33
0.0
  0
SOLID
  5
D73
  8
DIMENSIONS
 62
     0
 10
76.62945352176861
 20
231.9690674582473
 30
0.0
 11
74.96278685510195
 21
231.9690674582473
 31
0.0
 12
75.79612018843528
 22
236.9690674582473
 32
0.0
 13
75.79612018843528
 23
236.9690674582473
 33
0.0
  0
TEXT
  5
D74
  8
DIMENSIONS
  6
CONTINUOUS
 62
     5
 10
73.40112018843529
 20
77.13406745824733
 30
0.0
 40
5.0
  1
285 [11.22]
 50
90.0
  0
POINT
  5
D75
  8
DEFPOINTS
 62
     0
 10
279.2831013431949
 20
-48.03093254175269
 30
0.0
  0
POINT
  5
D76
  8
DEFPOINTS
 62
     0
 10
279.2831013431949
 20
236.9690674582473
 30
0.0
  0
POINT
  5
D77
  8
DEFPOINTS
 62
     0
 10
75.79612018843528
 20
236.9690674582473
 30
0.0
  0
ENDBLK
  5
D6E
  8
0
  0
BLOCK
  8
0
  2
*D154
 70
     1
 10
0.0
 20
0.0
 30
0.0
  3
*D154
  1

  0
LINE
  5
D7E
  8
DIMENSIONS
  6
BYBLOCK
 62
     0
 10
126.7831013431949
 20
247.4690674582487
 30
0.0
 11
57.26764443062564
 21
247.4690674582487
 31
0.0
  0
LINE
  5
D7F
  8
DIMENSIONS
  6
BYBLOCK
 62
     0
 10
126.7831013431949
 20
-58.53093254175269
 30
0.0
 11
57.26764443062562
 21
-58.53093254175268
 31
0.0
  0
LINE
  5
D80
  8
DIMENSIONS
  6
BYBLOCK
 62
     0
 10
57.44764443062564
 20
242.4690674582487
 30
0.0
 11
57.44764443062562
 21
-53.53093254175268
 31
0.0
  0
SOLID
  5
D81
  8
DIMENSIONS
 62
     0
 10
58.28097776395897
 20
242.4690674582487
 30
0.0
 11
56.6143110972923
 21
242.4690674582487
 31
0.0
 12
57.44764443062564
 22
247.4690674582487
 32
0.0
 13
57.44764443062564
 23
247.4690674582487
 33
0.0
  0
SOLID
  5
D82
  8
DIMENSIONS
 62
     0
 10
56.61431109729228
 20
-53.53093254175268
 30
0.0
 11
58.28097776395895
 21
-53.53093254175268
 31
0.0
 12
57.44764443062562
 22
-58.53093254175268
 32
0.0
 13
57.44764443062562
 23
-58.53093254175268
 33
0.0
  0
TEXT
  5
D83
  8
DIMENSIONS
  6
CONTINUOUS
 62
     5
 10
55.05264443062562
 20
77.089067458248
 30
0.0
 40
5.0
  1
306 [12.05]
 50
90.0
  0
POINT
  5
D84
  8
DEFPOINTS
 62
     0
 10
128.2831013431949
 20
247.4690674582487
 30
0.0
  0
POINT
  5
D85
  8
DEFPOINTS
 62
     0
 10
128.2831013431949
 20
-58.53093254175269
 30
0.0
  0
POINT
  5
D86
  8
DEFPOINTS
 62
     0
 10
57.44764443062562
 20
-58.53093254175268
 30
0.0
  0
ENDBLK
  5
D7D
  8
0
  0
BLOCK
  8
0
  2
*D155
 70
     1
 10
0.0
 20
0.0
 30
0.0
  3
*D155
  1

  0
LINE
  5
D8D
  8
DIMENSIONS
  6
BYBLOCK
 62
     0
 10
431.7831013431948
 20
247.4690674582487
 30
0.0
 11
469.1981186577326
 21
247.4690674582487
 31
0.0
  0
LINE
  5
D8E
  8
DIMENSIONS
  6
BYBLOCK
 62
     0
 10
415.7831013431948
 20
229.4690674582473
 30
0.0
 11
469.1981186577326
 21
229.4690674582473
 31
0.0
  0
LINE
  5
D8F
  8
DIMENSIONS
  6
BYBLOCK
 62
     0
 10
469.0181186577325
 20
229.4690674582473
 30
0.0
 11
469.0181186577325
 21
196.5240674582473
 31
0.0
  0
LINE
  5
D90
  8
DIMENSIONS
  6
BYBLOCK
 62
     0
 10
469.0181186577325
 20
242.4690674582487
 30
0.0
 11
469.0181186577325
 21
234.4690674582473
 31
0.0
  0
SOLID
  5
D91
  8
DIMENSIONS
 62
     0
 10
469.8514519910659
 20
242.4690674582487
 30
0.0
 11
468.1847853243992
 21
242.4690674582487
 31
0.0
 12
469.0181186577325
 22
247.4690674582487
 32
0.0
 13
469.0181186577325
 23
247.4690674582487
 33
0.0
  0
SOLID
  5
D92
  8
DIMENSIONS
 62
     0
 10
468.1847853243992
 20
234.4690674582473
 30
0.0
 11
469.8514519910659
 21
234.4690674582473
 31
0.0
 12
469.0181186577325
 22
229.4690674582473
 32
0.0
 13
469.0181186577325
 23
229.4690674582473
 33
0.0
  0
TEXT
  5
D93
  8
DIMENSIONS
  6
CONTINUOUS
 62
     5
 10
466.6231186577326
 20
196.7640674582473
 30
0.0
 40
5.0
  1
18 [0.71]
 50
90.0
  0
POINT
  5
D94
  8
DEFPOINTS
 62
     0
 10
430.2831013431948
 20
247.4690674582487
 30
0.0
  0
POINT
  5
D95
  8
DEFPOINTS
 62
     0
 10
414.2831013431948
 20
229.4690674582473
 30
0.0
  0
POINT
  5
DC3
  8
DEFPOINTS
 62
     0
 10
469.0181186577325
 20
229.4690674582473
 30
0.0
  0
ENDBLK
  5
D8C
  8
0
  0
BLOCK
  8
0
  2
*D156
 70
     1
 10
0.0
 20
0.0
 30
0.0
  3
*D156
  1

  0
LINE
  5
D9C
  8
DIMENSIONS
  6
BYBLOCK
 62
     0
 10
415.7831013431948
 20
229.4690674582473
 30
0.0
 11
449.8736793739531
 21
229.4690674582473
 31
0.0
  0
LINE
  5
D9D
  8
DIMENSIONS
  6
BYBLOCK
 62
     0
 10
415.7831013431948
 20
-40.53093254175269
 30
0.0
 11
449.8736793739531
 21
-40.53093254175269
 31
0.0
  0
LINE
  5
D9E
  8
DIMENSIONS
  6
BYBLOCK
 62
     0
 10
449.6936793739531
 20
224.4690674582473
 30
0.0
 11
449.6936793739531
 21
-35.53093254175269
 31
0.0
  0
SOLID
  5
D9F
  8
DIMENSIONS
 62
     0
 10
450.5270127072864
 20
224.4690674582473
 30
0.0
 11
448.8603460406198
 21
224.4690674582473
 31
0.0
 12
449.6936793739531
 22
229.4690674582473
 32
0.0
 13
449.6936793739531
 23
229.4690674582473
 33
0.0
  0
SOLID
  5
DA0
  8
DIMENSIONS
 62
     0
 10
448.8603460406198
 20
-35.53093254175269
 30
0.0
 11
450.5270127072864
 21
-35.53093254175269
 31
0.0
 12
449.6936793739531
 22
-40.53093254175269
 32
0.0
 13
449.6936793739531
 23
-40.53093254175269
 33
0.0
  0
TEXT
  5
DA1
  8
DIMENSIONS
  6
CONTINUOUS
 62
     5
 10
447.2986793739532
 20
77.13406745824733
 30
0.0
 40
5.0
  1
270 [10.63]
 50
90.0
  0
POINT
  5
DA2
  8
DEFPOINTS
 62
     0
 10
414.2831013431948
 20
229.4690674582473
 30
0.0
  0
POINT
  5
DA3
  8
DEFPOINTS
 62
     0
 10
414.2831013431948
 20
-40.53093254175269
 30
0.0
  0
POINT
  5
DA4
  8
DEFPOINTS
 62
     0
 10
449.6936793739531
 20
-40.53093254175269
 30
0.0
  0
ENDBLK
  5
D9B
  8
0
  0
BLOCK
  8
0
  2
*D157
 70
     1
 10
0.0
 20
0.0
 30
0.0
  3
*D157
  1

  0
LINE
  5
DAB
  8
DIMENSIONS
  6
BYBLOCK
 62
     0
 10
415.7831013431948
 20
-40.53093254175269
 30
0.0
 11
469.382102514182
 21
-40.53093254175269
 31
0.0
  0
LINE
  5
DAC
  8
DIMENSIONS
  6
BYBLOCK
 62
     0
 10
431.7831013431948
 20
-58.53093254175269
 30
0.0
 11
469.382102514182
 21
-58.53093254175269
 31
0.0
  0
LINE
  5
DAD
  8
DIMENSIONS
  6
BYBLOCK
 62
     0
 10
469.2021025141819
 20
-40.53093254175269
 30
0.0
 11
469.2021025141819
 21
-7.585932541752641
 31
0.0
  0
LINE
  5
DAE
  8
DIMENSIONS
  6
BYBLOCK
 62
     0
 10
469.2021025141819
 20
-45.53093254175269
 30
0.0
 11
469.2021025141819
 21
-53.53093254175269
 31
0.0
  0
SOLID
  5
DAF
  8
DIMENSIONS
 62
     0
 10
470.0354358475153
 20
-45.53093254175269
 30
0.0
 11
468.3687691808486
 21
-45.53093254175269
 31
0.0
 12
469.2021025141819
 22
-40.53093254175269
 32
0.0
 13
469.2021025141819
 23
-40.53093254175269
 33
0.0
  0
SOLID
  5
DB0
  8
DIMENSIONS
 62
     0
 10
468.3687691808486
 20
-53.53093254175269
 30
0.0
 11
470.0354358475153
 21
-53.53093254175269
 31
0.0
 12
469.2021025141819
 22
-58.53093254175269
 32
0.0
 13
469.2021025141819
 23
-58.53093254175269
 33
0.0
  0
TEXT
  5
DB1
  8
DIMENSIONS
  6
CONTINUOUS
 62
     5
 10
466.807102514182
 20
-35.29093254175268
 30
0.0
 40
5.0
  1
18 [0.71]
 50
90.0
  0
POINT
  5
DB2
  8
DEFPOINTS
 62
     0
 10
414.2831013431948
 20
-40.53093254175269
 30
0.0
  0
POINT
  5
DB3
  8
DEFPOINTS
 62
     0
 10
430.2831013431948
 20
-58.53093254175269
 30
0.0
  0
POINT
  5
DC4
  8
DEFPOINTS
 62
     0
 10
469.2021025141819
 20
-58.53093254175269
 30
0.0
  0
ENDBLK
  5
DAA
  8
0
  0
BLOCK
  8
0
  2
*D158
 70
     1
 10
0.0
 20
0.0
 30
0.0
  3
*D158
  1

  0
LINE
  5
DBA
  8
DIMENSIONS
  6
BYBLOCK
 62
     0
 10
412.7831043426934
 20
14.4617196036945
 30
0.0
 11
372.378117808776
 21
14.4287318188938
 31
0.0
  0
TEXT
  5
DBB
  8
DIMENSIONS
  6
CONTINUOUS
 62
     5
 10
373.0960969088141
 20
16.9043188223959
 30
0.0
 40
5.0
  1
Ø8 [Ø0.31]
 50
0.0467779001246777
  0
SOLID
  5
DBC
  8
DIMENSIONS
 62
     0
 10
412.7837846995965
 20
13.62838654809252
 30
0.0
 11
412.7824239857904
 21
15.29505265929647
 31
0.0
 12
417.7831026763053
 22
14.46580174511272
 32
0.0
 13
417.7831026763053
 23
14.46580174511272
 33
0.0
  0
LINE
  5
DBD
  8
DIMENSIONS
  6
BYBLOCK
 62
     0
 10
419.2831013431948
 20
14.46906745824731
 30
0.0
 11
424.2831013431948
 21
14.46906745824731
 31
0.0
  0
LINE
  5
DBE
  8
DIMENSIONS
  6
BYBLOCK
 62
     0
 10
421.7831013431948
 20
11.96906745824731
 30
0.0
 11
421.7831013431948
 21
16.96906745824731
 31
0.0
  0
POINT
  5
DBF
  8
DEFPOINTS
 62
     0
 10
417.7831026763053
 20
14.46580174511272
 30
0.0
  0
POINT
  5
DC0
  8
DEFPOINTS
 62
     0
 10
425.7831000100843
 20
14.47233317138189
 30
0.0
  0
ENDBLK
  5
DB9
  8
0
  0
BLOCK
  8
0
  2
*D159
 70
     1
 10
0.0
 20
0.0
 30
0.0
  3
*D159
  1

  0
LINE
  5
DCB
  8
DIMENSIONS
  6
BYBLOCK
 62
     0
 10
136.7831013431949
 20
175.9690674582473
 30
0.0
 11
136.7831013431949
 21
283.4501830962147
 31
0.0
  0
LINE
  5
DCC
  8
DIMENSIONS
  6
BYBLOCK
 62
     0
 10
421.7831013431948
 20
175.9690674582473
 30
0.0
 11
421.7831013431948
 21
283.4501830962147
 31
0.0
  0
LINE
  5
DCD
  8
DIMENSIONS
  6
BYBLOCK
 62
     0
 10
141.7831013431949
 20
283.2701830962147
 30
0.0
 11
416.7831013431948
 21
283.2701830962147
 31
0.0
  0
SOLID
  5
DCE
  8
DIMENSIONS
 62
     0
 10
141.7831013431949
 20
284.103516429548
 30
0.0
 11
141.7831013431949
 21
282.4368497628814
 31
0.0
 12
136.7831013431949
 22
283.2701830962147
 32
0.0
 13
136.7831013431949
 23
283.2701830962147
 33
0.0
  0
SOLID
  5
DCF
  8
DIMENSIONS
 62
     0
 10
416.7831013431948
 20
282.4368497628814
 30
0.0
 11
416.7831013431948
 21
284.103516429548
 31
0.0
 12
421.7831013431948
 22
283.2701830962147
 32
0.0
 13
421.7831013431948
 23
283.2701830962147
 33
0.0
  0
TEXT
  5
DD0
  8
DIMENSIONS
  6
CONTINUOUS
 62
     5
 10
261.9481013431949
 20
285.6651830962147
 30
0.0
 40
5.0
  1
285 [11.22]
  0
POINT
  5
DD1
  8
DEFPOINTS
 62
     0
 10
136.7831013431949
 20
174.4690674582473
 30
0.0
  0
POINT
  5
DD2
  8
DEFPOINTS
 62
     0
 10
421.7831013431948
 20
174.4690674582473
 30
0.0
  0
POINT
  5
DD3
  8
DEFPOINTS
 62
     0
 10
421.7831013431948
 20
283.2701830962147
 30
0.0
  0
ENDBLK
  5
DCA
  8
0
  0
ENDSEC
  0
SECTION
  2
ENTITIES
  0
TEXT
  5
698
  8
DIMENSIONS
  6
BYBLOCK
 10
126.9959876199805
 20
-77.36359393957858
 30
0.0
 40
5.0
  1
Note:
  0
TEXT
  5
699
  8
DIMENSIONS
  6
BYBLOCK
 10
127.129913660266
 20
-87.89256178757164
 30
0.0
 40
5.0
  1
Primary dimensions in millimeters.
  0
TEXT
  5
69A
  8
DIMENSIONS
  6
BYBLOCK
 10
127.3513275966561
 20
-98.46458739635571
 30
0.0
 40
5.0
  1
Secondary dimensions in inches.
  0
LINE
  5
D1F
  8
0
 10
144.2831013431949
 20
229.4690674582473
 30
0.0
 11
144.2831013431949
 21
-40.53093254175269
 31
0.0
  0
LINE
  5
D20
  8
0
 10
144.2831013431949
 20
-40.53093254175269
 30
0.0
 11
414.2831013431948
 21
-40.53093254175269
 31
0.0
  0
LINE
  5
D21
  8
0
 10
414.2831013431948
 20
-40.53093254175269
 30
0.0
 11
414.2831013431948
 21
229.4690674582473
 31
0.0
  0
LINE
  5
D22
  8
0
 10
414.2831013431948
 20
229.4690674582473
 30
0.0
 11
144.2831013431949
 21
229.4690674582473
 31
0.0
  0
CIRCLE
  5
D23
  8
0
 10
421.7831013431948
 20
174.4690674582473
 30
0.0
 40
4.0
  0
CIRCLE
  5
D24
  8
0
 10
421.7831013431948
 20
14.46906745824731
 30
0.0
 40
4.0
  0
CIRCLE
  5
D25
  8
0
 10
136.7831013431949
 20
174.4690674582473
 30
0.0
 40
4.0
  0
CIRCLE
  5
D26
  8
0
 10
136.7831013431949
 20
14.46906745824731
 30
0.0
 40
4.0
  0
CIRCLE
  5
D27
  8
0
 10
279.2831013431949
 20
236.9690674582473
 30
0.0
 40
4.0
  0
CIRCLE
  5
D28
  8
0
 10
279.2831013431949
 20
-48.03093254175269
 30
0.0
 40
4.0
  0
LINE
  5
D29
  8
0
 10
430.2831013431948
 20
247.4690674582487
 30
0.0
 11
430.2831013431948
 21
-58.53093254175269
 31
0.0
  0
LINE
  5
D2A
  8
0
 10
430.2831013431948
 20
-58.53093254175269
 30
0.0
 11
128.2831013431949
 21
-58.53093254175269
 31
0.0
  0
LINE
  5
D2B
  8
0
 10
128.2831013431949
 20
-58.53093254175269
 30
0.0
 11
128.2831013431949
 21
247.4690674582487
 31
0.0
  0
LINE
  5
D2C
  8
0
 10
430.2831013431948
 20
247.4690674582487
 30
0.0
 11
128.2831013431949
 21
247.4690674582487
 31
0.0
  0
DIMENSION
  5
D2D
  8
DIMENSIONS
  6
BYBLOCK
  2
*D149
 10
414.2831013431948
 20
265.6312060225714
 30
0.0
 11
279.2831013431949
 21
269.8337060225714
 31
0.0
 70
    32
  3
DUAL-DIM
 13
144.2831013431949
 23
229.4690674582473
 33
0.0
 14
414.2831013431948
 24
229.4690674582473
 34
0.0
1001
ACAD
1000
DSTYLE
1002
{
1070
   287
1070
     5
1070
   279
1070
     2
1002
}
  0
DIMENSION
  5
D3C
  8
DIMENSIONS
  6
BYBLOCK
  2
*D150
 10
430.2831013431948
 20
298.0905859303356
 30
0.0
 11
279.2831013431949
 21
302.2930859303356
 31
0.0
 70
    32
  3
DUAL-DIM
 13
128.2831013431949
 23
247.4690674582487
 33
0.0
 14
430.2831013431948
 24
247.4690674582487
 34
0.0
1001
ACAD
1000
DSTYLE
1002
{
1070
   287
1070
     5
1070
   279
1070
     2
1002
}
  0
DIMENSION
  5
D4B
  8
DIMENSIONS
  6
BYBLOCK
  2
*D151
 10
112.396997616245
 20
14.46906745824731
 30
0.0
 11
108.194497616245
 21
94.46906745824731
 31
0.0
 70
    32
  3
DUAL-DIM
 13
136.7831013431949
 23
174.4690674582473
 33
0.0
 14
136.7831013431949
 24
14.46906745824731
 34
0.0
 50
90.0
1001
ACAD
1000
DSTYLE
1002
{
1070
   287
1070
     5
1070
   279
1070
     2
1002
}
  0
DIMENSION
  5
D5A
  8
DIMENSIONS
  6
BYBLOCK
  2
*D152
 10
94.02306316453331
 20
-40.53093254175269
 30
0.0
 11
89.82056316453331
 21
94.46906745824731
 31
0.0
 70
    32
  3
DUAL-DIM
 13
144.2831013431949
 23
229.4690674582473
 33
0.0
 14
144.2831013431949
 24
-40.53093254175269
 34
0.0
 50
90.0
1001
ACAD
1000
DSTYLE
1002
{
1070
   287
1070
     5
1070
   279
1070
     2
1002
}
  0
DIMENSION
  5
D69
  8
DIMENSIONS
  6
BYBLOCK
  2
*D153
 10
75.79612018843528
 20
236.9690674582473
 30
0.0
 11
71.59362018843528
 21
94.46906745824731
 31
0.0
 70
    32
  3
DUAL-DIM
 13
279.2831013431949
 23
-48.03093254175269
 33
0.0
 14
279.2831013431949
 24
236.9690674582473
 34
0.0
 50
90.0
1001
ACAD
1000
DSTYLE
1002
{
1070
   287
1070
     5
1070
   279
1070
     2
1002
}
  0
DIMENSION
  5
D78
  8
DIMENSIONS
  6
BYBLOCK
  2
*D154
 10
57.44764443062562
 20
-58.53093254175268
 30
0.0
 11
53.24514443062563
 21
94.46906745824799
 31
0.0
 70
    32
  3
DUAL-DIM
 13
128.2831013431949
 23
247.4690674582487
 33
0.0
 14
128.2831013431949
 24
-58.53093254175269
 34
0.0
 50
90.0
1001
ACAD
1000
DSTYLE
1002
{
1070
   287
1070
     5
1070
   279
1070
     2
1002
}
  0
DIMENSION
  5
DB4
  8
DIMENSIONS
  6
BYBLOCK
  2
*D158
 10
425.7831000100843
 20
14.47233317138189
 30
0.0
 11
390.0806119089288
 21
14.44318464058503
 31
0.0
 70
   163
  1
<>
  3
DUAL-DIM
 15
417.7831026763053
 25
14.46580174511272
 35
0.0
 40
0.0
1001
ACAD
1000
DSTYLE
1002
{
1070
   287
1070
     3
1070
   279
1070
     0
1002
}
1001
ACAD_DSTYLE_DIMRADIAL_EXT0
1070
   387
1070
     1
1070
   388
1040
0.0
1070
   390
1040
6.283185307179586
  0
DIMENSION
  5
DC5
  8
DIMENSIONS
  6
BYBLOCK
  2
*D159
 10
421.7831013431948
 20
283.2701830962147
 30
0.0
 11
279.2831013431949
 21
287.4726830962147
 31
0.0
 70
    32
  3
DUAL-DIM
 13
136.7831013431949
 23
174.4690674582473
 33
0.0
 14
421.7831013431948
 24
174.4690674582473
 34
0.0
1001
ACAD
1000
DSTYLE
1002
{
1070
   287
1070
     5
1070
   279
1070
     2
1002
}
  0
POLYLINE
  5
DD9
  8
0
  6
BYBLOCK
 66
     1
 10
0.0
 20
0.0
 30
0.0
 70
     1
  0
VERTEX
  5
DDA
  8
0
  6
BYBLOCK
 10
16.24313518113047
 20
-109.4607392704125
 30
0.0
  0
VERTEX
  5
DDB
  8
0
  6
BYBLOCK
 10
16.24313518113047
 20
335.871721830129
 30
0.0
  0
VERTEX
  5
DDC
  8
0
  6
BYBLOCK
 10
481.4888364121843
 20
335.871721830129
 30
0.0
  0
VERTEX
  5
DDD
  8
0
  6
BYBLOCK
 10
481.4888364121843
 20
-109.4607392704125
 30
0.0
  0
SEQEND
  5
DDE
  8
0
  6
BYBLOCK
  0
ENDSEC
  0
EOF
