  0
SECTION
  2
HEADER
  9
$ACADVER
  1
AC1009
  9
$DWGCODEPAGE
  3
ansi_1252
  9
$INSBASE
 10
0.0
 20
0.0
 30
0.0
  9
$EXTMIN
 10
62.24845124769172
 20
366.7294540786438
 30
0.0
  9
$EXTMAX
 10
1251.375784690933
 20
2450.199910692175
 30
0.0
  9
$LIMMIN
 10
0.0
 20
0.0
  9
$LIMMAX
 10
594.0
 20
420.0
  9
$ORTHOMODE
 70
     1
  9
$REGENMODE
 70
     1
  9
$FILLMODE
 70
     1
  9
$QTEXTMODE
 70
     0
  9
$MIRRTEXT
 70
     1
  9
$DRAGMODE
 70
     2
  9
$LTSCALE
 40
32.67
  9
$OSMODE
 70
   511
  9
$ATTMODE
 70
     1
  9
$TEXTSIZE
 40
0.2
  9
$TRACEWID
 40
0.05
  9
$TEXTSTYLE
  7
STANDARD
  9
$CLAYER
  8
DIMENSIONS
  9
$CELTYPE
  6
BYBLOCK
  9
$CECOLOR
 62
   256
  9
$DIMSCALE
 40
1.0
  9
$DIMASZ
 40
5.0
  9
$DIMEXO
 40
1.5
  9
$DIMDLI
 40
1.0
  9
$DIMRND
 40
0.0
  9
$DIMDLE
 40
0.0
  9
$DIMEXE
 40
0.18
  9
$DIMTP
 40
0.0
  9
$DIMTM
 40
0.0
  9
$DIMTXT
 40
5.0
  9
$DIMCEN
 40
2.5
  9
$DIMTSZ
 40
0.0
  9
$DIMTOL
 70
     0
  9
$DIMLIM
 70
     0
  9
$DIMTIH
 70
     0
  9
$DIMTOH
 70
     0
  9
$DIMSE1
 70
     0
  9
$DIMSE2
 70
     0
  9
$DIMTAD
 70
     1
  9
$DIMZIN
 70
     8
  9
$DIMBLK
  1

  9
$DIMASO
 70
     1
  9
$DIMSHO
 70
     1
  9
$DIMPOST
  1

  9
$DIMAPOST
  1

  9
$DIMALT
 70
     1
  9
$DIMALTD
 70
     2
  9
$DIMALTF
 40
0.03937
  9
$DIMLFAC
 40
1.0
  9
$DIMTOFL
 70
     0
  9
$DIMTVP
 40
0.0
  9
$DIMTIX
 70
     0
  9
$DIMSOXD
 70
     0
  9
$DIMSAH
 70
     0
  9
$DIMBLK1
  1

  9
$DIMBLK2
  1

  9
$DIMSTYLE
  2
DUAL-DIM
  9
$DIMCLRD
 70
     0
  9
$DIMCLRE
 70
     0
  9
$DIMCLRT
 70
     5
  9
$DIMTFAC
 40
1.0
  9
$DIMGAP
 40
1.0
  9
$LUNITS
 70
     2
  9
$LUPREC
 70
     4
  9
$SKETCHINC
 40
0.1
  9
$FILLETRAD
 40
15.0
  9
$AUNITS
 70
     0
  9
$AUPREC
 70
     0
  9
$MENU
  1
.
  9
$ELEVATION
 40
0.0
  9
$PELEVATION
 40
0.0
  9
$THICKNESS
 40
0.0
  9
$LIMCHECK
 70
     0
  9
$CHAMFERA
 40
0.0
  9
$CHAMFERB
 40
0.0
  9
$SKPOLY
 70
     0
  9
$TDCREATE
 40
2457428.354677859
  9
$TDUPDATE
 40
2457438.422743496
  9
$TDINDWG
 40
0.0996560069
  9
$TDUSRTIMER
 40
2457438.374135694
  9
$USRTIMER
 70
     1
  9
$ANGBASE
 50
0.0
  9
$ANGDIR
 70
     0
  9
$PDMODE
 70
     3
  9
$PDSIZE
 40
0.3125
  9
$PLINEWID
 40
0.0
  9
$COORDS
 70
     2
  9
$SPLFRAME
 70
     0
  9
$SPLINETYPE
 70
     6
  9
$SPLINESEGS
 70
     8
  9
$ATTDIA
 70
     0
  9
$ATTREQ
 70
     1
  9
$HANDLING
 70
     1
  9
$HANDSEED
  5
2619
  9
$SURFTAB1
 70
     6
  9
$SURFTAB2
 70
     6
  9
$SURFTYPE
 70
     6
  9
$SURFU
 70
     6
  9
$SURFV
 70
     6
  9
$UCSNAME
  2

  9
$UCSORG
 10
0.0
 20
0.0
 30
0.0
  9
$UCSXDIR
 10
1.0
 20
0.0
 30
0.0
  9
$UCSYDIR
 10
0.0
 20
1.0
 30
0.0
  9
$PUCSNAME
  2

  9
$PUCSORG
 10
0.0
 20
0.0
 30
0.0
  9
$PUCSXDIR
 10
1.0
 20
0.0
 30
0.0
  9
$PUCSYDIR
 10
0.0
 20
1.0
 30
0.0
  9
$USERI1
 70
     0
  9
$USERI2
 70
     0
  9
$USERI3
 70
     0
  9
$USERI4
 70
     0
  9
$USERI5
 70
     0
  9
$USERR1
 40
0.0
  9
$USERR2
 40
0.0
  9
$USERR3
 40
0.0
  9
$USERR4
 40
0.0
  9
$USERR5
 40
0.0
  9
$WORLDVIEW
 70
     1
  9
$SHADEDGE
 70
     3
  9
$SHADEDIF
 70
    70
  9
$TILEMODE
 70
     1
  9
$MAXACTVP
 70
    64
  9
$PLIMCHECK
 70
     0
  9
$PEXTMIN
 10
1.05
 20
0.6999999999999997
 30
0.0
  9
$PEXTMAX
 10
9.45
 20
6.300000000000001
 30
0.0
  9
$PLIMMIN
 10
-0.25
 20
-0.7499999999999999
  9
$PLIMMAX
 10
10.75
 20
7.75
  9
$UNITMODE
 70
     0
  9
$VISRETAIN
 70
     1
  9
$PLINEGEN
 70
     0
  9
$PSLTSCALE
 70
     1
  0
ENDSEC
  0
SECTION
  2
TABLES
  0
TABLE
  2
VPORT
 70
     1
  0
VPORT
  2
*ACTIVE
 70
     0
 10
0.0
 20
0.0
 11
1.0
 21
1.0
 12
1586.604679449781
 22
1392.649020139508
 13
0.0
 23
0.0
 14
0.5
 24
0.5
 15
0.5
 25
0.5
 16
0.0
 26
0.0
 36
1.0
 17
0.0
 27
0.0
 37
0.0
 40
2615.579313952199
 41
2.450549450549451
 42
50.0
 43
0.0
 44
0.0
 50
0.0
 51
0.0
 71
    16
 72
   100
 73
     1
 74
     3
 75
     0
 76
     0
 77
     0
 78
     0
  0
ENDTAB
  0
TABLE
  2
LTYPE
 70
     7
  0
LTYPE
  2
CONTINUOUS
 70
     0
  3
Solid line
 72
    65
 73
     0
 40
0.0
  0
LTYPE
  2
CENTER
 70
     0
  3
____ _ ____ _ ____ _ ____ _ ____ _ ____ _ ____
 72
    65
 73
     4
 40
0.6
 49
0.375
 49
-0.075
 49
0.075
 49
-0.075
  0
LTYPE
  2
HIDDEN
 70
     0
  3
- - - - - - - - - - - - - - - - - - - -
 72
    65
 73
     2
 40
0.2
 49
0.1
 49
-0.1
  0
LTYPE
  2
PHANTOM
 70
     0
  3
_____ _ _ _____ _ _ _____ _ _ _____
 72
    65
 73
     6
 40
0.8
 49
0.45
 49
-0.05
 49
0.1
 49
-0.05
 49
0.1
 49
-0.05
  0
LTYPE
  2
DOT
 70
     0
  3
. . . . . . . . . . . . . . . . . . . .
 72
    65
 73
     2
 40
0.2
 49
0.1
 49
-0.1
  0
LTYPE
  2
DASHED
 70
     0
  3
- - - - - - - - - - - - - - - - - - - -
 72
    65
 73
     2
 40
0.2
 49
0.1
 49
-0.1
  0
LTYPE
  2
STRICHPUNKT
 70
     0
  3
__ . __ . __ . __ . __ . __ . __ . __ . __ . __
 72
    65
 73
     4
 40
1.0
 49
0.5
 49
-0.25
 49
0.0
 49
-0.25
  0
ENDTAB
  0
TABLE
  2
LAYER
 70
    19
  0
LAYER
  2
0
 70
     0
 62
     7
  6
CONTINUOUS
  0
LAYER
  2
DEFAULT_1
 70
     0
 62
     7
  6
CENTER
  0
LAYER
  2
DEFAULT_2
 70
     0
 62
     7
  6
HIDDEN
  0
LAYER
  2
DEFAULT_3
 70
     0
 62
     7
  6
PHANTOM
  0
LAYER
  2
01___PRT_ALL_DTM_PLN
 70
     0
 62
     7
  6
CONTINUOUS
  0
LAYER
  2
01___PRT_DEF_DTM_PLN
 70
     0
 62
     7
  6
CONTINUOUS
  0
LAYER
  2
02___PRT_ALL_AXES
 70
     0
 62
     7
  6
CONTINUOUS
  0
LAYER
  2
03___PRT_ALL_CURVES
 70
     0
 62
     7
  6
CONTINUOUS
  0
LAYER
  2
04___PRT_ALL_DTM_PNT
 70
     0
 62
     7
  6
CONTINUOUS
  0
LAYER
  2
05___PRT_ALL_DTM_CSYS
 70
     0
 62
     7
  6
CONTINUOUS
  0
LAYER
  2
05___PRT_DEF_DTM_CSYS
 70
     0
 62
     7
  6
CONTINUOUS
  0
LAYER
  2
06___PRT_ALL_SURFS
 70
     0
 62
     7
  6
CONTINUOUS
  0
LAYER
  2
DEFPOINTS
 70
     0
 62
     7
  6
CONTINUOUS
  0
LAYER
  2
DIMENSIONS
 70
     0
 62
     2
  6
CONTINUOUS
  0
LAYER
  2
AM_5
 70
     0
 62
     3
  6
CONTINUOUS
  0
LAYER
  2
CUTOUT
 70
     0
 62
     7
  6
CONTINUOUS
  0
LAYER
  2
EXTERNAL_OUTFIT
 70
     0
 62
     7
  6
CENTER
  0
LAYER
  2
OUTLINES
 70
     0
 62
     4
  6
CONTINUOUS
  0
LAYER
  2
3
 70
     0
 62
     4
  6
CONTINUOUS
  0
ENDTAB
  0
TABLE
  2
STYLE
 70
     2
  0
STYLE
  2
STANDARD
 70
     0
 40
0.0
 41
1.0
 50
0.0
 71
     0
 42
0.2
  3
arial.ttf
  4

  0
STYLE
  2
TEXTSTYLE_1
 70
     0
 40
0.0
 41
0.8
 50
0.0
 71
     0
 42
0.2
  3
gdt
  4

  0
ENDTAB
  0
TABLE
  2
VIEW
 70
     0
  0
ENDTAB
  0
TABLE
  2
UCS
 70
     0
  0
ENDTAB
  0
TABLE
  2
APPID
 70
    10
  0
APPID
  2
ACAD
 70
     0
  0
APPID
  2
ACAECLAYERSTANDARD
 70
     0
  0
APPID
  2
ACAD_DSTYLE_DIMRADIAL_EXTE
 70
     0
  0
APPID
  2
ACAD_DSTYLE_DIMJOGGED_JOGA
 70
     0
  0
APPID
  2
ACAD_DSTYLE_DIMJAG
 70
     0
  0
APPID
  2
ACAD_DSTYLE_DIMBREAK
 70
     0
  0
APPID
  2
ACAD_PSEXT
 70
     0
  0
APPID
  2
ACAD_DSTYLE_DIMINSPECT
 70
     0
  0
APPID
  2
ACAD_DSTYLE_DIMRADIAL_EXT0
 70
     0
  0
APPID
  2
ACAD_DSTYLE_DIMJOGGED_JOG0
 70
     0
  0
ENDTAB
  0
TABLE
  2
DIMSTYLE
 70
     5
  0
DIMSTYLE
  2
STANDARD
 70
     0
  3

  4

  5

  6

  7

 40
1.0
 41
0.18
 42
0.0625
 43
0.38
 44
0.18
 45
0.0
 46
0.0
 47
0.0
 48
0.0
140
0.18
141
0.09
142
0.0
143
25.4
144
1.0
145
0.0
146
1.0
147
0.09
 71
     0
 72
     0
 73
     1
 74
     1
 75
     0
 76
     0
 77
     0
 78
     0
170
     0
171
     2
172
     0
173
     0
174
     0
175
     0
176
     0
177
     0
178
     0
  0
DIMSTYLE
  2
DUAL-DIM
 70
     0
  3

  4

  5

  6

  7

 40
1.0
 41
5.0
 42
1.5
 43
1.0
 44
0.18
 45
0.0
 46
0.0
 47
0.0
 48
0.0
140
5.0
141
2.5
142
0.0
143
0.03937
144
1.0
145
0.0
146
1.0
147
1.0
 71
     0
 72
     0
 73
     0
 74
     0
 75
     0
 76
     0
 77
     1
 78
     8
170
     1
171
     2
172
     0
173
     0
174
     0
175
     0
176
     0
177
     0
178
     5
  0
DIMSTYLE
  2
AM_ISO
 70
     0
  3

  4
"
  5

  6

  7

 40
1.0
 41
3.5
 42
1.0
 43
10.0
 44
1.0
 45
0.0
 46
0.0
 47
0.1
 48
0.1
140
3.5
141
0.0
142
0.0
143
0.0393701
144
1.0
145
0.0
146
0.71
147
1.5
 71
     0
 72
     0
 73
     0
 74
     0
 75
     0
 76
     0
 77
     1
 78
     8
170
     0
171
     2
172
     1
173
     0
174
     0
175
     0
176
   256
177
   256
178
     2
  0
DIMSTYLE
  2
AM_ISO$3
 70
     0
  3

  4
"
  5

  6

  7

 40
1.0
 41
3.5
 42
1.0
 43
10.0
 44
1.0
 45
0.0
 46
0.0
 47
0.1
 48
0.1
140
3.5
141
0.0
142
0.0
143
0.0393701
144
1.0
145
0.0
146
0.71
147
1.5
 71
     0
 72
     0
 73
     0
 74
     1
 75
     0
 76
     0
 77
     1
 78
     8
170
     0
171
     2
172
     0
173
     0
174
     0
175
     0
176
   256
177
   256
178
     2
  0
DIMSTYLE
  2
AM_ISO$0
 70
     0
  3

  4
"
  5

  6

  7

 40
1.0
 41
3.5
 42
1.0
 43
10.0
 44
1.0
 45
0.0
 46
0.0
 47
0.1
 48
0.1
140
3.5
141
0.0
142
0.0
143
0.0393701
144
1.0
145
0.0
146
0.71
147
1.5
 71
     0
 72
     0
 73
     0
 74
     0
 75
     0
 76
     0
 77
     1
 78
     8
170
     0
171
     2
172
     1
173
     0
174
     0
175
     0
176
   256
177
   256
178
     2
  0
ENDTAB
  0
ENDSEC
  0
SECTION
  2
BLOCKS
  0
BLOCK
  8
0
  2
$MODEL_SPACE
 70
     0
 10
0.0
 20
0.0
 30
0.0
  3
$MODEL_SPACE
  1

  0
ENDBLK
  5
110
  8
0
  0
BLOCK
 67
     1
  8
0
  2
$PAPER_SPACE
 70
     0
 10
0.0
 20
0.0
 30
0.0
  3
$PAPER_SPACE
  1

  0
ENDBLK
  5
112
 67
     1
  8
0
  0
BLOCK
  8
0
  2
_FILLED
 70
     0
 10
0.0
 20
0.0
 30
0.0
  3
_FILLED
  1

  0
SOLID
  5
3D
  8
0
  6
BYBLOCK
 62
     0
 10
0.0
 20
0.0
 30
0.0
 11
-1.0
 21
0.2
 31
0.0
 12
-1.0
 22
-0.2
 32
0.0
 13
-1.0
 23
-0.2
 33
0.0
  0
ENDBLK
  5
3E
  8
0
  6
BYBLOCK
 62
     0
  0
BLOCK
  8
0
  2
*X392
 70
     1
 10
0.0
 20
0.0
 30
0.0
  3
*X392
  1

  0
LINE
  5
23E5
  8
CUTOUT
 10
44.9999999999992
 20
1848.122292025696
 30
0.0
 11
51.87770797430312
 21
1855.0
 31
0.0
  0
LINE
  5
23E6
  8
CUTOUT
 10
44.99999999999915
 20
1772.992196524625
 30
0.0
 11
127.0078034753737
 21
1855.0
 31
0.0
  0
LINE
  5
23E7
  8
CUTOUT
 10
44.99999999999915
 20
1697.862101023554
 30
0.0
 11
202.1378989764444
 21
1855.0
 31
0.0
  0
LINE
  5
23E8
  8
CUTOUT
 10
44.99999999999926
 20
1622.732005522484
 30
0.0
 11
277.2679944775152
 21
1855.0
 31
0.0
  0
LINE
  5
23E9
  8
CUTOUT
 10
44.99999999999926
 20
1547.601910021413
 30
0.0
 11
352.3980899785858
 21
1855.0
 31
0.0
  0
LINE
  5
23EA
  8
CUTOUT
 10
47.528185479657
 20
1475.0
 30
0.0
 11
427.5281854796565
 21
1855.0
 31
0.0
  0
LINE
  5
23EB
  8
CUTOUT
 10
122.6582809807277
 20
1475.0
 30
0.0
 11
502.6582809807272
 21
1855.0
 31
0.0
  0
LINE
  5
23EC
  8
CUTOUT
 10
197.7883764817983
 20
1475.0
 30
0.0
 11
577.7883764817977
 21
1855.0
 31
0.0
  0
LINE
  5
23ED
  8
CUTOUT
 10
272.9184719828691
 20
1475.0
 30
0.0
 11
652.9184719828686
 21
1855.0
 31
0.0
  0
LINE
  5
23EE
  8
CUTOUT
 10
348.0485674839397
 20
1475.0
 30
0.0
 11
728.0485674839392
 21
1855.0
 31
0.0
  0
LINE
  5
23EF
  8
CUTOUT
 10
423.1786629850103
 20
1475.0
 30
0.0
 11
803.1786629850099
 21
1855.0
 31
0.0
  0
LINE
  5
23F0
  8
CUTOUT
 10
498.308758486081
 20
1475.0
 30
0.0
 11
854.9999999999991
 21
1831.691241513918
 31
0.0
  0
LINE
  5
23F1
  8
CUTOUT
 10
573.4388539871518
 20
1475.0
 30
0.0
 11
854.9999999999991
 21
1756.561146012848
 31
0.0
  0
LINE
  5
23F2
  8
CUTOUT
 10
648.5689494882224
 20
1475.0
 30
0.0
 11
854.9999999999991
 21
1681.431050511777
 31
0.0
  0
LINE
  5
23F3
  8
CUTOUT
 10
723.6990449892932
 20
1475.0
 30
0.0
 11
854.9999999999991
 21
1606.300955010706
 31
0.0
  0
LINE
  5
23F4
  8
CUTOUT
 10
798.8291404903637
 20
1475.0
 30
0.0
 11
854.9999999999991
 21
1531.170859509635
 31
0.0
  0
LINE
  5
23F5
  8
CUTOUT
 10
44.99999999999915
 20
495.7805730064233
 30
0.0
 11
49.21942699357606
 21
500.0000000000001
 31
0.0
  0
LINE
  5
23F6
  8
CUTOUT
 10
44.99999999999915
 20
420.6504775053526
 30
0.0
 11
124.3495224946467
 21
500.0000000000002
 31
0.0
  0
LINE
  5
23F7
  8
CUTOUT
 10
44.99999999999915
 20
345.5203820042818
 30
0.0
 11
199.4796179957174
 21
500.0000000000001
 31
0.0
  0
LINE
  5
23F8
  8
CUTOUT
 10
44.99999999999915
 20
270.3902865032112
 30
0.0
 11
274.6097134967881
 21
500.0000000000002
 31
0.0
  0
LINE
  5
23F9
  8
CUTOUT
 10
44.99999999999915
 20
195.2601910021406
 30
0.0
 11
349.7398089978587
 21
500.0000000000002
 31
0.0
  0
LINE
  5
23FA
  8
CUTOUT
 10
44.99999999999909
 20
120.1300955010698
 30
0.0
 11
424.8699044989294
 21
500.0000000000002
 31
0.0
  0
LINE
  5
23FB
  8
CUTOUT
 10
109.9999999999999
 20
110.0
 30
0.0
 11
500.0000000000001
 21
500.0000000000002
 31
0.0
  0
LINE
  5
23FC
  8
CUTOUT
 10
185.1300955010706
 20
110.0
 30
0.0
 11
575.1300955010707
 21
500.0000000000002
 31
0.0
  0
LINE
  5
23FD
  8
CUTOUT
 10
260.2601910021413
 20
110.0
 30
0.0
 11
650.2601910021414
 21
500.0000000000001
 31
0.0
  0
LINE
  5
23FE
  8
CUTOUT
 10
335.3902865032119
 20
110.0
 30
0.0
 11
725.3902865032119
 21
500.0000000000002
 31
0.0
  0
LINE
  5
23FF
  8
CUTOUT
 10
410.5203820042826
 20
110.0
 30
0.0
 11
800.5203820042827
 21
500.0000000000001
 31
0.0
  0
LINE
  5
2400
  8
CUTOUT
 10
485.6504775053533
 20
110.0
 30
0.0
 11
854.9999999999991
 21
479.349522494646
 31
0.0
  0
LINE
  5
2401
  8
CUTOUT
 10
560.780573006424
 20
110.0
 30
0.0
 11
854.9999999999991
 21
404.2194269935753
 31
0.0
  0
LINE
  5
2402
  8
CUTOUT
 10
635.9106685074946
 20
110.0000000000001
 30
0.0
 11
854.9999999999991
 21
329.0893314925046
 31
0.0
  0
LINE
  5
2403
  8
CUTOUT
 10
711.0407640085652
 20
110.0
 30
0.0
 11
854.9999999999991
 21
253.9592359914338
 31
0.0
  0
LINE
  5
2404
  8
CUTOUT
 10
786.170859509636
 20
110.0
 30
0.0
 11
854.9999999999991
 21
178.8291404903632
 31
0.0
  0
ENDBLK
  5
2405
  8
0
  0
BLOCK
  8
0
  2
*D393
 70
     1
 10
0.0
 20
0.0
 30
0.0
  3
*D393
  1

  0
LINE
  5
245B
  8
DIMENSIONS
  6
BYBLOCK
 62
     0
 10
249.8157182587157
 20
2273.403363573331
 30
0.0
 11
249.8157182587157
 21
2333.946391122704
 31
0.0
  0
LINE
  5
245C
  8
DIMENSIONS
  6
BYBLOCK
 62
     0
 10
1059.815718258716
 20
2273.403363573331
 30
0.0
 11
1059.815718258716
 21
2333.946391122704
 31
0.0
  0
LINE
  5
245D
  8
DIMENSIONS
  6
BYBLOCK
 62
     0
 10
254.8157182587157
 20
2333.766391122704
 30
0.0
 11
1054.815718258716
 21
2333.766391122704
 31
0.0
  0
SOLID
  5
245E
  8
DIMENSIONS
 62
     0
 10
254.8157182587157
 20
2334.599724456037
 30
0.0
 11
254.8157182587157
 21
2332.93305778937
 31
0.0
 12
249.8157182587157
 22
2333.766391122704
 32
0.0
 13
249.8157182587157
 23
2333.766391122704
 33
0.0
  0
SOLID
  5
245F
  8
DIMENSIONS
 62
     0
 10
1054.815718258716
 20
2332.93305778937
 30
0.0
 11
1054.815718258716
 21
2334.599724456037
 31
0.0
 12
1059.815718258716
 22
2333.766391122704
 32
0.0
 13
1059.815718258716
 23
2333.766391122704
 33
0.0
  0
TEXT
  5
2460
  8
DIMENSIONS
  6
CONTINUOUS
 62
     5
 10
637.4407182587156
 20
2336.161391122704
 30
0.0
 40
5.0
  1
810 [31.89]
  0
POINT
  5
2461
  8
DEFPOINTS
 62
     0
 10
249.8157182587157
 20
2271.903363573331
 30
0.0
  0
POINT
  5
2462
  8
DEFPOINTS
 62
     0
 10
1059.815718258716
 20
2271.903363573331
 30
0.0
  0
POINT
  5
2463
  8
DEFPOINTS
 62
     0
 10
1059.815718258716
 20
2333.766391122704
 30
0.0
  0
ENDBLK
  5
245A
  8
0
  0
BLOCK
  8
0
  2
*D394
 70
     1
 10
0.0
 20
0.0
 30
0.0
  3
*D394
  1

  0
LINE
  5
246A
  8
DIMENSIONS
  6
BYBLOCK
 62
     0
 10
1124.815718258715
 20
2268.403363573325
 30
0.0
 11
1124.815718258715
 21
2351.228691619741
 31
0.0
  0
LINE
  5
246B
  8
DIMENSIONS
  6
BYBLOCK
 62
     0
 10
184.8157182587145
 20
2268.403363573331
 30
0.0
 11
184.8157182587145
 21
2351.228691619741
 31
0.0
  0
LINE
  5
246C
  8
DIMENSIONS
  6
BYBLOCK
 62
     0
 10
1119.815718258715
 20
2351.048691619741
 30
0.0
 11
189.8157182587145
 21
2351.048691619741
 31
0.0
  0
SOLID
  5
246D
  8
DIMENSIONS
 62
     0
 10
1119.815718258715
 20
2350.215358286408
 30
0.0
 11
1119.815718258715
 21
2351.882024953075
 31
0.0
 12
1124.815718258715
 22
2351.048691619741
 32
0.0
 13
1124.815718258715
 23
2351.048691619741
 33
0.0
  0
SOLID
  5
246E
  8
DIMENSIONS
 62
     0
 10
189.8157182587145
 20
2351.882024953075
 30
0.0
 11
189.8157182587145
 21
2350.215358286408
 31
0.0
 12
184.8157182587145
 22
2351.048691619741
 32
0.0
 13
184.8157182587145
 23
2351.048691619741
 33
0.0
  0
TEXT
  5
246F
  8
DIMENSIONS
  6
CONTINUOUS
 62
     5
 10
637.4382182587149
 20
2353.443691619741
 30
0.0
 40
5.0
  1
940 [37.01]
  0
POINT
  5
2470
  8
DEFPOINTS
 62
     0
 10
1124.815718258715
 20
2266.903363573325
 30
0.0
  0
POINT
  5
2471
  8
DEFPOINTS
 62
     0
 10
184.8157182587145
 20
2266.903363573331
 30
0.0
  0
POINT
  5
2472
  8
DEFPOINTS
 62
     0
 10
184.8157182587145
 20
2351.048691619741
 30
0.0
  0
ENDBLK
  5
2469
  8
0
  0
BLOCK
  8
0
  2
*D395
 70
     1
 10
0.0
 20
0.0
 30
0.0
  3
*D395
  1

  0
LINE
  5
2479
  8
DIMENSIONS
  6
BYBLOCK
 62
     0
 10
174.8157182587149
 20
2318.403363573331
 30
0.0
 11
174.8157182587149
 21
2368.155899463899
 31
0.0
  0
LINE
  5
247A
  8
DIMENSIONS
  6
BYBLOCK
 62
     0
 10
1134.815718258715
 20
2318.403363573331
 30
0.0
 11
1134.815718258715
 21
2368.155899463899
 31
0.0
  0
LINE
  5
247B
  8
DIMENSIONS
  6
BYBLOCK
 62
     0
 10
179.8157182587149
 20
2367.975899463899
 30
0.0
 11
1129.815718258715
 21
2367.975899463899
 31
0.0
  0
SOLID
  5
247C
  8
DIMENSIONS
 62
     0
 10
179.8157182587149
 20
2368.809232797232
 30
0.0
 11
179.8157182587149
 21
2367.142566130565
 31
0.0
 12
174.8157182587149
 22
2367.975899463899
 32
0.0
 13
174.8157182587149
 23
2367.975899463899
 33
0.0
  0
SOLID
  5
247D
  8
DIMENSIONS
 62
     0
 10
1129.815718258715
 20
2367.142566130565
 30
0.0
 11
1129.815718258715
 21
2368.809232797232
 31
0.0
 12
1134.815718258715
 22
2367.975899463899
 32
0.0
 13
1134.815718258715
 23
2367.975899463899
 33
0.0
  0
TEXT
  5
247E
  8
DIMENSIONS
  6
CONTINUOUS
 62
     5
 10
637.438218258715
 20
2370.370899463899
 30
0.0
 40
5.0
  1
960 [37.80]
  0
POINT
  5
247F
  8
DEFPOINTS
 62
     0
 10
174.8157182587149
 20
2316.903363573331
 30
0.0
  0
POINT
  5
2480
  8
DEFPOINTS
 62
     0
 10
1134.815718258715
 20
2316.903363573331
 30
0.0
  0
POINT
  5
2481
  8
DEFPOINTS
 62
     0
 10
1134.815718258715
 20
2367.975899463899
 30
0.0
  0
ENDBLK
  5
2478
  8
0
  0
BLOCK
  8
0
  2
*D396
 70
     1
 10
0.0
 20
0.0
 30
0.0
  3
*D396
  1

  0
LINE
  5
2488
  8
DIMENSIONS
  6
BYBLOCK
 62
     0
 10
173.3157182587149
 20
2316.903363573331
 30
0.0
 11
158.0297881935711
 21
2316.903363573331
 31
0.0
  0
LINE
  5
2489
  8
DIMENSIONS
  6
BYBLOCK
 62
     0
 10
173.3157182587149
 20
2266.903363573331
 30
0.0
 11
158.0297881935711
 21
2266.903363573331
 31
0.0
  0
LINE
  5
248A
  8
DIMENSIONS
  6
BYBLOCK
 62
     0
 10
158.2097881935711
 20
2311.903363573331
 30
0.0
 11
158.2097881935711
 21
2271.903363573331
 31
0.0
  0
SOLID
  5
248B
  8
DIMENSIONS
 62
     0
 10
159.0431215269044
 20
2311.903363573331
 30
0.0
 11
157.3764548602377
 21
2311.903363573331
 31
0.0
 12
158.2097881935711
 22
2316.903363573331
 32
0.0
 13
158.2097881935711
 23
2316.903363573331
 33
0.0
  0
SOLID
  5
248C
  8
DIMENSIONS
 62
     0
 10
157.3764548602377
 20
2271.903363573331
 30
0.0
 11
159.0431215269044
 21
2271.903363573331
 31
0.0
 12
158.2097881935711
 22
2266.903363573331
 32
0.0
 13
158.2097881935711
 23
2266.903363573331
 33
0.0
  0
TEXT
  5
248D
  8
DIMENSIONS
  6
CONTINUOUS
 62
     5
 10
155.8147881935711
 20
2278.405863573331
 30
0.0
 40
5.0
  1
50 [1.97]
 50
90.0
  0
POINT
  5
248E
  8
DEFPOINTS
 62
     0
 10
174.8157182587149
 20
2316.903363573331
 30
0.0
  0
POINT
  5
248F
  8
DEFPOINTS
 62
     0
 10
174.8157182587149
 20
2266.903363573331
 30
0.0
  0
POINT
  5
2490
  8
DEFPOINTS
 62
     0
 10
158.2097881935711
 20
2266.903363573331
 30
0.0
  0
ENDBLK
  5
2487
  8
0
  0
BLOCK
  8
0
  2
*D397
 70
     1
 10
0.0
 20
0.0
 30
0.0
  3
*D397
  1

  0
LINE
  5
2497
  8
DIMENSIONS
  6
BYBLOCK
 62
     0
 10
173.3157182587149
 20
2266.903363573331
 30
0.0
 11
158.0297881935711
 21
2266.903363573331
 31
0.0
  0
LINE
  5
2498
  8
DIMENSIONS
  6
BYBLOCK
 62
     0
 10
183.3157182587145
 20
2041.903363573331
 30
0.0
 11
158.0297881935711
 21
2041.903363573331
 31
0.0
  0
LINE
  5
2499
  8
DIMENSIONS
  6
BYBLOCK
 62
     0
 10
158.2097881935711
 20
2261.903363573331
 30
0.0
 11
158.2097881935711
 21
2046.903363573331
 31
0.0
  0
SOLID
  5
249A
  8
DIMENSIONS
 62
     0
 10
159.0431215269044
 20
2261.903363573331
 30
0.0
 11
157.3764548602377
 21
2261.903363573331
 31
0.0
 12
158.2097881935711
 22
2266.903363573331
 32
0.0
 13
158.2097881935711
 23
2266.903363573331
 33
0.0
  0
SOLID
  5
249B
  8
DIMENSIONS
 62
     0
 10
157.3764548602377
 20
2046.903363573331
 30
0.0
 11
159.0431215269044
 21
2046.903363573331
 31
0.0
 12
158.2097881935711
 22
2041.903363573331
 32
0.0
 13
158.2097881935711
 23
2041.903363573331
 33
0.0
  0
TEXT
  5
249C
  8
DIMENSIONS
  6
CONTINUOUS
 62
     5
 10
155.8147881935711
 20
2139.008363573331
 30
0.0
 40
5.0
  1
225 [8.86]
 50
90.0
  0
POINT
  5
249D
  8
DEFPOINTS
 62
     0
 10
174.8157182587149
 20
2266.903363573331
 30
0.0
  0
POINT
  5
249E
  8
DEFPOINTS
 62
     0
 10
184.8157182587145
 20
2041.903363573331
 30
0.0
  0
POINT
  5
249F
  8
DEFPOINTS
 62
     0
 10
158.2097881935711
 20
2041.903363573331
 30
0.0
  0
ENDBLK
  5
2496
  8
0
  0
BLOCK
  8
0
  2
*D398
 70
     1
 10
0.0
 20
0.0
 30
0.0
  3
*D398
  1

  0
LINE
  5
24A6
  8
DIMENSIONS
  6
BYBLOCK
 62
     0
 10
183.3157182587145
 20
2041.903363573331
 30
0.0
 11
158.0297881935711
 21
2041.903363573331
 31
0.0
  0
LINE
  5
24A7
  8
DIMENSIONS
  6
BYBLOCK
 62
     0
 10
183.3157182587146
 20
1816.903363573331
 30
0.0
 11
158.0297881935711
 21
1816.903363573331
 31
0.0
  0
LINE
  5
24A8
  8
DIMENSIONS
  6
BYBLOCK
 62
     0
 10
158.2097881935711
 20
2036.903363573331
 30
0.0
 11
158.2097881935711
 21
1821.903363573331
 31
0.0
  0
SOLID
  5
24A9
  8
DIMENSIONS
 62
     0
 10
159.0431215269044
 20
2036.903363573331
 30
0.0
 11
157.3764548602377
 21
2036.903363573331
 31
0.0
 12
158.2097881935711
 22
2041.903363573331
 32
0.0
 13
158.2097881935711
 23
2041.903363573331
 33
0.0
  0
SOLID
  5
24AA
  8
DIMENSIONS
 62
     0
 10
157.3764548602377
 20
1821.903363573331
 30
0.0
 11
159.0431215269044
 21
1821.903363573331
 31
0.0
 12
158.2097881935711
 22
1816.903363573331
 32
0.0
 13
158.2097881935711
 23
1816.903363573331
 33
0.0
  0
TEXT
  5
24AB
  8
DIMENSIONS
  6
CONTINUOUS
 62
     5
 10
155.8147881935711
 20
1914.008363573331
 30
0.0
 40
5.0
  1
225 [8.86]
 50
90.0
  0
POINT
  5
24AC
  8
DEFPOINTS
 62
     0
 10
184.8157182587145
 20
2041.903363573331
 30
0.0
  0
POINT
  5
24AD
  8
DEFPOINTS
 62
     0
 10
184.8157182587146
 20
1816.903363573331
 30
0.0
  0
POINT
  5
24AE
  8
DEFPOINTS
 62
     0
 10
158.2097881935711
 20
1816.903363573331
 30
0.0
  0
ENDBLK
  5
24A5
  8
0
  0
BLOCK
  8
0
  2
*D399
 70
     1
 10
0.0
 20
0.0
 30
0.0
  3
*D399
  1

  0
LINE
  5
24B5
  8
DIMENSIONS
  6
BYBLOCK
 62
     0
 10
183.3157182587146
 20
1816.903363573331
 30
0.0
 11
158.0297881935711
 21
1816.903363573331
 31
0.0
  0
LINE
  5
24B6
  8
DIMENSIONS
  6
BYBLOCK
 62
     0
 10
183.3157182587146
 20
1591.903363573331
 30
0.0
 11
158.0297881935711
 21
1591.903363573331
 31
0.0
  0
LINE
  5
24B7
  8
DIMENSIONS
  6
BYBLOCK
 62
     0
 10
158.2097881935711
 20
1811.903363573331
 30
0.0
 11
158.2097881935711
 21
1596.903363573331
 31
0.0
  0
SOLID
  5
24B8
  8
DIMENSIONS
 62
     0
 10
159.0431215269044
 20
1811.903363573331
 30
0.0
 11
157.3764548602377
 21
1811.903363573331
 31
0.0
 12
158.2097881935711
 22
1816.903363573331
 32
0.0
 13
158.2097881935711
 23
1816.903363573331
 33
0.0
  0
SOLID
  5
24B9
  8
DIMENSIONS
 62
     0
 10
157.3764548602377
 20
1596.903363573331
 30
0.0
 11
159.0431215269044
 21
1596.903363573331
 31
0.0
 12
158.2097881935711
 22
1591.903363573331
 32
0.0
 13
158.2097881935711
 23
1591.903363573331
 33
0.0
  0
TEXT
  5
24BA
  8
DIMENSIONS
  6
CONTINUOUS
 62
     5
 10
155.8147881935708
 20
1689.008363573331
 30
0.0
 40
5.0
  1
225 [8.86]
 50
90.0
  0
POINT
  5
24BB
  8
DEFPOINTS
 62
     0
 10
184.8157182587146
 20
1816.903363573331
 30
0.0
  0
POINT
  5
24BC
  8
DEFPOINTS
 62
     0
 10
184.8157182587146
 20
1591.903363573331
 30
0.0
  0
POINT
  5
24BD
  8
DEFPOINTS
 62
     0
 10
158.2097881935711
 20
1591.903363573331
 30
0.0
  0
ENDBLK
  5
24B4
  8
0
  0
BLOCK
  8
0
  2
*D401
 70
     1
 10
0.0
 20
0.0
 30
0.0
  3
*D401
  1

  0
LINE
  5
24D3
  8
DIMENSIONS
  6
BYBLOCK
 62
     0
 10
183.3157182587146
 20
1591.903363573331
 30
0.0
 11
158.0297881935711
 21
1591.903363573331
 31
0.0
  0
LINE
  5
24D4
  8
DIMENSIONS
  6
BYBLOCK
 62
     0
 10
183.3157182587147
 20
1366.903363573331
 30
0.0
 11
158.0297881935711
 21
1366.903363573331
 31
0.0
  0
LINE
  5
24D5
  8
DIMENSIONS
  6
BYBLOCK
 62
     0
 10
158.2097881935711
 20
1586.903363573331
 30
0.0
 11
158.2097881935711
 21
1371.903363573331
 31
0.0
  0
SOLID
  5
24D6
  8
DIMENSIONS
 62
     0
 10
159.0431215269044
 20
1586.903363573331
 30
0.0
 11
157.3764548602377
 21
1586.903363573331
 31
0.0
 12
158.2097881935711
 22
1591.903363573331
 32
0.0
 13
158.2097881935711
 23
1591.903363573331
 33
0.0
  0
SOLID
  5
24D7
  8
DIMENSIONS
 62
     0
 10
157.3764548602377
 20
1371.903363573331
 30
0.0
 11
159.0431215269044
 21
1371.903363573331
 31
0.0
 12
158.2097881935711
 22
1366.903363573331
 32
0.0
 13
158.2097881935711
 23
1366.903363573331
 33
0.0
  0
TEXT
  5
24D8
  8
DIMENSIONS
  6
CONTINUOUS
 62
     5
 10
155.8147881935708
 20
1464.008363573331
 30
0.0
 40
5.0
  1
225 [8.86]
 50
90.0
  0
POINT
  5
24D9
  8
DEFPOINTS
 62
     0
 10
184.8157182587146
 20
1591.903363573331
 30
0.0
  0
POINT
  5
24DA
  8
DEFPOINTS
 62
     0
 10
184.8157182587147
 20
1366.903363573331
 30
0.0
  0
POINT
  5
24DB
  8
DEFPOINTS
 62
     0
 10
158.2097881935711
 20
1366.903363573331
 30
0.0
  0
ENDBLK
  5
24D2
  8
0
  0
BLOCK
  8
0
  2
*D402
 70
     1
 10
0.0
 20
0.0
 30
0.0
  3
*D402
  1

  0
LINE
  5
24E2
  8
DIMENSIONS
  6
BYBLOCK
 62
     0
 10
183.3157182587147
 20
1366.903363573331
 30
0.0
 11
158.0297881935711
 21
1366.903363573331
 31
0.0
  0
LINE
  5
24E3
  8
DIMENSIONS
  6
BYBLOCK
 62
     0
 10
183.3157182587148
 20
1141.903363573331
 30
0.0
 11
158.0297881935711
 21
1141.903363573331
 31
0.0
  0
LINE
  5
24E4
  8
DIMENSIONS
  6
BYBLOCK
 62
     0
 10
158.2097881935711
 20
1361.903363573331
 30
0.0
 11
158.2097881935711
 21
1146.903363573331
 31
0.0
  0
SOLID
  5
24E5
  8
DIMENSIONS
 62
     0
 10
159.0431215269044
 20
1361.903363573331
 30
0.0
 11
157.3764548602377
 21
1361.903363573331
 31
0.0
 12
158.2097881935711
 22
1366.903363573331
 32
0.0
 13
158.2097881935711
 23
1366.903363573331
 33
0.0
  0
SOLID
  5
24E6
  8
DIMENSIONS
 62
     0
 10
157.3764548602377
 20
1146.903363573331
 30
0.0
 11
159.0431215269044
 21
1146.903363573331
 31
0.0
 12
158.2097881935711
 22
1141.903363573331
 32
0.0
 13
158.2097881935711
 23
1141.903363573331
 33
0.0
  0
TEXT
  5
24E7
  8
DIMENSIONS
  6
CONTINUOUS
 62
     5
 10
155.8147881935708
 20
1239.008363573331
 30
0.0
 40
5.0
  1
225 [8.86]
 50
90.0
  0
POINT
  5
24E8
  8
DEFPOINTS
 62
     0
 10
184.8157182587147
 20
1366.903363573331
 30
0.0
  0
POINT
  5
24E9
  8
DEFPOINTS
 62
     0
 10
184.8157182587148
 20
1141.903363573331
 30
0.0
  0
POINT
  5
24EA
  8
DEFPOINTS
 62
     0
 10
158.2097881935711
 20
1141.903363573331
 30
0.0
  0
ENDBLK
  5
24E1
  8
0
  0
BLOCK
  8
0
  2
*D403
 70
     1
 10
0.0
 20
0.0
 30
0.0
  3
*D403
  1

  0
LINE
  5
24F1
  8
DIMENSIONS
  6
BYBLOCK
 62
     0
 10
183.3157182587148
 20
1141.903363573331
 30
0.0
 11
158.0297881935711
 21
1141.903363573331
 31
0.0
  0
LINE
  5
24F2
  8
DIMENSIONS
  6
BYBLOCK
 62
     0
 10
183.3157182587148
 20
916.9033635733313
 30
0.0
 11
158.0297881935711
 21
916.9033635733313
 31
0.0
  0
LINE
  5
24F3
  8
DIMENSIONS
  6
BYBLOCK
 62
     0
 10
158.2097881935711
 20
1136.903363573331
 30
0.0
 11
158.2097881935711
 21
921.9033635733313
 31
0.0
  0
SOLID
  5
24F4
  8
DIMENSIONS
 62
     0
 10
159.0431215269044
 20
1136.903363573331
 30
0.0
 11
157.3764548602377
 21
1136.903363573331
 31
0.0
 12
158.2097881935711
 22
1141.903363573331
 32
0.0
 13
158.2097881935711
 23
1141.903363573331
 33
0.0
  0
SOLID
  5
24F5
  8
DIMENSIONS
 62
     0
 10
157.3764548602377
 20
921.9033635733313
 30
0.0
 11
159.0431215269044
 21
921.9033635733313
 31
0.0
 12
158.2097881935711
 22
916.9033635733313
 32
0.0
 13
158.2097881935711
 23
916.9033635733313
 33
0.0
  0
TEXT
  5
24F6
  8
DIMENSIONS
  6
CONTINUOUS
 62
     5
 10
155.8147881935708
 20
1014.008363573331
 30
0.0
 40
5.0
  1
225 [8.86]
 50
90.0
  0
POINT
  5
24F7
  8
DEFPOINTS
 62
     0
 10
184.8157182587148
 20
1141.903363573331
 30
0.0
  0
POINT
  5
24F8
  8
DEFPOINTS
 62
     0
 10
184.8157182587148
 20
916.9033635733313
 30
0.0
  0
POINT
  5
24F9
  8
DEFPOINTS
 62
     0
 10
158.2097881935711
 20
916.9033635733313
 30
0.0
  0
ENDBLK
  5
24F0
  8
0
  0
BLOCK
  8
0
  2
*D404
 70
     1
 10
0.0
 20
0.0
 30
0.0
  3
*D404
  1

  0
LINE
  5
2500
  8
DIMENSIONS
  6
BYBLOCK
 62
     0
 10
183.3157182587148
 20
916.9033635733313
 30
0.0
 11
158.0297881935711
 21
916.9033635733313
 31
0.0
  0
LINE
  5
2501
  8
DIMENSIONS
  6
BYBLOCK
 62
     0
 10
183.3157182587149
 20
691.9033635733313
 30
0.0
 11
158.0297881935711
 21
691.9033635733313
 31
0.0
  0
LINE
  5
2502
  8
DIMENSIONS
  6
BYBLOCK
 62
     0
 10
158.2097881935711
 20
911.9033635733313
 30
0.0
 11
158.2097881935711
 21
696.9033635733313
 31
0.0
  0
SOLID
  5
2503
  8
DIMENSIONS
 62
     0
 10
159.0431215269044
 20
911.9033635733313
 30
0.0
 11
157.3764548602377
 21
911.9033635733313
 31
0.0
 12
158.2097881935711
 22
916.9033635733313
 32
0.0
 13
158.2097881935711
 23
916.9033635733313
 33
0.0
  0
SOLID
  5
2504
  8
DIMENSIONS
 62
     0
 10
157.3764548602377
 20
696.9033635733313
 30
0.0
 11
159.0431215269044
 21
696.9033635733313
 31
0.0
 12
158.2097881935711
 22
691.9033635733313
 32
0.0
 13
158.2097881935711
 23
691.9033635733313
 33
0.0
  0
TEXT
  5
2505
  8
DIMENSIONS
  6
CONTINUOUS
 62
     5
 10
155.8147881935711
 20
789.0083635733313
 30
0.0
 40
5.0
  1
225 [8.86]
 50
90.0
  0
POINT
  5
2506
  8
DEFPOINTS
 62
     0
 10
184.8157182587148
 20
916.9033635733313
 30
0.0
  0
POINT
  5
2507
  8
DEFPOINTS
 62
     0
 10
184.8157182587149
 20
691.9033635733313
 30
0.0
  0
POINT
  5
2508
  8
DEFPOINTS
 62
     0
 10
158.2097881935711
 20
691.9033635733313
 30
0.0
  0
ENDBLK
  5
24FF
  8
0
  0
BLOCK
  8
0
  2
*D405
 70
     1
 10
0.0
 20
0.0
 30
0.0
  3
*D405
  1

  0
LINE
  5
250F
  8
DIMENSIONS
  6
BYBLOCK
 62
     0
 10
183.3157182587149
 20
691.9033635733313
 30
0.0
 11
158.0297881935711
 21
691.9033635733313
 31
0.0
  0
LINE
  5
2510
  8
DIMENSIONS
  6
BYBLOCK
 62
     0
 10
183.3157182587149
 20
466.9033635733313
 30
0.0
 11
158.0297881935711
 21
466.9033635733313
 31
0.0
  0
LINE
  5
2511
  8
DIMENSIONS
  6
BYBLOCK
 62
     0
 10
158.2097881935711
 20
686.9033635733313
 30
0.0
 11
158.2097881935711
 21
471.9033635733313
 31
0.0
  0
SOLID
  5
2512
  8
DIMENSIONS
 62
     0
 10
159.0431215269044
 20
686.9033635733313
 30
0.0
 11
157.3764548602377
 21
686.9033635733313
 31
0.0
 12
158.2097881935711
 22
691.9033635733313
 32
0.0
 13
158.2097881935711
 23
691.9033635733313
 33
0.0
  0
SOLID
  5
2513
  8
DIMENSIONS
 62
     0
 10
157.3764548602377
 20
471.9033635733313
 30
0.0
 11
159.0431215269044
 21
471.9033635733313
 31
0.0
 12
158.2097881935711
 22
466.9033635733313
 32
0.0
 13
158.2097881935711
 23
466.9033635733313
 33
0.0
  0
TEXT
  5
2514
  8
DIMENSIONS
  6
CONTINUOUS
 62
     5
 10
155.8147881935711
 20
564.0083635733313
 30
0.0
 40
5.0
  1
225 [8.86]
 50
90.0
  0
POINT
  5
2515
  8
DEFPOINTS
 62
     0
 10
184.8157182587149
 20
691.9033635733313
 30
0.0
  0
POINT
  5
2516
  8
DEFPOINTS
 62
     0
 10
184.8157182587149
 20
466.9033635733313
 30
0.0
  0
POINT
  5
2517
  8
DEFPOINTS
 62
     0
 10
158.2097881935711
 20
466.9033635733313
 30
0.0
  0
ENDBLK
  5
250E
  8
0
  0
BLOCK
  8
0
  2
*D406
 70
     1
 10
0.0
 20
0.0
 30
0.0
  3
*D406
  1

  0
LINE
  5
251E
  8
DIMENSIONS
  6
BYBLOCK
 62
     0
 10
183.3157182587149
 20
466.9033635733313
 30
0.0
 11
158.0297881935711
 21
466.9033635733313
 31
0.0
  0
LINE
  5
251F
  8
DIMENSIONS
  6
BYBLOCK
 62
     0
 10
173.3157182587149
 20
416.9033635733313
 30
0.0
 11
158.0297881935711
 21
416.9033635733313
 31
0.0
  0
LINE
  5
2520
  8
DIMENSIONS
  6
BYBLOCK
 62
     0
 10
158.2097881935711
 20
461.9033635733313
 30
0.0
 11
158.2097881935711
 21
421.9033635733313
 31
0.0
  0
SOLID
  5
2521
  8
DIMENSIONS
 62
     0
 10
159.0431215269044
 20
461.9033635733313
 30
0.0
 11
157.3764548602377
 21
461.9033635733313
 31
0.0
 12
158.2097881935711
 22
466.9033635733313
 32
0.0
 13
158.2097881935711
 23
466.9033635733313
 33
0.0
  0
SOLID
  5
2522
  8
DIMENSIONS
 62
     0
 10
157.3764548602377
 20
421.9033635733313
 30
0.0
 11
159.0431215269044
 21
421.9033635733313
 31
0.0
 12
158.2097881935711
 22
416.9033635733313
 32
0.0
 13
158.2097881935711
 23
416.9033635733313
 33
0.0
  0
TEXT
  5
2523
  8
DIMENSIONS
  6
CONTINUOUS
 62
     5
 10
155.8147881935711
 20
428.4058635733313
 30
0.0
 40
5.0
  1
50 [1.97]
 50
90.0
  0
POINT
  5
2524
  8
DEFPOINTS
 62
     0
 10
184.8157182587149
 20
466.9033635733313
 30
0.0
  0
POINT
  5
2525
  8
DEFPOINTS
 62
     0
 10
174.8157182587149
 20
416.9033635733313
 30
0.0
  0
POINT
  5
2526
  8
DEFPOINTS
 62
     0
 10
158.2097881935711
 20
416.9033635733313
 30
0.0
  0
ENDBLK
  5
251D
  8
0
  0
BLOCK
  8
0
  2
*D407
 70
     1
 10
0.0
 20
0.0
 30
0.0
  3
*D407
  1

  0
LINE
  5
2543
  8
DIMENSIONS
  6
BYBLOCK
 62
     0
 10
1136.315718258715
 20
2316.903363573331
 30
0.0
 11
1153.512922929298
 21
2316.903363573331
 31
0.0
  0
LINE
  5
2544
  8
DIMENSIONS
  6
BYBLOCK
 62
     0
 10
1061.315718258716
 20
2271.903363573331
 30
0.0
 11
1153.512922929298
 21
2271.903363573331
 31
0.0
  0
LINE
  5
2545
  8
DIMENSIONS
  6
BYBLOCK
 62
     0
 10
1153.332922929298
 20
2311.903363573331
 30
0.0
 11
1153.332922929298
 21
2276.903363573331
 31
0.0
  0
SOLID
  5
2546
  8
DIMENSIONS
 62
     0
 10
1154.166256262631
 20
2311.903363573331
 30
0.0
 11
1152.499589595965
 21
2311.903363573331
 31
0.0
 12
1153.332922929298
 22
2316.903363573331
 32
0.0
 13
1153.332922929298
 23
2316.903363573331
 33
0.0
  0
SOLID
  5
2547
  8
DIMENSIONS
 62
     0
 10
1152.499589595965
 20
2276.903363573331
 30
0.0
 11
1154.166256262631
 21
2276.903363573331
 31
0.0
 12
1153.332922929298
 22
2271.903363573331
 32
0.0
 13
1153.332922929298
 23
2271.903363573331
 33
0.0
  0
TEXT
  5
2548
  8
DIMENSIONS
  6
CONTINUOUS
 62
     5
 10
1150.937922929298
 20
2281.005863573331
 30
0.0
 40
5.0
  1
45 [1.77]
 50
90.0
  0
POINT
  5
2549
  8
DEFPOINTS
 62
     0
 10
1134.815718258715
 20
2316.903363573331
 30
0.0
  0
POINT
  5
254A
  8
DEFPOINTS
 62
     0
 10
1059.815718258716
 20
2271.903363573331
 30
0.0
  0
POINT
  5
254B
  8
DEFPOINTS
 62
     0
 10
1153.332922929298
 20
2271.903363573331
 30
0.0
  0
ENDBLK
  5
2542
  8
0
  0
BLOCK
  8
0
  2
*D408
 70
     1
 10
0.0
 20
0.0
 30
0.0
  3
*D408
  1

  0
LINE
  5
2552
  8
DIMENSIONS
  6
BYBLOCK
 62
     0
 10
1061.315718258716
 20
2271.903363573331
 30
0.0
 11
1153.512922929298
 21
2271.903363573331
 31
0.0
  0
LINE
  5
2553
  8
DIMENSIONS
  6
BYBLOCK
 62
     0
 10
1061.315718258716
 20
1891.903363573331
 30
0.0
 11
1153.512922929298
 21
1891.903363573331
 31
0.0
  0
LINE
  5
2554
  8
DIMENSIONS
  6
BYBLOCK
 62
     0
 10
1153.332922929298
 20
2266.903363573331
 30
0.0
 11
1153.332922929298
 21
1896.903363573331
 31
0.0
  0
SOLID
  5
2555
  8
DIMENSIONS
 62
     0
 10
1154.166256262631
 20
2266.903363573331
 30
0.0
 11
1152.499589595965
 21
2266.903363573331
 31
0.0
 12
1153.332922929298
 22
2271.903363573331
 32
0.0
 13
1153.332922929298
 23
2271.903363573331
 33
0.0
  0
SOLID
  5
2556
  8
DIMENSIONS
 62
     0
 10
1152.499589595965
 20
1896.903363573331
 30
0.0
 11
1154.166256262631
 21
1896.903363573331
 31
0.0
 12
1153.332922929298
 22
1891.903363573331
 32
0.0
 13
1153.332922929298
 23
1891.903363573331
 33
0.0
  0
TEXT
  5
2557
  8
DIMENSIONS
  6
CONTINUOUS
 62
     5
 10
1150.937922929298
 20
2064.523363573331
 30
0.0
 40
5.0
  1
380 [14.96]
 50
90.0
  0
POINT
  5
2558
  8
DEFPOINTS
 62
     0
 10
1059.815718258716
 20
2271.903363573331
 30
0.0
  0
POINT
  5
2559
  8
DEFPOINTS
 62
     0
 10
1059.815718258716
 20
1891.903363573331
 30
0.0
  0
POINT
  5
255A
  8
DEFPOINTS
 62
     0
 10
1153.332922929298
 20
1891.903363573331
 30
0.0
  0
ENDBLK
  5
2551
  8
0
  0
BLOCK
  8
0
  2
*D409
 70
     1
 10
0.0
 20
0.0
 30
0.0
  3
*D409
  1

  0
LINE
  5
2561
  8
DIMENSIONS
  6
BYBLOCK
 62
     0
 10
1061.315718258716
 20
1891.903363573331
 30
0.0
 11
1153.512922929298
 21
1891.903363573331
 31
0.0
  0
LINE
  5
2562
  8
DIMENSIONS
  6
BYBLOCK
 62
     0
 10
1061.315718258716
 20
916.9033635733314
 30
0.0
 11
1153.512922929298
 21
916.9033635733314
 31
0.0
  0
LINE
  5
2563
  8
DIMENSIONS
  6
BYBLOCK
 62
     0
 10
1153.332922929298
 20
1886.903363573331
 30
0.0
 11
1153.332922929298
 21
921.9033635733314
 31
0.0
  0
SOLID
  5
2564
  8
DIMENSIONS
 62
     0
 10
1154.166256262631
 20
1886.903363573331
 30
0.0
 11
1152.499589595965
 21
1886.903363573331
 31
0.0
 12
1153.332922929298
 22
1891.903363573331
 32
0.0
 13
1153.332922929298
 23
1891.903363573331
 33
0.0
  0
SOLID
  5
2565
  8
DIMENSIONS
 62
     0
 10
1152.499589595965
 20
921.9033635733314
 30
0.0
 11
1154.166256262631
 21
921.9033635733314
 31
0.0
 12
1153.332922929298
 22
916.9033635733314
 32
0.0
 13
1153.332922929298
 23
916.9033635733314
 33
0.0
  0
TEXT
  5
2566
  8
DIMENSIONS
  6
CONTINUOUS
 62
     5
 10
1150.937922929298
 20
1387.025863573331
 30
0.0
 40
5.0
  1
975 [38.39]
 50
90.0
  0
POINT
  5
2567
  8
DEFPOINTS
 62
     0
 10
1059.815718258716
 20
1891.903363573331
 30
0.0
  0
POINT
  5
2568
  8
DEFPOINTS
 62
     0
 10
1059.815718258716
 20
916.9033635733314
 30
0.0
  0
POINT
  5
2569
  8
DEFPOINTS
 62
     0
 10
1153.332922929298
 20
916.9033635733314
 30
0.0
  0
ENDBLK
  5
2560
  8
0
  0
BLOCK
  8
0
  2
*D410
 70
     1
 10
0.0
 20
0.0
 30
0.0
  3
*D410
  1

  0
LINE
  5
2570
  8
DIMENSIONS
  6
BYBLOCK
 62
     0
 10
1061.315718258716
 20
916.9033635733314
 30
0.0
 11
1153.512922929298
 21
916.9033635733314
 31
0.0
  0
LINE
  5
2571
  8
DIMENSIONS
  6
BYBLOCK
 62
     0
 10
1061.315718258716
 20
526.9033635733313
 30
0.0
 11
1153.512922929298
 21
526.9033635733313
 31
0.0
  0
LINE
  5
2572
  8
DIMENSIONS
  6
BYBLOCK
 62
     0
 10
1153.332922929298
 20
911.9033635733314
 30
0.0
 11
1153.332922929298
 21
531.9033635733313
 31
0.0
  0
SOLID
  5
2573
  8
DIMENSIONS
 62
     0
 10
1154.166256262631
 20
911.9033635733314
 30
0.0
 11
1152.499589595965
 21
911.9033635733314
 31
0.0
 12
1153.332922929298
 22
916.9033635733314
 32
0.0
 13
1153.332922929298
 23
916.9033635733314
 33
0.0
  0
SOLID
  5
2574
  8
DIMENSIONS
 62
     0
 10
1152.499589595965
 20
531.9033635733313
 30
0.0
 11
1154.166256262631
 21
531.9033635733313
 31
0.0
 12
1153.332922929298
 22
526.9033635733313
 32
0.0
 13
1153.332922929298
 23
526.9033635733313
 33
0.0
  0
TEXT
  5
2575
  8
DIMENSIONS
  6
CONTINUOUS
 62
     5
 10
1150.937922929298
 20
704.5233635733312
 30
0.0
 40
5.0
  1
390 [15.35]
 50
90.0
  0
POINT
  5
2576
  8
DEFPOINTS
 62
     0
 10
1059.815718258716
 20
916.9033635733314
 30
0.0
  0
POINT
  5
2577
  8
DEFPOINTS
 62
     0
 10
1059.815718258716
 20
526.9033635733313
 30
0.0
  0
POINT
  5
2578
  8
DEFPOINTS
 62
     0
 10
1153.332922929298
 20
526.9033635733313
 30
0.0
  0
ENDBLK
  5
256F
  8
0
  0
BLOCK
  8
0
  2
*D411
 70
     1
 10
0.0
 20
0.0
 30
0.0
  3
*D411
  1

  0
LINE
  5
257F
  8
DIMENSIONS
  6
BYBLOCK
 62
     0
 10
1061.315718258716
 20
526.9033635733313
 30
0.0
 11
1153.512922929298
 21
526.9033635733313
 31
0.0
  0
LINE
  5
2580
  8
DIMENSIONS
  6
BYBLOCK
 62
     0
 10
1136.315718258715
 20
416.9033635733313
 30
0.0
 11
1153.512922929298
 21
416.9033635733313
 31
0.0
  0
LINE
  5
2581
  8
DIMENSIONS
  6
BYBLOCK
 62
     0
 10
1153.332922929298
 20
521.9033635733313
 30
0.0
 11
1153.332922929298
 21
421.9033635733313
 31
0.0
  0
SOLID
  5
2582
  8
DIMENSIONS
 62
     0
 10
1154.166256262631
 20
521.9033635733313
 30
0.0
 11
1152.499589595965
 21
521.9033635733313
 31
0.0
 12
1153.332922929298
 22
526.9033635733313
 32
0.0
 13
1153.332922929298
 23
526.9033635733313
 33
0.0
  0
SOLID
  5
2583
  8
DIMENSIONS
 62
     0
 10
1152.499589595965
 20
421.9033635733313
 30
0.0
 11
1154.166256262631
 21
421.9033635733313
 31
0.0
 12
1153.332922929298
 22
416.9033635733313
 32
0.0
 13
1153.332922929298
 23
416.9033635733313
 33
0.0
  0
TEXT
  5
2584
  8
DIMENSIONS
  6
CONTINUOUS
 62
     5
 10
1150.937922929298
 20
456.2308635733314
 30
0.0
 40
5.0
  1
110 [4.33]
 50
90.0
  0
POINT
  5
2585
  8
DEFPOINTS
 62
     0
 10
1059.815718258716
 20
526.9033635733313
 30
0.0
  0
POINT
  5
2586
  8
DEFPOINTS
 62
     0
 10
1134.815718258715
 20
416.9033635733313
 30
0.0
  0
POINT
  5
2587
  8
DEFPOINTS
 62
     0
 10
1153.332922929298
 20
416.9033635733313
 30
0.0
  0
ENDBLK
  5
257E
  8
0
  0
BLOCK
  8
0
  2
*D412
 70
     1
 10
0.0
 20
0.0
 30
0.0
  3
*D412
  1

  0
LINE
  5
258E
  8
DIMENSIONS
  6
BYBLOCK
 62
     0
 10
1114.815719137807
 20
466.8991705048907
 30
0.0
 11
1070.530723030862
 21
466.8806015013297
 31
0.0
  0
TEXT
  5
258F
  8
DIMENSIONS
  6
CONTINUOUS
 62
     5
 10
1071.24968518313
 20
469.3559031846819
 30
0.0
 40
5.0
  1
Ø10 [Ø0.39]
 50
0.0240245131531003
  0
SOLID
  5
2590
  8
DIMENSIONS
 62
     0
 10
1114.816068560176
 20
466.065837244815
 30
0.0
 11
1114.815369715437
 21
467.7325037649665
 31
0.0
 12
1119.815718698261
 22
466.9012670391078
 32
0.0
 13
1119.815718698261
 23
466.9012670391078
 33
0.0
  0
LINE
  5
2591
  8
DIMENSIONS
  6
BYBLOCK
 62
     0
 10
1122.315718258716
 20
466.903363573325
 30
0.0
 11
1127.315718258716
 21
466.903363573325
 31
0.0
  0
LINE
  5
2592
  8
DIMENSIONS
  6
BYBLOCK
 62
     0
 10
1124.815718258716
 20
464.403363573325
 30
0.0
 11
1124.815718258716
 21
469.403363573325
 31
0.0
  0
POINT
  5
2593
  8
DEFPOINTS
 62
     0
 10
1119.815718698261
 20
466.9012670391078
 30
0.0
  0
POINT
  5
2594
  8
DEFPOINTS
 62
     0
 10
1129.81571781917
 20
466.9054601075421
 30
0.0
  0
ENDBLK
  5
258D
  8
0
  0
BLOCK
  8
0
  2
*D413
 70
     1
 10
0.0
 20
0.0
 30
0.0
  3
*D413
  1

  0
LINE
  5
25C8
  8
DIMENSIONS
  6
BYBLOCK
 62
     0
 10
173.3157182587149
 20
416.9033635733313
 30
0.0
 11
140.406045904685
 21
416.9033635733313
 31
0.0
  0
LINE
  5
25C9
  8
DIMENSIONS
  6
BYBLOCK
 62
     0
 10
173.3157182587149
 20
2316.903363573331
 30
0.0
 11
140.4060459046851
 21
2316.903363573331
 31
0.0
  0
LINE
  5
25CA
  8
DIMENSIONS
  6
BYBLOCK
 62
     0
 10
140.586045904685
 20
421.9033635733313
 30
0.0
 11
140.5860459046851
 21
2311.903363573331
 31
0.0
  0
SOLID
  5
25CB
  8
DIMENSIONS
 62
     0
 10
139.7527125713517
 20
421.9033635733313
 30
0.0
 11
141.4193792380184
 21
421.9033635733313
 31
0.0
 12
140.586045904685
 22
416.9033635733313
 32
0.0
 13
140.586045904685
 23
416.9033635733313
 33
0.0
  0
SOLID
  5
25CC
  8
DIMENSIONS
 62
     0
 10
141.4193792380185
 20
2311.903363573331
 30
0.0
 11
139.7527125713518
 21
2311.903363573331
 31
0.0
 12
140.5860459046851
 22
2316.903363573331
 32
0.0
 13
140.5860459046851
 23
2316.903363573331
 33
0.0
  0
TEXT
  5
25CD
  8
DIMENSIONS
  6
CONTINUOUS
 62
     5
 10
138.1910459046849
 20
1347.350863573331
 30
0.0
 40
5.0
  1
1900 [74.80]
 50
90.0
  0
POINT
  5
25CE
  8
DEFPOINTS
 62
     0
 10
174.8157182587149
 20
416.9033635733313
 30
0.0
  0
POINT
  5
25CF
  8
DEFPOINTS
 62
     0
 10
174.8157182587149
 20
2316.903363573331
 30
0.0
  0
POINT
  5
25D0
  8
DEFPOINTS
 62
     0
 10
140.5860459046851
 20
2316.903363573331
 30
0.0
  0
ENDBLK
  5
25C7
  8
0
  0
ENDSEC
  0
SECTION
  2
ENTITIES
  0
POLYLINE
  5
2409
  8
0
 66
     1
 10
0.0
 20
0.0
 30
0.0
 70
     1
  0
VERTEX
  5
2605
  8
0
 10
249.8157182587157
 20
526.9033635733313
 30
0.0
  0
VERTEX
  5
2606
  8
0
 10
249.8157182587157
 20
916.9033635733314
 30
0.0
  0
VERTEX
  5
2607
  8
0
 10
1059.815718258716
 20
916.9033635733314
 30
0.0
  0
VERTEX
  5
2608
  8
0
 10
1059.815718258716
 20
526.9033635733313
 30
0.0
  0
SEQEND
  5
2615
  8
0
  0
POLYLINE
  5
240A
  8
0
 66
     1
 10
0.0
 20
0.0
 30
0.0
 70
     1
  0
VERTEX
  5
2609
  8
0
 10
249.8157182587157
 20
1891.903363573331
 30
0.0
  0
VERTEX
  5
260A
  8
0
 10
249.8157182587157
 20
2271.903363573331
 30
0.0
  0
VERTEX
  5
260B
  8
0
 10
1059.815718258716
 20
2271.903363573331
 30
0.0
  0
VERTEX
  5
260C
  8
0
 10
1059.815718258716
 20
1891.903363573331
 30
0.0
  0
SEQEND
  5
2616
  8
0
  0
POLYLINE
  5
240B
  8
0
 66
     1
 10
0.0
 20
0.0
 30
0.0
 70
     1
  0
VERTEX
  5
260D
  8
0
 10
174.8157182587149
 20
416.9033635733313
 30
0.0
  0
VERTEX
  5
260E
  8
0
 10
174.8157182587149
 20
2316.903363573331
 30
0.0
  0
VERTEX
  5
260F
  8
0
 10
1134.815718258715
 20
2316.903363573331
 30
0.0
  0
VERTEX
  5
2610
  8
0
 10
1134.815718258715
 20
416.9033635733313
 30
0.0
  0
SEQEND
  5
2617
  8
0
  0
CIRCLE
  5
240C
  8
0
 10
184.8157182587149
 20
466.9033635733313
 30
0.0
 40
5.0
  0
CIRCLE
  5
240D
  8
0
 10
1124.815718258716
 20
466.903363573325
 30
0.0
 40
5.0
  0
CIRCLE
  5
240E
  8
0
 10
184.8157182587149
 20
466.9033635733313
 30
0.0
 40
5.0
  0
CIRCLE
  5
240F
  8
0
 10
1124.815718258716
 20
466.903363573325
 30
0.0
 40
5.0
  0
CIRCLE
  5
2410
  8
0
 10
184.8157182587149
 20
466.9033635733313
 30
0.0
 40
5.0
  0
CIRCLE
  5
2411
  8
0
 10
1124.815718258716
 20
466.903363573325
 30
0.0
 40
5.0
  0
CIRCLE
  5
2412
  8
0
 10
184.8157182587149
 20
466.9033635733313
 30
0.0
 40
5.0
  0
CIRCLE
  5
2413
  8
0
 10
1124.815718258716
 20
466.903363573325
 30
0.0
 40
5.0
  0
CIRCLE
  5
2414
  8
0
 10
184.8157182587149
 20
691.9033635733313
 30
0.0
 40
5.0
  0
CIRCLE
  5
2415
  8
0
 10
1124.815718258716
 20
691.9033635733249
 30
0.0
 40
5.0
  0
CIRCLE
  5
2416
  8
0
 10
184.8157182587149
 20
691.9033635733313
 30
0.0
 40
5.0
  0
CIRCLE
  5
2417
  8
0
 10
1124.815718258716
 20
691.9033635733249
 30
0.0
 40
5.0
  0
CIRCLE
  5
2418
  8
0
 10
184.8157182587149
 20
691.9033635733313
 30
0.0
 40
5.0
  0
CIRCLE
  5
2419
  8
0
 10
1124.815718258716
 20
691.9033635733249
 30
0.0
 40
5.0
  0
CIRCLE
  5
241A
  8
0
 10
184.8157182587149
 20
691.9033635733313
 30
0.0
 40
5.0
  0
CIRCLE
  5
241B
  8
0
 10
1124.815718258716
 20
691.9033635733249
 30
0.0
 40
5.0
  0
CIRCLE
  5
241C
  8
0
 10
184.8157182587148
 20
916.9033635733313
 30
0.0
 40
5.0
  0
CIRCLE
  5
241D
  8
0
 10
1124.815718258716
 20
916.9033635733249
 30
0.0
 40
5.0
  0
CIRCLE
  5
241E
  8
0
 10
184.8157182587148
 20
916.9033635733313
 30
0.0
 40
5.0
  0
CIRCLE
  5
241F
  8
0
 10
1124.815718258716
 20
916.9033635733249
 30
0.0
 40
5.0
  0
CIRCLE
  5
2420
  8
0
 10
184.8157182587148
 20
916.9033635733313
 30
0.0
 40
5.0
  0
CIRCLE
  5
2421
  8
0
 10
1124.815718258716
 20
916.9033635733249
 30
0.0
 40
5.0
  0
CIRCLE
  5
2422
  8
0
 10
184.8157182587148
 20
916.9033635733313
 30
0.0
 40
5.0
  0
CIRCLE
  5
2423
  8
0
 10
1124.815718258716
 20
916.9033635733249
 30
0.0
 40
5.0
  0
CIRCLE
  5
2424
  8
0
 10
184.8157182587148
 20
1141.903363573331
 30
0.0
 40
5.0
  0
CIRCLE
  5
2425
  8
0
 10
1124.815718258716
 20
1141.903363573325
 30
0.0
 40
5.0
  0
CIRCLE
  5
2426
  8
0
 10
184.8157182587148
 20
1141.903363573331
 30
0.0
 40
5.0
  0
CIRCLE
  5
2427
  8
0
 10
1124.815718258716
 20
1141.903363573325
 30
0.0
 40
5.0
  0
CIRCLE
  5
2428
  8
0
 10
184.8157182587148
 20
1141.903363573331
 30
0.0
 40
5.0
  0
CIRCLE
  5
2429
  8
0
 10
1124.815718258716
 20
1141.903363573325
 30
0.0
 40
5.0
  0
CIRCLE
  5
242A
  8
0
 10
184.8157182587148
 20
1141.903363573331
 30
0.0
 40
5.0
  0
CIRCLE
  5
242B
  8
0
 10
1124.815718258716
 20
1141.903363573325
 30
0.0
 40
5.0
  0
CIRCLE
  5
242C
  8
0
 10
184.8157182587147
 20
1366.903363573331
 30
0.0
 40
5.0
  0
CIRCLE
  5
242D
  8
0
 10
1124.815718258715
 20
1366.903363573325
 30
0.0
 40
5.0
  0
CIRCLE
  5
242E
  8
0
 10
184.8157182587147
 20
1366.903363573331
 30
0.0
 40
5.0
  0
CIRCLE
  5
242F
  8
0
 10
1124.815718258715
 20
1366.903363573325
 30
0.0
 40
5.0
  0
CIRCLE
  5
2430
  8
0
 10
184.8157182587147
 20
1366.903363573331
 30
0.0
 40
5.0
  0
CIRCLE
  5
2431
  8
0
 10
1124.815718258715
 20
1366.903363573325
 30
0.0
 40
5.0
  0
CIRCLE
  5
2432
  8
0
 10
184.8157182587147
 20
1366.903363573331
 30
0.0
 40
5.0
  0
CIRCLE
  5
2433
  8
0
 10
1124.815718258715
 20
1366.903363573325
 30
0.0
 40
5.0
  0
CIRCLE
  5
2434
  8
0
 10
184.8157182587146
 20
1591.903363573331
 30
0.0
 40
5.0
  0
CIRCLE
  5
2435
  8
0
 10
1124.815718258715
 20
1591.903363573325
 30
0.0
 40
5.0
  0
CIRCLE
  5
2436
  8
0
 10
184.8157182587146
 20
1591.903363573331
 30
0.0
 40
5.0
  0
CIRCLE
  5
2437
  8
0
 10
1124.815718258715
 20
1591.903363573325
 30
0.0
 40
5.0
  0
CIRCLE
  5
2438
  8
0
 10
184.8157182587146
 20
1591.903363573331
 30
0.0
 40
5.0
  0
CIRCLE
  5
2439
  8
0
 10
1124.815718258715
 20
1591.903363573325
 30
0.0
 40
5.0
  0
CIRCLE
  5
243A
  8
0
 10
184.8157182587146
 20
1591.903363573331
 30
0.0
 40
5.0
  0
CIRCLE
  5
243B
  8
0
 10
1124.815718258715
 20
1591.903363573325
 30
0.0
 40
5.0
  0
CIRCLE
  5
243C
  8
0
 10
184.8157182587146
 20
1816.903363573331
 30
0.0
 40
5.0
  0
CIRCLE
  5
243D
  8
0
 10
1124.815718258715
 20
1816.903363573325
 30
0.0
 40
5.0
  0
CIRCLE
  5
243E
  8
0
 10
184.8157182587146
 20
1816.903363573331
 30
0.0
 40
5.0
  0
CIRCLE
  5
243F
  8
0
 10
1124.815718258715
 20
1816.903363573325
 30
0.0
 40
5.0
  0
CIRCLE
  5
2440
  8
0
 10
184.8157182587146
 20
1816.903363573331
 30
0.0
 40
5.0
  0
CIRCLE
  5
2441
  8
0
 10
1124.815718258715
 20
1816.903363573325
 30
0.0
 40
5.0
  0
CIRCLE
  5
2442
  8
0
 10
184.8157182587146
 20
1816.903363573331
 30
0.0
 40
5.0
  0
CIRCLE
  5
2443
  8
0
 10
1124.815718258715
 20
1816.903363573325
 30
0.0
 40
5.0
  0
CIRCLE
  5
2444
  8
0
 10
184.8157182587145
 20
2041.903363573331
 30
0.0
 40
5.0
  0
CIRCLE
  5
2445
  8
0
 10
1124.815718258715
 20
2041.903363573325
 30
0.0
 40
5.0
  0
CIRCLE
  5
2446
  8
0
 10
184.8157182587145
 20
2041.903363573331
 30
0.0
 40
5.0
  0
CIRCLE
  5
2447
  8
0
 10
1124.815718258715
 20
2041.903363573325
 30
0.0
 40
5.0
  0
CIRCLE
  5
2448
  8
0
 10
184.8157182587145
 20
2041.903363573331
 30
0.0
 40
5.0
  0
CIRCLE
  5
2449
  8
0
 10
1124.815718258715
 20
2041.903363573325
 30
0.0
 40
5.0
  0
CIRCLE
  5
244A
  8
0
 10
184.8157182587145
 20
2041.903363573331
 30
0.0
 40
5.0
  0
CIRCLE
  5
244B
  8
0
 10
1124.815718258715
 20
2041.903363573325
 30
0.0
 40
5.0
  0
CIRCLE
  5
244C
  8
0
 10
184.8157182587145
 20
2266.903363573331
 30
0.0
 40
5.0
  0
CIRCLE
  5
244D
  8
0
 10
1124.815718258715
 20
2266.903363573325
 30
0.0
 40
5.0
  0
CIRCLE
  5
244E
  8
0
 10
184.8157182587145
 20
2266.903363573331
 30
0.0
 40
5.0
  0
CIRCLE
  5
244F
  8
0
 10
1124.815718258715
 20
2266.903363573325
 30
0.0
 40
5.0
  0
CIRCLE
  5
2450
  8
0
 10
184.8157182587145
 20
2266.903363573331
 30
0.0
 40
5.0
  0
CIRCLE
  5
2451
  8
0
 10
1124.815718258715
 20
2266.903363573325
 30
0.0
 40
5.0
  0
CIRCLE
  5
2452
  8
0
 10
184.8157182587145
 20
2266.903363573331
 30
0.0
 40
5.0
  0
CIRCLE
  5
2453
  8
0
 10
1124.815718258715
 20
2266.903363573325
 30
0.0
 40
5.0
  0
INSERT
  5
2454
  8
0
  2
*X392
 10
204.8157182587165
 20
416.9033635733313
 30
0.0
  0
DIMENSION
  5
2455
  8
DIMENSIONS
  6
BYBLOCK
  2
*D393
 10
1059.815718258716
 20
2333.766391122704
 30
0.0
 11
654.8157182587156
 21
2337.968891122704
 31
0.0
 70
    32
  3
DUAL-DIM
 13
249.8157182587157
 23
2271.903363573331
 33
0.0
 14
1059.815718258716
 24
2271.903363573331
 34
0.0
1001
ACAD
1000
DSTYLE
1002
{
1070
   287
1070
     5
1070
   279
1070
     2
1002
}
  0
DIMENSION
  5
2464
  8
DIMENSIONS
  6
BYBLOCK
  2
*D394
 10
184.8157182587145
 20
2351.048691619741
 30
0.0
 11
654.8157182587148
 21
2355.251191619741
 31
0.0
 70
    32
  3
DUAL-DIM
 13
1124.815718258715
 23
2266.903363573325
 33
0.0
 14
184.8157182587145
 24
2266.903363573331
 34
0.0
1001
ACAD
1000
DSTYLE
1002
{
1070
   287
1070
     5
1070
   279
1070
     2
1002
}
  0
DIMENSION
  5
2473
  8
DIMENSIONS
  6
BYBLOCK
  2
*D395
 10
1134.815718258715
 20
2367.975899463899
 30
0.0
 11
654.8157182587149
 21
2372.178399463899
 31
0.0
 70
    32
  3
DUAL-DIM
 13
174.8157182587149
 23
2316.903363573331
 33
0.0
 14
1134.815718258715
 24
2316.903363573331
 34
0.0
1001
ACAD
1000
DSTYLE
1002
{
1070
   287
1070
     5
1070
   279
1070
     2
1002
}
  0
DIMENSION
  5
2482
  8
DIMENSIONS
  6
BYBLOCK
  2
*D396
 10
158.2097881935711
 20
2266.903363573331
 30
0.0
 11
154.0072881935712
 21
2291.903363573331
 31
0.0
 70
    32
  3
DUAL-DIM
 13
174.8157182587149
 23
2316.903363573331
 33
0.0
 14
174.8157182587149
 24
2266.903363573331
 34
0.0
 50
90.0
1001
ACAD
1000
DSTYLE
1002
{
1070
   287
1070
     5
1070
   279
1070
     2
1002
}
  0
DIMENSION
  5
2491
  8
DIMENSIONS
  6
BYBLOCK
  2
*D397
 10
158.2097881935711
 20
2041.903363573331
 30
0.0
 11
154.0072881935712
 21
2154.403363573331
 31
0.0
 70
    32
  3
DUAL-DIM
 13
174.8157182587149
 23
2266.903363573331
 33
0.0
 14
184.8157182587145
 24
2041.903363573331
 34
0.0
 50
90.0
1001
ACAD
1000
DSTYLE
1002
{
1070
   287
1070
     5
1070
   279
1070
     2
1002
}
  0
DIMENSION
  5
24A0
  8
DIMENSIONS
  6
BYBLOCK
  2
*D398
 10
158.2097881935711
 20
1816.903363573331
 30
0.0
 11
154.007288193571
 21
1929.403363573331
 31
0.0
 70
    32
  3
DUAL-DIM
 13
184.8157182587145
 23
2041.903363573331
 33
0.0
 14
184.8157182587146
 24
1816.903363573331
 34
0.0
 50
90.0
1001
ACAD
1000
DSTYLE
1002
{
1070
   287
1070
     5
1070
   279
1070
     2
1002
}
  0
DIMENSION
  5
24AF
  8
DIMENSIONS
  6
BYBLOCK
  2
*D399
 10
158.2097881935711
 20
1591.903363573331
 30
0.0
 11
154.007288193571
 21
1704.403363573331
 31
0.0
 70
    32
  3
DUAL-DIM
 13
184.8157182587146
 23
1816.903363573331
 33
0.0
 14
184.8157182587146
 24
1591.903363573331
 34
0.0
 50
90.0
1001
ACAD
1000
DSTYLE
1002
{
1070
   287
1070
     5
1070
   279
1070
     2
1002
}
  0
DIMENSION
  5
24CD
  8
DIMENSIONS
  6
BYBLOCK
  2
*D401
 10
158.2097881935711
 20
1366.903363573331
 30
0.0
 11
154.007288193571
 21
1479.403363573331
 31
0.0
 70
    32
  3
DUAL-DIM
 13
184.8157182587146
 23
1591.903363573331
 33
0.0
 14
184.8157182587147
 24
1366.903363573331
 34
0.0
 50
90.0
1001
ACAD
1000
DSTYLE
1002
{
1070
   287
1070
     5
1070
   279
1070
     2
1002
}
  0
DIMENSION
  5
24DC
  8
DIMENSIONS
  6
BYBLOCK
  2
*D402
 10
158.2097881935711
 20
1141.903363573331
 30
0.0
 11
154.007288193571
 21
1254.403363573331
 31
0.0
 70
    32
  3
DUAL-DIM
 13
184.8157182587147
 23
1366.903363573331
 33
0.0
 14
184.8157182587148
 24
1141.903363573331
 34
0.0
 50
90.0
1001
ACAD
1000
DSTYLE
1002
{
1070
   287
1070
     5
1070
   279
1070
     2
1002
}
  0
DIMENSION
  5
24EB
  8
DIMENSIONS
  6
BYBLOCK
  2
*D403
 10
158.2097881935711
 20
916.9033635733313
 30
0.0
 11
154.007288193571
 21
1029.403363573331
 31
0.0
 70
    32
  3
DUAL-DIM
 13
184.8157182587148
 23
1141.903363573331
 33
0.0
 14
184.8157182587148
 24
916.9033635733313
 34
0.0
 50
90.0
1001
ACAD
1000
DSTYLE
1002
{
1070
   287
1070
     5
1070
   279
1070
     2
1002
}
  0
DIMENSION
  5
24FA
  8
DIMENSIONS
  6
BYBLOCK
  2
*D404
 10
158.2097881935711
 20
691.9033635733313
 30
0.0
 11
154.0072881935711
 21
804.4033635733313
 31
0.0
 70
    32
  3
DUAL-DIM
 13
184.8157182587148
 23
916.9033635733313
 33
0.0
 14
184.8157182587149
 24
691.9033635733313
 34
0.0
 50
90.0
1001
ACAD
1000
DSTYLE
1002
{
1070
   287
1070
     5
1070
   279
1070
     2
1002
}
  0
DIMENSION
  5
2509
  8
DIMENSIONS
  6
BYBLOCK
  2
*D405
 10
158.2097881935711
 20
466.9033635733313
 30
0.0
 11
154.0072881935711
 21
579.4033635733313
 31
0.0
 70
    32
  3
DUAL-DIM
 13
184.8157182587149
 23
691.9033635733313
 33
0.0
 14
184.8157182587149
 24
466.9033635733313
 34
0.0
 50
90.0
1001
ACAD
1000
DSTYLE
1002
{
1070
   287
1070
     5
1070
   279
1070
     2
1002
}
  0
DIMENSION
  5
2518
  8
DIMENSIONS
  6
BYBLOCK
  2
*D406
 10
158.2097881935711
 20
416.9033635733313
 30
0.0
 11
154.0072881935711
 21
441.9033635733313
 31
0.0
 70
    32
  3
DUAL-DIM
 13
184.8157182587149
 23
466.9033635733313
 33
0.0
 14
174.8157182587149
 24
416.9033635733313
 34
0.0
 50
90.0
1001
ACAD
1000
DSTYLE
1002
{
1070
   287
1070
     5
1070
   279
1070
     2
1002
}
  0
DIMENSION
  5
253D
  8
DIMENSIONS
  6
BYBLOCK
  2
*D407
 10
1153.332922929298
 20
2271.903363573331
 30
0.0
 11
1149.130422929298
 21
2294.403363573331
 31
0.0
 70
    32
  3
DUAL-DIM
 13
1134.815718258715
 23
2316.903363573331
 33
0.0
 14
1059.815718258716
 24
2271.903363573331
 34
0.0
 50
90.0
1001
ACAD
1000
DSTYLE
1002
{
1070
   287
1070
     5
1070
   279
1070
     2
1002
}
  0
DIMENSION
  5
254C
  8
DIMENSIONS
  6
BYBLOCK
  2
*D408
 10
1153.332922929298
 20
1891.903363573331
 30
0.0
 11
1149.130422929298
 21
2081.903363573331
 31
0.0
 70
    32
  3
DUAL-DIM
 13
1059.815718258716
 23
2271.903363573331
 33
0.0
 14
1059.815718258716
 24
1891.903363573331
 34
0.0
 50
90.0
1001
ACAD
1000
DSTYLE
1002
{
1070
   287
1070
     5
1070
   279
1070
     2
1002
}
  0
DIMENSION
  5
255B
  8
DIMENSIONS
  6
BYBLOCK
  2
*D409
 10
1153.332922929298
 20
916.9033635733314
 30
0.0
 11
1149.130422929298
 21
1404.403363573331
 31
0.0
 70
    32
  3
DUAL-DIM
 13
1059.815718258716
 23
1891.903363573331
 33
0.0
 14
1059.815718258716
 24
916.9033635733314
 34
0.0
 50
90.0
1001
ACAD
1000
DSTYLE
1002
{
1070
   287
1070
     5
1070
   279
1070
     2
1002
}
  0
DIMENSION
  5
256A
  8
DIMENSIONS
  6
BYBLOCK
  2
*D410
 10
1153.332922929298
 20
526.9033635733313
 30
0.0
 11
1149.130422929298
 21
721.9033635733313
 31
0.0
 70
    32
  3
DUAL-DIM
 13
1059.815718258716
 23
916.9033635733314
 33
0.0
 14
1059.815718258716
 24
526.9033635733313
 34
0.0
 50
90.0
1001
ACAD
1000
DSTYLE
1002
{
1070
   287
1070
     5
1070
   279
1070
     2
1002
}
  0
DIMENSION
  5
2579
  8
DIMENSIONS
  6
BYBLOCK
  2
*D411
 10
1153.332922929298
 20
416.9033635733313
 30
0.0
 11
1149.130422929298
 21
471.9033635733313
 31
0.0
 70
    32
  3
DUAL-DIM
 13
1059.815718258716
 23
526.9033635733313
 33
0.0
 14
1134.815718258715
 24
416.9033635733313
 34
0.0
 50
90.0
1001
ACAD
1000
DSTYLE
1002
{
1070
   287
1070
     5
1070
   279
1070
     2
1002
}
  0
DIMENSION
  5
2588
  8
DIMENSIONS
  6
BYBLOCK
  2
*D412
 10
1129.81571781917
 20
466.9054601075421
 30
0.0
 11
1090.173221304107
 21
466.8888377360017
 31
0.0
 70
   163
  1
<>
  3
DUAL-DIM
 15
1119.815718698261
 25
466.9012670391078
 35
0.0
 40
0.0
1001
ACAD
1000
DSTYLE
1002
{
1070
   287
1070
     3
1070
   279
1070
     0
1002
}
1001
ACAD_DSTYLE_DIMRADIAL_EXT0
1070
   387
1070
     1
1070
   388
1040
0.0
1070
   390
1040
6.283185307179586
  0
POLYLINE
  5
2595
  8
0
  6
BYBLOCK
 66
     1
 10
0.0
 20
0.0
 30
0.0
 70
     1
  0
VERTEX
  5
2611
  8
0
  6
BYBLOCK
 10
62.24845124769183
 20
366.7294540786439
 30
0.0
  0
VERTEX
  5
2612
  8
0
  6
BYBLOCK
 10
62.24845124769183
 20
2450.199910692175
 30
0.0
  0
VERTEX
  5
2613
  8
0
  6
BYBLOCK
 10
1251.375784690933
 20
2450.199910692175
 30
0.0
  0
VERTEX
  5
2614
  8
0
  6
BYBLOCK
 10
1251.375784690933
 20
366.7294540786439
 30
0.0
  0
SEQEND
  5
2618
  8
0
  6
BYBLOCK
  0
TEXT
  5
25BF
  8
DIMENSIONS
  6
BYBLOCK
 10
177.0453220085568
 20
400.943812311563
 30
0.0
 40
5.0
  1
Note:
  0
TEXT
  5
25C0
  8
DIMENSIONS
  6
BYBLOCK
 10
177.1792480488423
 20
390.4148444635699
 30
0.0
 40
5.0
  1
Primary dimensions in millimeters.
  0
TEXT
  5
25C1
  8
DIMENSIONS
  6
BYBLOCK
 10
177.4006619852323
 20
379.8428188547859
 30
0.0
 40
5.0
  1
Secondary dimensions in inches.
  0
DIMENSION
  5
25C2
  8
DIMENSIONS
  6
BYBLOCK
  2
*D413
 10
140.5860459046851
 20
2316.903363573331
 30
0.0
 11
136.383545904685
 21
1366.903363573331
 31
0.0
 70
    32
  3
DUAL-DIM
 13
174.8157182587149
 23
416.9033635733313
 33
0.0
 14
174.8157182587149
 24
2316.903363573331
 34
0.0
 50
90.0
1001
ACAD
1000
DSTYLE
1002
{
1070
   287
1070
     5
1070
   279
1070
     2
1002
}
  0
VIEWPORT
  5
B1C
 67
     1
  8
0
 10
5.25
 20
3.5
 30
0.0
 40
12.6
 41
8.4
 68
     1
 69
     1
1001
ACAD
1000
MVIEW
1002
{
1070
    16
1010
0.0
1020
0.0
1030
0.0
1010
0.0
1020
0.0
1030
1.0
1040
0.0
1040
8.4
1040
5.25
1040
3.5
1040
50.0
1040
0.0
1040
0.0
1070
     0
1070
   100
1070
     0
1070
     3
1070
     0
1070
     0
1070
     0
1070
     0
1040
0.0
1040
0.0
1040
0.0
1040
0.5
1040
0.5
1040
0.0
1040
0.0
1070
     0
1002
{
1002
}
1002
}
  0
VIEWPORT
  5
B1D
 67
     1
  8
0
 10
5.25
 20
3.5
 30
0.0
 40
8.4
 41
5.600000000000001
 68
     2
 69
     2
1001
ACAD
1000
MVIEW
1002
{
1070
    16
1010
0.0
1020
0.0
1030
0.0
1010
0.0
1020
0.0
1030
1.0
1040
0.0
1040
278.6419840998563
1040
207.1268606538857
1040
36.27547653054833
1040
50.0
1040
0.0
1040
0.0
1070
     0
1070
   100
1070
     0
1070
     3
1070
     0
1070
     0
1070
     0
1070
     0
1040
0.0
1040
0.0
1040
0.0
1040
0.5
1040
0.5
1040
0.0
1040
0.0
1070
     0
1002
{
1002
}
1002
}
  0
ENDSEC
  0
EOF
