  0
SECTION
  2
HEADER
  9
$ACADVER
  1
AC1009
  9
$DWGCODEPAGE
  3
ansi_1252
  9
$INSBASE
 10
0.0
 20
0.0
 30
0.0
  9
$EXTMIN
 10
-47.35317362205353
 20
-182.8589004634124
 30
0.0
  9
$EXTMAX
 10
478.9633359199428
 20
627.083728109548
 30
0.0
  9
$LIMMIN
 10
0.0
 20
0.0
  9
$LIMMAX
 10
594.0
 20
420.0
  9
$ORTHOMODE
 70
     1
  9
$REGENMODE
 70
     1
  9
$FILLMODE
 70
     1
  9
$QTEXTMODE
 70
     0
  9
$MIRRTEXT
 70
     1
  9
$DRAGMODE
 70
     2
  9
$LTSCALE
 40
32.67
  9
$OSMODE
 70
   511
  9
$ATTMODE
 70
     1
  9
$TEXTSIZE
 40
0.2
  9
$TRACEWID
 40
0.05
  9
$TEXTSTYLE
  7
STANDARD
  9
$CLAYER
  8
DIMENSIONS
  9
$CELTYPE
  6
BYBLOCK
  9
$CECOLOR
 62
   256
  9
$DIMSCALE
 40
1.0
  9
$DIMASZ
 40
5.0
  9
$DIMEXO
 40
1.5
  9
$DIMDLI
 40
1.0
  9
$DIMRND
 40
0.0
  9
$DIMDLE
 40
0.0
  9
$DIMEXE
 40
0.18
  9
$DIMTP
 40
0.0
  9
$DIMTM
 40
0.0
  9
$DIMTXT
 40
5.0
  9
$DIMCEN
 40
2.5
  9
$DIMTSZ
 40
0.0
  9
$DIMTOL
 70
     0
  9
$DIMLIM
 70
     0
  9
$DIMTIH
 70
     0
  9
$DIMTOH
 70
     0
  9
$DIMSE1
 70
     0
  9
$DIMSE2
 70
     0
  9
$DIMTAD
 70
     1
  9
$DIMZIN
 70
     8
  9
$DIMBLK
  1

  9
$DIMASO
 70
     1
  9
$DIMSHO
 70
     1
  9
$DIMPOST
  1

  9
$DIMAPOST
  1

  9
$DIMALT
 70
     1
  9
$DIMALTD
 70
     2
  9
$DIMALTF
 40
0.03937
  9
$DIMLFAC
 40
1.0
  9
$DIMTOFL
 70
     1
  9
$DIMTVP
 40
0.0
  9
$DIMTIX
 70
     0
  9
$DIMSOXD
 70
     0
  9
$DIMSAH
 70
     0
  9
$DIMBLK1
  1

  9
$DIMBLK2
  1

  9
$DIMSTYLE
  2
DUAL-DIM
  9
$DIMCLRD
 70
     0
  9
$DIMCLRE
 70
     0
  9
$DIMCLRT
 70
     5
  9
$DIMTFAC
 40
1.0
  9
$DIMGAP
 40
1.0
  9
$LUNITS
 70
     2
  9
$LUPREC
 70
     4
  9
$SKETCHINC
 40
0.1
  9
$FILLETRAD
 40
15.0
  9
$AUNITS
 70
     0
  9
$AUPREC
 70
     0
  9
$MENU
  1
.
  9
$ELEVATION
 40
0.0
  9
$PELEVATION
 40
0.0
  9
$THICKNESS
 40
0.0
  9
$LIMCHECK
 70
     0
  9
$CHAMFERA
 40
0.0
  9
$CHAMFERB
 40
0.0
  9
$SKPOLY
 70
     0
  9
$TDCREATE
 40
2457428.354677859
  9
$TDUPDATE
 40
2459376.511684838
  9
$TDINDWG
 40
0.061232662
  9
$TDUSRTIMER
 40
0.0015941898
  9
$USRTIMER
 70
     1
  9
$ANGBASE
 50
0.0
  9
$ANGDIR
 70
     0
  9
$PDMODE
 70
     3
  9
$PDSIZE
 40
0.3125
  9
$PLINEWID
 40
0.0
  9
$COORDS
 70
     1
  9
$SPLFRAME
 70
     0
  9
$SPLINETYPE
 70
     6
  9
$SPLINESEGS
 70
     8
  9
$ATTDIA
 70
     0
  9
$ATTREQ
 70
     1
  9
$HANDLING
 70
     1
  9
$HANDSEED
  5
18C3
  9
$SURFTAB1
 70
     6
  9
$SURFTAB2
 70
     6
  9
$SURFTYPE
 70
     6
  9
$SURFU
 70
     6
  9
$SURFV
 70
     6
  9
$UCSNAME
  2

  9
$UCSORG
 10
0.0
 20
0.0
 30
0.0
  9
$UCSXDIR
 10
1.0
 20
0.0
 30
0.0
  9
$UCSYDIR
 10
0.0
 20
1.0
 30
0.0
  9
$PUCSNAME
  2

  9
$PUCSORG
 10
0.0
 20
0.0
 30
0.0
  9
$PUCSXDIR
 10
1.0
 20
0.0
 30
0.0
  9
$PUCSYDIR
 10
0.0
 20
1.0
 30
0.0
  9
$USERI1
 70
     0
  9
$USERI2
 70
     0
  9
$USERI3
 70
     0
  9
$USERI4
 70
     0
  9
$USERI5
 70
     0
  9
$USERR1
 40
0.0
  9
$USERR2
 40
0.0
  9
$USERR3
 40
0.0
  9
$USERR4
 40
0.0
  9
$USERR5
 40
0.0
  9
$WORLDVIEW
 70
     1
  9
$SHADEDGE
 70
     3
  9
$SHADEDIF
 70
    70
  9
$TILEMODE
 70
     1
  9
$MAXACTVP
 70
    64
  9
$PLIMCHECK
 70
     0
  9
$PEXTMIN
 10
1.000000000000000E+20
 20
1.000000000000000E+20
 30
1.000000000000000E+20
  9
$PEXTMAX
 10
-1.000000000000000E+20
 20
-1.000000000000000E+20
 30
-1.000000000000000E+20
  9
$PLIMMIN
 10
0.0
 20
0.0
  9
$PLIMMAX
 10
0.0
 20
0.0
  9
$UNITMODE
 70
     0
  9
$VISRETAIN
 70
     1
  9
$PLINEGEN
 70
     0
  9
$PSLTSCALE
 70
     1
  0
ENDSEC
  0
SECTION
  2
TABLES
  0
TABLE
  2
VPORT
 70
     1
  0
VPORT
  2
*ACTIVE
 70
     0
 10
0.0
 20
0.0
 11
1.0
 21
1.0
 12
215.8050811489446
 22
222.1124138230678
 13
0.0
 23
0.0
 14
0.5
 24
0.5
 15
0.5
 25
0.5
 16
0.0
 26
0.0
 36
1.0
 17
0.0
 27
0.0
 37
0.0
 40
826.1414811444197
 41
2.576489533011272
 42
50.0
 43
0.0
 44
0.0
 50
0.0
 51
0.0
 71
    16
 72
   100
 73
     1
 74
     3
 75
     0
 76
     0
 77
     0
 78
     0
  0
ENDTAB
  0
TABLE
  2
LTYPE
 70
     7
  0
LTYPE
  2
CONTINUOUS
 70
     0
  3
Solid line
 72
    65
 73
     0
 40
0.0
  0
LTYPE
  2
CENTER
 70
     0
  3
____ _ ____ _ ____ _ ____ _ ____ _ ____ _ ____
 72
    65
 73
     4
 40
0.6
 49
0.375
 49
-0.075
 49
0.075
 49
-0.075
  0
LTYPE
  2
HIDDEN
 70
     0
  3
- - - - - - - - - - - - - - - - - - - -
 72
    65
 73
     2
 40
0.2
 49
0.1
 49
-0.1
  0
LTYPE
  2
PHANTOM
 70
     0
  3
_____ _ _ _____ _ _ _____ _ _ _____
 72
    65
 73
     6
 40
0.8
 49
0.45
 49
-0.05
 49
0.1
 49
-0.05
 49
0.1
 49
-0.05
  0
LTYPE
  2
DOT
 70
     0
  3
. . . . . . . . . . . . . . . . . . . .
 72
    65
 73
     2
 40
0.2
 49
0.1
 49
-0.1
  0
LTYPE
  2
DASHED
 70
     0
  3
- - - - - - - - - - - - - - - - - - - -
 72
    65
 73
     2
 40
0.2
 49
0.1
 49
-0.1
  0
LTYPE
  2
ASVLTYPE
 70
     0
  3
__ __ __ __ __ __ __ __ __ __ __ __ __ __ __ __ 
 72
    65
 73
     2
 40
0.75
 49
0.5
 49
-0.25
  0
ENDTAB
  0
TABLE
  2
LAYER
 70
    18
  0
LAYER
  2
0
 70
     0
 62
     7
  6
CONTINUOUS
  0
LAYER
  2
DEFAULT_1
 70
     0
 62
     7
  6
CENTER
  0
LAYER
  2
DEFAULT_2
 70
     0
 62
     8
  6
HIDDEN
  0
LAYER
  2
DEFAULT_3
 70
     0
 62
     7
  6
PHANTOM
  0
LAYER
  2
01___PRT_ALL_DTM_PLN
 70
     0
 62
     7
  6
CONTINUOUS
  0
LAYER
  2
01___PRT_DEF_DTM_PLN
 70
     0
 62
     7
  6
CONTINUOUS
  0
LAYER
  2
02___PRT_ALL_AXES
 70
     0
 62
     7
  6
CONTINUOUS
  0
LAYER
  2
03___PRT_ALL_CURVES
 70
     0
 62
     7
  6
CONTINUOUS
  0
LAYER
  2
04___PRT_ALL_DTM_PNT
 70
     0
 62
     7
  6
CONTINUOUS
  0
LAYER
  2
05___PRT_ALL_DTM_CSYS
 70
     0
 62
     7
  6
CONTINUOUS
  0
LAYER
  2
05___PRT_DEF_DTM_CSYS
 70
     0
 62
     7
  6
CONTINUOUS
  0
LAYER
  2
06___PRT_ALL_SURFS
 70
     0
 62
     7
  6
CONTINUOUS
  0
LAYER
  2
DEFPOINTS
 70
     0
 62
     7
  6
CONTINUOUS
  0
LAYER
  2
DIMENSIONS
 70
     0
 62
     2
  6
CONTINUOUS
  0
LAYER
  2
AM_5
 70
     0
 62
     3
  6
CONTINUOUS
  0
LAYER
  2
BACKGROUND
 70
     0
 62
     7
  6
CONTINUOUS
  0
LAYER
  2
KG-4305_10
 70
     0
 62
     4
  6
CONTINUOUS
  0
LAYER
  2
KG-4305_10_HOLES
 70
     0
 62
   191
  6
CONTINUOUS
  0
ENDTAB
  0
TABLE
  2
STYLE
 70
     3
  0
STYLE
  2
STANDARD
 70
     0
 40
0.0
 41
1.0
 50
0.0
 71
     0
 42
0.2
  3
arial.ttf
  4

  0
STYLE
  2
TEXTSTYLE_1
 70
     0
 40
0.0
 41
0.8
 50
0.0
 71
     0
 42
0.2
  3
gdt
  4

  0
STYLE
  2
IDENTIFICATION
 70
     0
 40
15.0
 41
1.0
 50
0.0
 71
     0
 42
0.2
  3
arial.ttf
  4

  0
ENDTAB
  0
TABLE
  2
VIEW
 70
     0
  0
ENDTAB
  0
TABLE
  2
UCS
 70
     0
  0
ENDTAB
  0
TABLE
  2
APPID
 70
    11
  0
APPID
  2
ACAD
 70
     0
  0
APPID
  2
ACAECLAYERSTANDARD
 70
     0
  0
APPID
  2
ACAD_DSTYLE_DIMRADIAL_EXTE
 70
     0
  0
APPID
  2
ACAD_DSTYLE_DIMJOGGED_JOGA
 70
     0
  0
APPID
  2
ACAD_DSTYLE_DIMJAG
 70
     0
  0
APPID
  2
ACAD_DSTYLE_DIMBREAK
 70
     0
  0
APPID
  2
ACAD_PSEXT
 70
     0
  0
APPID
  2
ACAD_DSTYLE_DIMINSPECT
 70
     0
  0
APPID
  2
ACAD_DSTYLE_DIMTALN
 70
     0
  0
APPID
  2
ACADANNOTATIVE
 70
     0
  0
APPID
  2
ACAD_NAV_VCDISPLAY
 70
     0
  0
ENDTAB
  0
TABLE
  2
DIMSTYLE
 70
     8
  0
DIMSTYLE
  2
STANDARD
 70
     0
  3

  4

  5

  6

  7

 40
1.0
 41
0.18
 42
0.0625
 43
0.38
 44
0.18
 45
0.0
 46
0.0
 47
0.0
 48
0.0
140
0.18
141
0.09
142
0.0
143
25.4
144
1.0
145
0.0
146
1.0
147
0.09
 71
     0
 72
     0
 73
     1
 74
     1
 75
     0
 76
     0
 77
     0
 78
     0
170
     0
171
     2
172
     0
173
     0
174
     0
175
     0
176
     0
177
     0
178
     0
  0
DIMSTYLE
  2
DUAL-DIM
 70
     0
  3

  4

  5

  6

  7

 40
1.0
 41
5.0
 42
1.5
 43
1.0
 44
0.18
 45
0.0
 46
0.0
 47
0.0
 48
0.0
140
5.0
141
2.5
142
0.0
143
0.03937
144
1.0
145
0.0
146
1.0
147
1.0
 71
     0
 72
     0
 73
     0
 74
     0
 75
     0
 76
     0
 77
     1
 78
     8
170
     1
171
     2
172
     1
173
     0
174
     0
175
     0
176
     0
177
     0
178
     5
  0
DIMSTYLE
  2
AM_ISO
 70
     0
  3

  4
"
  5

  6

  7

 40
1.0
 41
3.5
 42
1.0
 43
10.0
 44
1.0
 45
0.0
 46
0.0
 47
0.1
 48
0.1
140
3.5
141
0.0
142
0.0
143
0.0393701
144
1.0
145
0.0
146
0.71
147
1.5
 71
     0
 72
     0
 73
     0
 74
     0
 75
     0
 76
     0
 77
     1
 78
     8
170
     0
171
     2
172
     1
173
     0
174
     0
175
     0
176
   256
177
   256
178
     2
  0
DIMSTYLE
  2
AM_ISO$3
 70
     0
  3

  4
"
  5

  6

  7

 40
1.0
 41
3.5
 42
1.0
 43
10.0
 44
1.0
 45
0.0
 46
0.0
 47
0.1
 48
0.1
140
3.5
141
0.0
142
0.0
143
0.0393701
144
1.0
145
0.0
146
0.71
147
1.5
 71
     0
 72
     0
 73
     0
 74
     1
 75
     0
 76
     0
 77
     1
 78
     8
170
     0
171
     2
172
     0
173
     0
174
     0
175
     0
176
   256
177
   256
178
     2
  0
DIMSTYLE
  2
AM_ISO$0
 70
     0
  3

  4
"
  5

  6

  7

 40
1.0
 41
3.5
 42
1.0
 43
10.0
 44
1.0
 45
0.0
 46
0.0
 47
0.1
 48
0.1
140
3.5
141
0.0
142
0.0
143
0.0393701
144
1.0
145
0.0
146
0.71
147
1.5
 71
     0
 72
     0
 73
     0
 74
     0
 75
     0
 76
     0
 77
     1
 78
     8
170
     0
171
     2
172
     1
173
     0
174
     0
175
     0
176
   256
177
   256
178
     2
  0
DIMSTYLE
  2
DIMS__550-1000W_
 70
     0
  3
(550 / 750 / 850
  4
"
  5

  6

  7

 40
1.0
 41
5.0
 42
0.5
 43
7.0
 44
0.5
 45
0.0
 46
0.0
 47
0.0
 48
0.0
140
7.0
141
5.0
142
0.0
143
0.0394
144
1.0
145
0.0
146
0.7142857142857143
147
0.5
 71
     0
 72
     0
 73
     0
 74
     0
 75
     0
 76
     0
 77
     1
 78
     8
170
     1
171
     2
172
     0
173
     0
174
     0
175
     0
176
     2
177
     2
178
     5
  0
DIMSTYLE
  2
DIMS__2500-4000W_
 70
     0
  3
(2.5k / 3k / 4kW
  4
"
  5

  6

  7

 40
1.0
 41
5.0
 42
0.5
 43
7.0
 44
0.5
 45
0.0
 46
0.0
 47
0.0
 48
0.0
140
7.0
141
5.0
142
0.0
143
0.0394
144
1.0
145
0.0
146
0.7142857142857143
147
0.5
 71
     0
 72
     0
 73
     0
 74
     0
 75
     0
 76
     0
 77
     1
 78
     8
170
     1
171
     2
172
     0
173
     0
174
     0
175
     0
176
     2
177
     2
178
     5
  0
DIMSTYLE
  2
DIMS__320W_
 70
     0
  3
(320 W) <> mm
  4
"
  5

  6

  7

 40
1.0
 41
5.0
 42
0.5
 43
7.0
 44
0.5
 45
0.0
 46
0.0
 47
0.0
 48
0.0
140
7.0
141
5.0
142
0.0
143
0.0394
144
1.0
145
0.0
146
0.7142857142857143
147
0.5
 71
     0
 72
     0
 73
     0
 74
     0
 75
     0
 76
     0
 77
     1
 78
     8
170
     1
171
     2
172
     0
173
     0
174
     0
175
     0
176
     2
177
     2
178
     5
  0
ENDTAB
  0
ENDSEC
  0
SECTION
  2
BLOCKS
  0
BLOCK
  8
0
  2
$MODEL_SPACE
 70
     0
 10
0.0
 20
0.0
 30
0.0
  3
$MODEL_SPACE
  1

  0
ENDBLK
  5
1831
  8
0
  0
BLOCK
 67
     1
  8
0
  2
$PAPER_SPACE
 70
     0
 10
0.0
 20
0.0
 30
0.0
  3
$PAPER_SPACE
  1

  0
ENDBLK
  5
182F
 67
     1
  8
0
  0
BLOCK
  8
0
  2
_FILLED
 70
     0
 10
0.0
 20
0.0
 30
0.0
  3
_FILLED
  1

  0
SOLID
  5
3D
  8
0
  6
BYBLOCK
 62
     0
 10
0.0
 20
0.0
 30
0.0
 11
-1.0
 21
0.2
 31
0.0
 12
-1.0
 22
-0.2
 32
0.0
 13
-1.0
 23
-0.2
 33
0.0
  0
ENDBLK
  5
3E
  8
0
  6
BYBLOCK
 62
     0
  0
BLOCK
  8
0
  2
*D1
 70
     1
 10
0.0
 20
0.0
 30
0.0
  3
*D1
  1

  0
LINE
  5
1529
  8
DIMENSIONS
  6
BYBLOCK
 62
     0
 10
89.33662484946308
 20
518.4307216767846
 30
0.0
 11
89.33662484946308
 21
543.5667738303379
 31
0.0
  0
LINE
  5
152A
  8
DIMENSIONS
  6
BYBLOCK
 62
     0
 10
361.3366248494631
 20
518.4307216767846
 30
0.0
 11
361.3366248494631
 21
543.5667738303379
 31
0.0
  0
LINE
  5
152B
  8
DIMENSIONS
  6
BYBLOCK
 62
     0
 10
94.33662484946308
 20
543.3867738303379
 30
0.0
 11
356.3366248494631
 21
543.3867738303379
 31
0.0
  0
SOLID
  5
152C
  8
DIMENSIONS
 62
     0
 10
94.33662484946308
 20
544.2201071636713
 30
0.0
 11
94.33662484946308
 21
542.5534404970045
 31
0.0
 12
89.33662484946308
 22
543.3867738303379
 32
0.0
 13
89.33662484946308
 23
543.3867738303379
 33
0.0
  0
SOLID
  5
152D
  8
DIMENSIONS
 62
     0
 10
356.3366248494631
 20
542.5534404970045
 30
0.0
 11
356.3366248494631
 21
544.2201071636713
 31
0.0
 12
361.3366248494631
 22
543.3867738303379
 32
0.0
 13
361.3366248494631
 23
543.3867738303379
 33
0.0
  0
TEXT
  5
152E
  8
DIMENSIONS
  6
CONTINUOUS
 62
     5
 10
208.0016248494631
 20
545.7817738303379
 30
0.0
 40
5.0
  1
272 [10.71]
  0
POINT
  5
152F
  8
DEFPOINTS
 62
     0
 10
89.33662484946308
 20
516.9307216767846
 30
0.0
  0
POINT
  5
1530
  8
DEFPOINTS
 62
     0
 10
361.3366248494631
 20
516.9307216767846
 30
0.0
  0
POINT
  5
1531
  8
DEFPOINTS
 62
     0
 10
361.3366248494631
 20
543.3867738303379
 30
0.0
  0
ENDBLK
  5
1528
  8
0
  0
BLOCK
  8
0
  2
*D2
 70
     1
 10
0.0
 20
0.0
 30
0.0
  3
*D2
  1

  0
LINE
  5
1538
  8
DIMENSIONS
  6
BYBLOCK
 62
     0
 10
82.13662484946235
 20
503.9807216767838
 30
0.0
 11
82.13662484946235
 21
551.3643077356746
 31
0.0
  0
LINE
  5
1539
  8
DIMENSIONS
  6
BYBLOCK
 62
     0
 10
368.5366248494638
 20
503.9807216767838
 30
0.0
 11
368.5366248494638
 21
551.3643077356746
 31
0.0
  0
LINE
  5
153A
  8
DIMENSIONS
  6
BYBLOCK
 62
     0
 10
87.13662484946235
 20
551.1843077356747
 30
0.0
 11
363.5366248494638
 21
551.1843077356747
 31
0.0
  0
SOLID
  5
153B
  8
DIMENSIONS
 62
     0
 10
87.13662484946235
 20
552.017641069008
 30
0.0
 11
87.13662484946235
 21
550.3509744023413
 31
0.0
 12
82.13662484946235
 22
551.1843077356747
 32
0.0
 13
82.13662484946235
 23
551.1843077356747
 33
0.0
  0
SOLID
  5
153C
  8
DIMENSIONS
 62
     0
 10
363.5366248494638
 20
550.3509744023413
 30
0.0
 11
363.5366248494638
 21
552.017641069008
 31
0.0
 12
368.5366248494638
 22
551.1843077356747
 32
0.0
 13
368.5366248494638
 23
551.1843077356747
 33
0.0
  0
TEXT
  5
153D
  8
DIMENSIONS
  6
CONTINUOUS
 62
     5
 10
205.0916248494631
 20
553.5793077356747
 30
0.0
 40
5.0
  1
286.4 [11.28]
  0
POINT
  5
153E
  8
DEFPOINTS
 62
     0
 10
82.13662484946235
 20
502.4807216767838
 30
0.0
  0
POINT
  5
153F
  8
DEFPOINTS
 62
     0
 10
368.5366248494638
 20
502.4807216767838
 30
0.0
  0
POINT
  5
1540
  8
DEFPOINTS
 62
     0
 10
368.5366248494638
 20
551.1843077356747
 30
0.0
  0
ENDBLK
  5
1537
  8
0
  0
BLOCK
  8
0
  2
*D3
 70
     1
 10
0.0
 20
0.0
 30
0.0
  3
*D3
  1

  0
LINE
  5
1547
  8
DIMENSIONS
  6
BYBLOCK
 62
     0
 10
67.83662484946308
 20
527.9307216767846
 30
0.0
 11
67.83662484946308
 21
576.6772404094711
 31
0.0
  0
LINE
  5
1548
  8
DIMENSIONS
  6
BYBLOCK
 62
     0
 10
382.8366248494642
 20
527.9307216767846
 30
0.0
 11
382.8366248494642
 21
576.6772404094711
 31
0.0
  0
LINE
  5
1549
  8
DIMENSIONS
  6
BYBLOCK
 62
     0
 10
72.83662484946308
 20
576.4972404094711
 30
0.0
 11
377.8366248494642
 21
576.4972404094711
 31
0.0
  0
SOLID
  5
154A
  8
DIMENSIONS
 62
     0
 10
72.83662484946308
 20
577.3305737428045
 30
0.0
 11
72.83662484946308
 21
575.6639070761378
 31
0.0
 12
67.83662484946308
 22
576.4972404094711
 32
0.0
 13
67.83662484946308
 23
576.4972404094711
 33
0.0
  0
SOLID
  5
154B
  8
DIMENSIONS
 62
     0
 10
377.8366248494642
 20
575.6639070761378
 30
0.0
 11
377.8366248494642
 21
577.3305737428045
 31
0.0
 12
382.8366248494642
 22
576.4972404094711
 32
0.0
 13
382.8366248494642
 23
576.4972404094711
 33
0.0
  0
TEXT
  5
154C
  8
DIMENSIONS
  6
CONTINUOUS
 62
     5
 10
209.8966248494636
 20
578.8922404094711
 30
0.0
 40
5.0
  1
315 [12.4]
  0
POINT
  5
154D
  8
DEFPOINTS
 62
     0
 10
67.83662484946308
 20
526.4307216767846
 30
0.0
  0
POINT
  5
154E
  8
DEFPOINTS
 62
     0
 10
382.8366248494642
 20
526.4307216767846
 30
0.0
  0
POINT
  5
154F
  8
DEFPOINTS
 62
     0
 10
382.8366248494642
 20
576.4972404094711
 30
0.0
  0
ENDBLK
  5
1546
  8
0
  0
BLOCK
  8
0
  2
*D4
 70
     1
 10
0.0
 20
0.0
 30
0.0
  3
*D4
  1

  0
LINE
  5
1556
  8
DIMENSIONS
  6
BYBLOCK
 62
     0
 10
88.13662484946417
 20
286.2307216767855
 30
0.0
 11
49.38293944678646
 21
286.2307216767855
 31
0.0
  0
LINE
  5
1557
  8
DIMENSIONS
  6
BYBLOCK
 62
     0
 10
97.33662484946422
 20
270.9907216767846
 30
0.0
 11
49.38293944678646
 21
270.9907216767846
 31
0.0
  0
LINE
  5
1558
  8
DIMENSIONS
  6
BYBLOCK
 62
     0
 10
49.56293944678646
 20
270.9907216767846
 30
0.0
 11
49.56293944678646
 21
236.1057216767846
 31
0.0
  0
LINE
  5
1559
  8
DIMENSIONS
  6
BYBLOCK
 62
     0
 10
49.56293944678646
 20
281.2307216767855
 30
0.0
 11
49.56293944678646
 21
275.9907216767846
 31
0.0
  0
SOLID
  5
155A
  8
DIMENSIONS
 62
     0
 10
50.39627278011979
 20
281.2307216767855
 30
0.0
 11
48.72960611345312
 21
281.2307216767855
 31
0.0
 12
49.56293944678646
 22
286.2307216767855
 32
0.0
 13
49.56293944678646
 23
286.2307216767855
 33
0.0
  0
SOLID
  5
155B
  8
DIMENSIONS
 62
     0
 10
48.72960611345312
 20
275.9907216767846
 30
0.0
 11
50.39627278011979
 21
275.9907216767846
 31
0.0
 12
49.56293944678646
 22
270.9907216767846
 32
0.0
 13
49.56293944678646
 23
270.9907216767846
 33
0.0
  0
TEXT
  5
155C
  8
DIMENSIONS
  6
CONTINUOUS
 62
     5
 10
47.16793944678651
 20
236.3457216767846
 30
0.0
 40
5.0
  1
15.2 [0.6]
 50
90.0
  0
POINT
  5
155D
  8
DEFPOINTS
 62
     0
 10
89.63662484946417
 20
286.2307216767855
 30
0.0
  0
POINT
  5
155E
  8
DEFPOINTS
 62
     0
 10
98.83662484946422
 20
270.9907216767846
 30
0.0
  0
POINT
  5
1619
  8
DEFPOINTS
 62
     0
 10
49.56293944678646
 20
270.9907216767846
 30
0.0
  0
ENDBLK
  5
1555
  8
0
  0
BLOCK
  8
0
  2
*D5
 70
     1
 10
0.0
 20
0.0
 30
0.0
  3
*D5
  1

  0
LINE
  5
1565
  8
DIMENSIONS
  6
BYBLOCK
 62
     0
 10
80.63662484946235
 20
502.4807216767838
 30
0.0
 11
29.92138118691368
 21
502.4807216767838
 31
0.0
  0
LINE
  5
1566
  8
DIMENSIONS
  6
BYBLOCK
 62
     0
 10
66.33662484946308
 20
526.4307216767846
 30
0.0
 11
29.92138118691368
 21
526.4307216767846
 31
0.0
  0
LINE
  5
1567
  8
DIMENSIONS
  6
BYBLOCK
 62
     0
 10
30.10138118691368
 20
502.4807216767838
 30
0.0
 11
30.10138118691368
 21
458.580361672947
 31
0.0
  0
LINE
  5
1568
  8
DIMENSIONS
  6
BYBLOCK
 62
     0
 10
30.10138118691368
 20
507.4807216767838
 30
0.0
 11
30.10138118691368
 21
521.4307216767846
 31
0.0
  0
SOLID
  5
1569
  8
DIMENSIONS
 62
     0
 10
29.26804785358035
 20
507.4807216767838
 30
0.0
 11
30.93471452024701
 21
507.4807216767838
 31
0.0
 12
30.10138118691368
 22
502.4807216767838
 32
0.0
 13
30.10138118691368
 23
502.4807216767838
 33
0.0
  0
SOLID
  5
156A
  8
DIMENSIONS
 62
     0
 10
30.93471452024701
 20
521.4307216767846
 30
0.0
 11
29.26804785358035
 21
521.4307216767846
 31
0.0
 12
30.10138118691368
 22
526.4307216767846
 32
0.0
 13
30.10138118691368
 23
526.4307216767846
 33
0.0
  0
TEXT
  5
156B
  8
DIMENSIONS
  6
CONTINUOUS
 62
     5
 10
27.70638118691369
 20
459.375361672947
 30
0.0
 40
5.0
  1
23.95 [0.94]
 50
90.0
  0
POINT
  5
156C
  8
DEFPOINTS
 62
     0
 10
82.13662484946235
 20
502.4807216767838
 30
0.0
  0
POINT
  5
156D
  8
DEFPOINTS
 62
     0
 10
67.83662484946308
 20
526.4307216767846
 30
0.0
  0
POINT
  5
1618
  8
DEFPOINTS
 62
     0
 10
30.10138118691368
 20
526.4307216767846
 30
0.0
  0
ENDBLK
  5
1564
  8
0
  0
BLOCK
  8
0
  2
*D6
 70
     1
 10
0.0
 20
0.0
 30
0.0
  3
*D6
  1

  0
LINE
  5
157A
  8
DIMENSIONS
  6
BYBLOCK
 62
     0
 10
80.63662484946235
 20
502.4807216767838
 30
0.0
 11
9.790193697054876
 21
502.4807216767838
 31
0.0
  0
LINE
  5
157B
  8
DIMENSIONS
  6
BYBLOCK
 62
     0
 10
80.63662484946235
 20
-102.5192783232161
 30
0.0
 11
9.790193697054839
 21
-102.5192783232161
 31
0.0
  0
LINE
  5
157C
  8
DIMENSIONS
  6
BYBLOCK
 62
     0
 10
9.970193697054876
 20
497.4807216767838
 30
0.0
 11
9.970193697054839
 21
-97.51927832321614
 31
0.0
  0
SOLID
  5
157D
  8
DIMENSIONS
 62
     0
 10
10.80352703038821
 20
497.4807216767838
 30
0.0
 11
9.136860363721542
 21
497.4807216767838
 31
0.0
 12
9.970193697054876
 22
502.4807216767838
 32
0.0
 13
9.970193697054876
 23
502.4807216767838
 33
0.0
  0
SOLID
  5
157E
  8
DIMENSIONS
 62
     0
 10
9.136860363721505
 20
-97.51927832321614
 30
0.0
 11
10.80352703038817
 21
-97.51927832321614
 31
0.0
 12
9.970193697054839
 22
-102.5192783232161
 32
0.0
 13
9.970193697054839
 23
-102.5192783232161
 33
0.0
  0
TEXT
  5
157F
  8
DIMENSIONS
  6
CONTINUOUS
 62
     5
 10
7.575193697054914
 20
182.6182216767838
 30
0.0
 40
5.0
  1
605 [23.82]
 50
90.0
  0
POINT
  5
1580
  8
DEFPOINTS
 62
     0
 10
82.13662484946235
 20
502.4807216767838
 30
0.0
  0
POINT
  5
1581
  8
DEFPOINTS
 62
     0
 10
82.13662484946235
 20
-102.5192783232161
 30
0.0
  0
POINT
  5
1582
  8
DEFPOINTS
 62
     0
 10
9.970193697054839
 20
-102.5192783232161
 30
0.0
  0
ENDBLK
  5
1579
  8
0
  0
BLOCK
  8
0
  2
*D7
 70
     1
 10
0.0
 20
0.0
 30
0.0
  3
*D7
  1

  0
LINE
  5
1596
  8
DIMENSIONS
  6
BYBLOCK
 62
     0
 10
80.63662484946235
 20
-102.5192783232161
 30
0.0
 11
29.92138118691368
 21
-102.5192783232161
 31
0.0
  0
LINE
  5
1597
  8
DIMENSIONS
  6
BYBLOCK
 62
     0
 10
66.33662484946308
 20
-124.9692783232146
 30
0.0
 11
29.92138118691368
 21
-124.9692783232146
 31
0.0
  0
LINE
  5
1598
  8
DIMENSIONS
  6
BYBLOCK
 62
     0
 10
30.10138118691368
 20
-102.5192783232161
 30
0.0
 11
30.10138118691368
 21
-59.31927832321615
 31
0.0
  0
LINE
  5
1599
  8
DIMENSIONS
  6
BYBLOCK
 62
     0
 10
30.10138118691368
 20
-107.5192783232161
 30
0.0
 11
30.10138118691368
 21
-119.9692783232146
 31
0.0
  0
SOLID
  5
159A
  8
DIMENSIONS
 62
     0
 10
30.93471452024701
 20
-107.5192783232161
 30
0.0
 11
29.26804785358035
 21
-107.5192783232161
 31
0.0
 12
30.10138118691368
 22
-102.5192783232161
 32
0.0
 13
30.10138118691368
 23
-102.5192783232161
 33
0.0
  0
SOLID
  5
159B
  8
DIMENSIONS
 62
     0
 10
29.26804785358035
 20
-119.9692783232146
 30
0.0
 11
30.93471452024701
 21
-119.9692783232146
 31
0.0
 12
30.10138118691368
 22
-124.9692783232146
 32
0.0
 13
30.10138118691368
 23
-124.9692783232146
 33
0.0
  0
TEXT
  5
159C
  8
DIMENSIONS
  6
CONTINUOUS
 62
     5
 10
27.70638118691367
 20
-96.72427832321615
 30
0.0
 40
5.0
  1
22.45 [0.88]
 50
90.0
  0
POINT
  5
159D
  8
DEFPOINTS
 62
     0
 10
82.13662484946235
 20
-102.5192783232161
 30
0.0
  0
POINT
  5
159E
  8
DEFPOINTS
 62
     0
 10
67.83662484946308
 20
-124.9692783232146
 30
0.0
  0
POINT
  5
161A
  8
DEFPOINTS
 62
     0
 10
30.10138118691368
 20
-124.9692783232146
 30
0.0
  0
ENDBLK
  5
1595
  8
0
  0
BLOCK
  8
0
  2
*D8
 70
     1
 10
0.0
 20
0.0
 30
0.0
  3
*D8
  1

  0
LINE
  5
15A5
  8
DIMENSIONS
  6
BYBLOCK
 62
     0
 10
360.0366562313898
 20
-102.7461808827981
 30
0.0
 11
322.9596272934658
 21
-102.6454293970939
 31
0.0
  0
LINE
  5
15A6
  8
DIMENSIONS
  6
BYBLOCK
 62
     0
 10
377.036593467538
 20
-102.7923757636309
 30
0.0
 11
382.0365750075816
 21
-102.8059624932876
 31
0.0
  0
TEXT
  5
15A7
  8
DIMENSIONS
  6
CONTINUOUS
 62
     5
 10
323.6863491110952
 20
-100.1727465850449
 30
0.0
 40
5.0
  1
Ø7 [Ø0.28]
 50
359.8443073550519
  0
LINE
  5
15A8
  8
DIMENSIONS
  6
BYBLOCK
 62
     0
 10
372.0366119274944
 20
-102.7787890339742
 30
0.0
 11
365.0366377714334
 21
-102.7597676124548
 31
0.0
  0
SOLID
  5
15A9
  8
DIMENSIONS
 62
     0
 10
377.0388579224808
 20
-101.9590455069569
 30
0.0
 11
377.0343290125952
 21
-103.6257060203048
 31
0.0
 12
372.0366119274944
 22
-102.7787890339742
 32
0.0
 13
372.0366119274944
 23
-102.7787890339742
 33
0.0
  0
SOLID
  5
15AA
  8
DIMENSIONS
 62
     0
 10
360.034391776447
 20
-103.5795111394721
 30
0.0
 11
360.0389206863326
 21
-101.9128506261242
 31
0.0
 12
365.0366377714334
 22
-102.7597676124548
 32
0.0
 13
365.0366377714334
 23
-102.7597676124548
 33
0.0
  0
POINT
  5
15AB
  8
DEFPOINTS
 62
     0
 10
365.0366377714334
 20
-102.7597676124548
 30
0.0
  0
POINT
  5
15AC
  8
DEFPOINTS
 62
     0
 10
372.0366119274944
 20
-102.7787890339742
 30
0.0
  0
ENDBLK
  5
15A4
  8
0
  0
BLOCK
  8
0
  2
*D9
 70
     1
 10
0.0
 20
0.0
 30
0.0
  3
*D9
  1

  0
LINE
  5
15B3
  8
DIMENSIONS
  6
BYBLOCK
 62
     0
 10
89.33662484946308
 20
65.43067637096995
 30
0.0
 11
89.33662484946308
 21
50.7192726728677
 31
0.0
  0
LINE
  5
15B4
  8
DIMENSIONS
  6
BYBLOCK
 62
     0
 10
361.3366248494631
 20
65.43067637096995
 30
0.0
 11
361.3366248494631
 21
50.7192726728677
 31
0.0
  0
LINE
  5
15B5
  8
DIMENSIONS
  6
BYBLOCK
 62
     0
 10
94.33662484946308
 20
50.8992726728677
 30
0.0
 11
356.3366248494631
 21
50.8992726728677
 31
0.0
  0
SOLID
  5
15B6
  8
DIMENSIONS
 62
     0
 10
94.33662484946308
 20
51.73260600620104
 30
0.0
 11
94.33662484946308
 21
50.06593933953437
 31
0.0
 12
89.33662484946308
 22
50.8992726728677
 32
0.0
 13
89.33662484946308
 23
50.8992726728677
 33
0.0
  0
SOLID
  5
15B7
  8
DIMENSIONS
 62
     0
 10
356.3366248494631
 20
50.06593933953437
 30
0.0
 11
356.3366248494631
 21
51.73260600620104
 31
0.0
 12
361.3366248494631
 22
50.8992726728677
 32
0.0
 13
361.3366248494631
 23
50.8992726728677
 33
0.0
  0
TEXT
  5
15B8
  8
DIMENSIONS
  6
CONTINUOUS
 62
     5
 10
208.0016248494631
 20
53.2942726728677
 30
0.0
 40
5.0
  1
272 [10.71]
  0
POINT
  5
15B9
  8
DEFPOINTS
 62
     0
 10
89.33662484946308
 20
66.93067637096995
 30
0.0
  0
POINT
  5
15BA
  8
DEFPOINTS
 62
     0
 10
361.3366248494631
 20
66.93067637096995
 30
0.0
  0
POINT
  5
15BB
  8
DEFPOINTS
 62
     0
 10
361.3366248494631
 20
50.8992726728677
 30
0.0
  0
ENDBLK
  5
15B2
  8
0
  0
BLOCK
  8
0
  2
*D10
 70
     1
 10
0.0
 20
0.0
 30
0.0
  3
*D10
  1

  0
LINE
  5
15C2
  8
DIMENSIONS
  6
BYBLOCK
 62
     0
 10
89.33662484946308
 20
52.3992726728677
 30
0.0
 11
89.33662484946308
 21
51.09053393412895
 31
0.0
  0
LINE
  5
15C3
  8
DIMENSIONS
  6
BYBLOCK
 62
     0
 10
67.83662484946308
 20
52.39927267286771
 30
0.0
 11
67.83662484946308
 21
51.09053393412895
 31
0.0
  0
LINE
  5
15C4
  8
DIMENSIONS
  6
BYBLOCK
 62
     0
 10
67.83662484946308
 20
50.91053393412895
 30
0.0
 11
28.51662484946308
 21
50.91053393412895
 31
0.0
  0
LINE
  5
15C5
  8
DIMENSIONS
  6
BYBLOCK
 62
     0
 10
84.33662484946308
 20
50.91053393412895
 30
0.0
 11
72.83662484946308
 21
50.91053393412895
 31
0.0
  0
SOLID
  5
15C6
  8
DIMENSIONS
 62
     0
 10
84.33662484946308
 20
50.07720060079561
 30
0.0
 11
84.33662484946308
 21
51.74386726746229
 31
0.0
 12
89.33662484946308
 22
50.91053393412895
 32
0.0
 13
89.33662484946308
 23
50.91053393412895
 33
0.0
  0
SOLID
  5
15C7
  8
DIMENSIONS
 62
     0
 10
72.83662484946308
 20
51.74386726746229
 30
0.0
 11
72.83662484946308
 21
50.07720060079561
 31
0.0
 12
67.83662484946308
 22
50.91053393412895
 32
0.0
 13
67.83662484946308
 23
50.91053393412895
 33
0.0
  0
TEXT
  5
15C8
  8
DIMENSIONS
  6
CONTINUOUS
 62
     5
 10
29.31162484946308
 20
53.30553393412895
 30
0.0
 40
5.0
  1
21.5 [0.85]
  0
POINT
  5
15C9
  8
DEFPOINTS
 62
     0
 10
89.33662484946308
 20
50.8992726728677
 30
0.0
  0
POINT
  5
15CA
  8
DEFPOINTS
 62
     0
 10
67.83662484946308
 20
50.89927267286771
 30
0.0
  0
POINT
  5
173B
  8
DEFPOINTS
 62
     0
 10
67.83662484946308
 20
50.91053393412895
 30
0.0
  0
ENDBLK
  5
15C1
  8
0
  0
BLOCK
  8
0
  2
*D11
 70
     1
 10
0.0
 20
0.0
 30
0.0
  3
*D11
  1

  0
LINE
  5
15D1
  8
DIMENSIONS
  6
BYBLOCK
 62
     0
 10
361.3366248494631
 20
52.3992726728677
 30
0.0
 11
361.3366248494631
 21
51.0792726728677
 31
0.0
  0
LINE
  5
15D2
  8
DIMENSIONS
  6
BYBLOCK
 62
     0
 10
382.8366248494642
 20
52.3992726728676
 30
0.0
 11
382.8366248494642
 21
51.0792726728677
 31
0.0
  0
LINE
  5
15D3
  8
DIMENSIONS
  6
BYBLOCK
 62
     0
 10
382.8366248494642
 20
50.8992726728677
 30
0.0
 11
422.1566248494642
 21
50.8992726728677
 31
0.0
  0
LINE
  5
15D4
  8
DIMENSIONS
  6
BYBLOCK
 62
     0
 10
366.3366248494631
 20
50.8992726728677
 30
0.0
 11
377.8366248494642
 21
50.8992726728677
 31
0.0
  0
SOLID
  5
15D5
  8
DIMENSIONS
 62
     0
 10
366.3366248494631
 20
51.73260600620104
 30
0.0
 11
366.3366248494631
 21
50.06593933953437
 31
0.0
 12
361.3366248494631
 22
50.8992726728677
 32
0.0
 13
361.3366248494631
 23
50.8992726728677
 33
0.0
  0
SOLID
  5
15D6
  8
DIMENSIONS
 62
     0
 10
377.8366248494642
 20
50.06593933953437
 30
0.0
 11
377.8366248494642
 21
51.73260600620104
 31
0.0
 12
382.8366248494642
 22
50.8992726728677
 32
0.0
 13
382.8366248494642
 23
50.8992726728677
 33
0.0
  0
TEXT
  5
15D7
  8
DIMENSIONS
  6
CONTINUOUS
 62
     5
 10
388.6316248494642
 20
53.2942726728677
 30
0.0
 40
5.0
  1
21.5 [0.85]
  0
POINT
  5
15D8
  8
DEFPOINTS
 62
     0
 10
361.3366248494631
 20
50.8992726728677
 30
0.0
  0
POINT
  5
15D9
  8
DEFPOINTS
 62
     0
 10
382.8366248494642
 20
50.8992726728676
 30
0.0
  0
POINT
  5
173A
  8
DEFPOINTS
 62
     0
 10
382.8366248494642
 20
50.8992726728677
 30
0.0
  0
ENDBLK
  5
15D0
  8
0
  0
BLOCK
  8
0
  2
*D12
 70
     1
 10
0.0
 20
0.0
 30
0.0
  3
*D12
  1

  0
LINE
  5
15E0
  8
DIMENSIONS
  6
BYBLOCK
 62
     0
 10
362.8366248494631
 20
516.9307216767846
 30
0.0
 11
450.3814143449403
 21
516.9307216767846
 31
0.0
  0
LINE
  5
15E1
  8
DIMENSIONS
  6
BYBLOCK
 62
     0
 10
384.3366248494642
 20
526.4307216767846
 30
0.0
 11
450.3814143449403
 21
526.4307216767846
 31
0.0
  0
LINE
  5
15E2
  8
DIMENSIONS
  6
BYBLOCK
 62
     0
 10
450.2014143449402
 20
516.9307216767846
 30
0.0
 11
450.2014143449402
 21
476.5757216767846
 31
0.0
  0
LINE
  5
15E3
  8
DIMENSIONS
  6
BYBLOCK
 62
     0
 10
450.2014143449402
 20
516.9307216767846
 30
0.0
 11
450.2014143449402
 21
526.4307216767846
 31
0.0
  0
LINE
  5
15E4
  8
DIMENSIONS
  6
BYBLOCK
 62
     0
 10
450.2014143449402
 20
511.9307216767846
 30
0.0
 11
450.2014143449402
 21
506.9307216767846
 31
0.0
  0
LINE
  5
15E5
  8
DIMENSIONS
  6
BYBLOCK
 62
     0
 10
450.2014143449402
 20
531.4307216767846
 30
0.0
 11
450.2014143449402
 21
536.4307216767846
 31
0.0
  0
SOLID
  5
15E6
  8
DIMENSIONS
 62
     0
 10
451.0347476782736
 20
511.9307216767846
 30
0.0
 11
449.3680810116069
 21
511.9307216767846
 31
0.0
 12
450.2014143449402
 22
516.9307216767846
 32
0.0
 13
450.2014143449402
 23
516.9307216767846
 33
0.0
  0
SOLID
  5
15E7
  8
DIMENSIONS
 62
     0
 10
449.3680810116069
 20
531.4307216767846
 30
0.0
 11
451.0347476782736
 21
531.4307216767846
 31
0.0
 12
450.2014143449402
 22
526.4307216767846
 32
0.0
 13
450.2014143449402
 23
526.4307216767846
 33
0.0
  0
TEXT
  5
15E8
  8
DIMENSIONS
  6
CONTINUOUS
 62
     5
 10
447.8064143449403
 20
477.2857216767846
 30
0.0
 40
5.0
  1
9.5 [0.37]
 50
90.0
  0
POINT
  5
15E9
  8
DEFPOINTS
 62
     0
 10
361.3366248494631
 20
516.9307216767846
 30
0.0
  0
POINT
  5
15EA
  8
DEFPOINTS
 62
     0
 10
382.8366248494642
 20
526.4307216767846
 30
0.0
  0
POINT
  5
162B
  8
DEFPOINTS
 62
     0
 10
450.2014143449402
 20
526.4307216767846
 30
0.0
  0
ENDBLK
  5
15DF
  8
0
  0
BLOCK
  8
0
  2
*D13
 70
     1
 10
0.0
 20
0.0
 30
0.0
  3
*D13
  1

  0
LINE
  5
15F1
  8
DIMENSIONS
  6
BYBLOCK
 62
     0
 10
362.536624849464
 20
516.9307216767846
 30
0.0
 11
432.09491277643
 21
516.9307216767846
 31
0.0
  0
LINE
  5
15F2
  8
DIMENSIONS
  6
BYBLOCK
 62
     0
 10
362.8366248494631
 20
287.9307216767846
 30
0.0
 11
432.09491277643
 21
287.9307216767846
 31
0.0
  0
LINE
  5
15F3
  8
DIMENSIONS
  6
BYBLOCK
 62
     0
 10
431.91491277643
 20
511.9307216767846
 30
0.0
 11
431.91491277643
 21
292.9307216767846
 31
0.0
  0
SOLID
  5
15F4
  8
DIMENSIONS
 62
     0
 10
432.7482461097633
 20
511.9307216767846
 30
0.0
 11
431.0815794430967
 21
511.9307216767846
 31
0.0
 12
431.91491277643
 22
516.9307216767846
 32
0.0
 13
431.91491277643
 23
516.9307216767846
 33
0.0
  0
SOLID
  5
15F5
  8
DIMENSIONS
 62
     0
 10
431.0815794430967
 20
292.9307216767846
 30
0.0
 11
432.7482461097633
 21
292.9307216767846
 31
0.0
 12
431.91491277643
 22
287.9307216767846
 32
0.0
 13
431.91491277643
 23
287.9307216767846
 33
0.0
  0
TEXT
  5
15F6
  8
DIMENSIONS
  6
CONTINUOUS
 62
     5
 10
429.51991277643
 20
387.0357216767846
 30
0.0
 40
5.0
  1
229 [9.02]
 50
90.0
  0
POINT
  5
15F7
  8
DEFPOINTS
 62
     0
 10
361.036624849464
 20
516.9307216767846
 30
0.0
  0
POINT
  5
15F8
  8
DEFPOINTS
 62
     0
 10
361.3366248494631
 20
287.9307216767846
 30
0.0
  0
POINT
  5
15F9
  8
DEFPOINTS
 62
     0
 10
431.91491277643
 20
287.9307216767846
 30
0.0
  0
ENDBLK
  5
15F0
  8
0
  0
BLOCK
  8
0
  2
*D14
 70
     1
 10
0.0
 20
0.0
 30
0.0
  3
*D14
  1

  0
LINE
  5
1600
  8
DIMENSIONS
  6
BYBLOCK
 62
     0
 10
362.8366248494631
 20
272.9307216767846
 30
0.0
 11
431.9197776412949
 21
272.9307216767846
 31
0.0
  0
LINE
  5
1601
  8
DIMENSIONS
  6
BYBLOCK
 62
     0
 10
362.8366248494631
 20
66.93067637096995
 30
0.0
 11
431.9197776412949
 21
66.93067637096995
 31
0.0
  0
LINE
  5
1602
  8
DIMENSIONS
  6
BYBLOCK
 62
     0
 10
431.7397776412949
 20
267.9307216767846
 30
0.0
 11
431.7397776412949
 21
71.93067637096995
 31
0.0
  0
SOLID
  5
1603
  8
DIMENSIONS
 62
     0
 10
432.5731109746282
 20
267.9307216767846
 30
0.0
 11
430.9064443079616
 21
267.9307216767846
 31
0.0
 12
431.7397776412949
 22
272.9307216767846
 32
0.0
 13
431.7397776412949
 23
272.9307216767846
 33
0.0
  0
SOLID
  5
1604
  8
DIMENSIONS
 62
     0
 10
430.9064443079616
 20
71.93067637096995
 30
0.0
 11
432.5731109746282
 21
71.93067637096995
 31
0.0
 12
431.7397776412949
 22
66.93067637096995
 32
0.0
 13
431.7397776412949
 23
66.93067637096995
 33
0.0
  0
TEXT
  5
1605
  8
DIMENSIONS
  6
CONTINUOUS
 62
     5
 10
429.344777641295
 20
154.5356990238773
 30
0.0
 40
5.0
  1
206 [8.11]
 50
90.0
  0
POINT
  5
1606
  8
DEFPOINTS
 62
     0
 10
361.3366248494631
 20
272.9307216767846
 30
0.0
  0
POINT
  5
1607
  8
DEFPOINTS
 62
     0
 10
361.3366248494631
 20
66.93067637096995
 30
0.0
  0
POINT
  5
1608
  8
DEFPOINTS
 62
     0
 10
431.7397776412949
 20
66.93067637096995
 30
0.0
  0
ENDBLK
  5
15FF
  8
0
  0
BLOCK
  8
0
  2
*D15
 70
     1
 10
0.0
 20
0.0
 30
0.0
  3
*D15
  1

  0
LINE
  5
160F
  8
DIMENSIONS
  6
BYBLOCK
 62
     0
 10
362.8366248494631
 20
66.93067637096995
 30
0.0
 11
431.9197776412949
 21
66.93067637096995
 31
0.0
  0
LINE
  5
1610
  8
DIMENSIONS
  6
BYBLOCK
 62
     0
 10
384.3366248494642
 20
-124.9692783232146
 30
0.0
 11
431.9197776412949
 21
-124.9692783232146
 31
0.0
  0
LINE
  5
1611
  8
DIMENSIONS
  6
BYBLOCK
 62
     0
 10
431.7397776412949
 20
61.93067637096995
 30
0.0
 11
431.7397776412949
 21
-119.9692783232146
 31
0.0
  0
SOLID
  5
1612
  8
DIMENSIONS
 62
     0
 10
432.5731109746282
 20
61.93067637096995
 30
0.0
 11
430.9064443079616
 21
61.93067637096995
 31
0.0
 12
431.7397776412949
 22
66.93067637096995
 32
0.0
 13
431.7397776412949
 23
66.93067637096995
 33
0.0
  0
SOLID
  5
1613
  8
DIMENSIONS
 62
     0
 10
430.9064443079616
 20
-119.9692783232146
 30
0.0
 11
432.5731109746282
 21
-119.9692783232146
 31
0.0
 12
431.7397776412949
 22
-124.9692783232146
 32
0.0
 13
431.7397776412949
 23
-124.9692783232146
 33
0.0
  0
TEXT
  5
1614
  8
DIMENSIONS
  6
CONTINUOUS
 62
     5
 10
429.3447776412949
 20
-47.60180097612232
 30
0.0
 40
5.0
  1
191.9 [7.56]
 50
90.0
  0
POINT
  5
1615
  8
DEFPOINTS
 62
     0
 10
361.3366248494631
 20
66.93067637096995
 30
0.0
  0
POINT
  5
1616
  8
DEFPOINTS
 62
     0
 10
382.8366248494642
 20
-124.9692783232146
 30
0.0
  0
POINT
  5
1617
  8
DEFPOINTS
 62
     0
 10
431.7397776412949
 20
-124.9692783232146
 30
0.0
  0
ENDBLK
  5
160E
  8
0
  0
BLOCK
  8
0
  2
*D16
 70
     1
 10
0.0
 20
0.0
 30
0.0
  3
*D16
  1

  0
LINE
  5
1621
  8
DIMENSIONS
  6
BYBLOCK
 62
     0
 10
362.8366248494631
 20
287.9307216767846
 30
0.0
 11
450.5614143449403
 21
287.9307216767846
 31
0.0
  0
LINE
  5
1622
  8
DIMENSIONS
  6
BYBLOCK
 62
     0
 10
362.8366248494631
 20
272.9307216767846
 30
0.0
 11
450.5614143449403
 21
272.9307216767846
 31
0.0
  0
LINE
  5
1623
  8
DIMENSIONS
  6
BYBLOCK
 62
     0
 10
450.3814143449403
 20
272.9307216767846
 30
0.0
 11
450.3814143449403
 21
238.7032853200541
 31
0.0
  0
LINE
  5
1624
  8
DIMENSIONS
  6
BYBLOCK
 62
     0
 10
450.3814143449403
 20
282.9307216767846
 30
0.0
 11
450.3814143449403
 21
277.9307216767846
 31
0.0
  0
SOLID
  5
1625
  8
DIMENSIONS
 62
     0
 10
451.2147476782736
 20
282.9307216767846
 30
0.0
 11
449.5480810116069
 21
282.9307216767846
 31
0.0
 12
450.3814143449403
 22
287.9307216767846
 32
0.0
 13
450.3814143449403
 23
287.9307216767846
 33
0.0
  0
SOLID
  5
1626
  8
DIMENSIONS
 62
     0
 10
449.5480810116069
 20
277.9307216767846
 30
0.0
 11
451.2147476782736
 21
277.9307216767846
 31
0.0
 12
450.3814143449403
 22
272.9307216767846
 32
0.0
 13
450.3814143449403
 23
272.9307216767846
 33
0.0
  0
TEXT
  5
1627
  8
DIMENSIONS
  6
CONTINUOUS
 62
     5
 10
447.9864143449403
 20
238.9432853200541
 30
0.0
 40
5.0
  1
15 [0.59]
 50
90.0
  0
POINT
  5
1628
  8
DEFPOINTS
 62
     0
 10
361.3366248494631
 20
287.9307216767846
 30
0.0
  0
POINT
  5
1629
  8
DEFPOINTS
 62
     0
 10
361.3366248494631
 20
272.9307216767846
 30
0.0
  0
POINT
  5
162A
  8
DEFPOINTS
 62
     0
 10
450.3814143449403
 20
272.9307216767846
 30
0.0
  0
ENDBLK
  5
1620
  8
0
  0
BLOCK
  8
0
  2
*D17
 70
     1
 10
0.0
 20
0.0
 30
0.0
  3
*D17
  1

  0
LINE
  5
1632
  8
DIMENSIONS
  6
BYBLOCK
 62
     0
 10
66.33662484946308
 20
526.4307216767846
 30
0.0
 11
-15.66788418960853
 21
526.4307216767846
 31
0.0
  0
LINE
  5
1633
  8
DIMENSIONS
  6
BYBLOCK
 62
     0
 10
66.33662484946308
 20
-124.9692783232146
 30
0.0
 11
-15.66788418960856
 21
-124.9692783232146
 31
0.0
  0
LINE
  5
1634
  8
DIMENSIONS
  6
BYBLOCK
 62
     0
 10
-15.48788418960853
 20
521.4307216767846
 30
0.0
 11
-15.48788418960856
 21
-119.9692783232146
 31
0.0
  0
SOLID
  5
1635
  8
DIMENSIONS
 62
     0
 10
-14.65455085627519
 20
521.4307216767846
 30
0.0
 11
-16.32121752294186
 21
521.4307216767846
 31
0.0
 12
-15.48788418960853
 22
526.4307216767846
 32
0.0
 13
-15.48788418960853
 23
526.4307216767846
 33
0.0
  0
SOLID
  5
1636
  8
DIMENSIONS
 62
     0
 10
-16.3212175229419
 20
-119.9692783232146
 30
0.0
 11
-14.65455085627523
 21
-119.9692783232146
 31
0.0
 12
-15.48788418960856
 22
-124.9692783232146
 32
0.0
 13
-15.48788418960856
 23
-124.9692783232146
 33
0.0
  0
TEXT
  5
1637
  8
DIMENSIONS
  6
CONTINUOUS
 62
     5
 10
-17.88288418960849
 20
180.458221676785
 30
0.0
 40
5.0
  1
651.4 [25.65]
 50
90.0
  0
POINT
  5
1638
  8
DEFPOINTS
 62
     0
 10
67.83662484946308
 20
526.4307216767846
 30
0.0
  0
POINT
  5
1639
  8
DEFPOINTS
 62
     0
 10
67.83662484946308
 20
-124.9692783232146
 30
0.0
  0
POINT
  5
163A
  8
DEFPOINTS
 62
     0
 10
-15.48788418960856
 20
-124.9692783232146
 30
0.0
  0
ENDBLK
  5
1631
  8
0
  0
BLOCK
  8
0
  2
*D18
 70
     1
 10
0.0
 20
0.0
 30
0.0
  3
*D18
  1

  0
LINE
  5
1746
  8
DIMENSIONS
  6
BYBLOCK
 62
     0
 10
360.0366562313898
 20
-102.7461808827981
 30
0.0
 11
319.6318054062971
 21
-102.6363865204424
 31
0.0
  0
TEXT
  5
1747
  8
DIMENSIONS
  6
CONTINUOUS
 62
     5
 10
320.3585272239266
 20
-100.1637037083934
 30
0.0
 40
5.0
  1
Ø7 [Ø0.28]
 50
359.8443073550519
  0
SOLID
  5
1748
  8
DIMENSIONS
 62
     0
 10
360.034391776447
 20
-103.5795111394721
 30
0.0
 11
360.0389206863326
 21
-101.9128506261242
 31
0.0
 12
365.0366377714334
 22
-102.7597676124548
 32
0.0
 13
365.0366377714334
 23
-102.7597676124548
 33
0.0
  0
LINE
  5
1749
  8
DIMENSIONS
  6
BYBLOCK
 62
     0
 10
366.0366248494639
 20
-102.7692783232145
 30
0.0
 11
371.0366248494639
 21
-102.7692783232145
 31
0.0
  0
LINE
  5
174A
  8
DIMENSIONS
  6
BYBLOCK
 62
     0
 10
368.5366248494639
 20
-105.2692783232145
 30
0.0
 11
368.5366248494639
 21
-100.2692783232145
 31
0.0
  0
POINT
  5
174B
  8
DEFPOINTS
 62
     0
 10
365.0366377714334
 20
-102.7597676124548
 30
0.0
  0
POINT
  5
174C
  8
DEFPOINTS
 62
     0
 10
372.0366119274944
 20
-102.7787890339742
 30
0.0
  0
ENDBLK
  5
1745
  8
0
  0
ENDSEC
  0
SECTION
  2
ENTITIES
  0
TEXT
  5
C0B
  8
DIMENSIONS
  6
BYBLOCK
 10
68.49418425060637
 20
-145.8919502168432
 30
0.0
 40
7.999999999999999
  1
Note:
 50
0.2102616414016837
  0
TEXT
  5
C0C
  8
DIMENSIONS
  6
BYBLOCK
 10
68.53822124696156
 20
-157.8918694141941
 30
0.0
 40
7.999999999999999
  1
Primary dimensions in millimeters.
 50
0.2102616414016837
  0
TEXT
  5
C0D
  8
DIMENSIONS
  6
BYBLOCK
 10
68.58225824331674
 20
-169.8917886115451
 30
0.0
 40
7.999999999999999
  1
Secondary dimensions in inches.
 50
0.2102616414016837
  0
LINE
  5
1513
  8
KG-4305_10
 10
382.8366248494642
 20
526.4307216767846
 30
0.0
 11
382.8366248494642
 21
-124.9692783232146
 31
0.0
  0
LINE
  5
1514
  8
0
 10
382.8366248494642
 20
-124.9692783232146
 30
0.0
 11
67.83662484946308
 21
-124.9692783232146
 31
0.0
  0
LINE
  5
1515
  8
KG-4305_10
 10
67.83662484946308
 20
-124.9692783232146
 30
0.0
 11
67.83662484946308
 21
526.4307216767846
 31
0.0
  0
LINE
  5
1516
  8
0
 10
67.83662484946308
 20
526.4307216767846
 30
0.0
 11
382.8366248494642
 21
526.4307216767846
 31
0.0
  0
DIMENSION
  5
1532
  8
DIMENSIONS
  6
BYBLOCK
  2
*D2
 10
368.5366248494638
 20
551.1843077356747
 30
0.0
 11
225.3366248494631
 21
555.3868077356747
 31
0.0
 70
    32
  3
DUAL-DIM
 13
82.13662484946235
 23
502.4807216767838
 33
0.0
 14
368.5366248494638
 24
502.4807216767838
 34
0.0
  0
DIMENSION
  5
1541
  8
DIMENSIONS
  6
BYBLOCK
  2
*D3
 10
382.8366248494642
 20
576.4972404094711
 30
0.0
 11
225.3366248494636
 21
580.6997404094711
 31
0.0
 70
    32
  3
DUAL-DIM
 13
67.83662484946308
 23
526.4307216767846
 33
0.0
 14
382.8366248494642
 24
526.4307216767846
 34
0.0
  0
DIMENSION
  5
155F
  8
DIMENSIONS
  6
BYBLOCK
  2
*D5
 10
30.10138118691368
 20
526.4307216767846
 30
0.0
 11
30.10138118691368
 21
477.680361672947
 31
0.0
 70
   160
  3
DUAL-DIM
 13
82.13662484946235
 23
502.4807216767838
 33
0.0
 14
67.83662484946308
 24
526.4307216767846
 34
0.0
 50
90.0
1001
ACAD
1000
DSTYLE
1002
{
1070
   287
1070
     2
1070
   289
1070
     2
1070
   279
1070
     0
1002
}
  0
DIMENSION
  5
1574
  8
DIMENSIONS
  6
BYBLOCK
  2
*D6
 10
9.970193697054839
 20
-102.5192783232161
 30
0.0
 11
5.76769369705487
 21
199.9807216767838
 31
0.0
 70
    32
  3
DUAL-DIM
 13
82.13662484946235
 23
502.4807216767838
 33
0.0
 14
82.13662484946235
 24
-102.5192783232161
 34
0.0
 50
90.0
  0
DIMENSION
  5
1590
  8
DIMENSIONS
  6
BYBLOCK
  2
*D7
 10
30.10138118691368
 20
-124.9692783232146
 30
0.0
 11
30.10138118691368
 21
-78.41927832321615
 31
0.0
 70
   160
  3
DUAL-DIM
 13
82.13662484946235
 23
-102.5192783232161
 33
0.0
 14
67.83662484946308
 24
-124.9692783232146
 34
0.0
 50
90.0
1001
ACAD
1000
DSTYLE
1002
{
1070
   287
1070
     2
1070
   289
1070
     2
1070
   279
1070
     0
1002
}
  0
DIMENSION
  5
159F
  8
DIMENSIONS
  6
BYBLOCK
  2
*D18
 10
372.0366119274944
 20
-102.7787890339742
 30
0.0
 11
337.3342400488216
 21
-102.6844903367919
 31
0.0
 70
   163
  1
<>
  3
DUAL-DIM
 15
365.0366377714334
 25
-102.7597676124548
 35
0.0
 40
0.0
1001
ACAD_DSTYLE_DIMRADIAL_EXTE
1070
   387
1070
     1
1070
   388
1040
0.0
1070
   390
1040
6.283185307179586
1001
ACAD
1000
DSTYLE
1002
{
1070
   287
1070
     3
1070
   172
1070
     0
1070
   174
1070
     0
1070
   175
1070
     0
1070
    40
1040
1.0
1070
   140
1040
5.0
1070
   147
1040
1.0
1070
    42
1040
1.5
1070
    44
1040
0.18
1070
   141
1040
2.5
1070
    41
1040
5.0
1070
   289
1070
     3
1070
   279
1070
     0
1002
}
  0
DIMENSION
  5
15AD
  8
DIMENSIONS
  6
BYBLOCK
  2
*D9
 10
361.3366248494631
 20
50.8992726728677
 30
0.0
 11
225.3366248494631
 21
55.1017726728677
 31
0.0
 70
    32
  3
DUAL-DIM
 13
89.33662484946308
 23
66.93067637096995
 33
0.0
 14
361.3366248494631
 24
66.93067637096995
 34
0.0
  0
DIMENSION
  5
15BC
  8
DIMENSIONS
  6
BYBLOCK
  2
*D10
 10
67.83662484946308
 20
50.91053393412895
 30
0.0
 11
45.67662484946308
 21
50.91053393412895
 31
0.0
 70
   160
  3
DUAL-DIM
 13
89.33662484946308
 23
50.8992726728677
 33
0.0
 14
67.83662484946308
 24
50.89927267286771
 34
0.0
  0
DIMENSION
  5
15CB
  8
DIMENSIONS
  6
BYBLOCK
  2
*D11
 10
382.8366248494642
 20
50.8992726728677
 30
0.0
 11
404.9966248494642
 21
55.1017726728677
 31
0.0
 70
    32
  3
DUAL-DIM
 13
361.3366248494631
 23
50.8992726728677
 33
0.0
 14
382.8366248494642
 24
50.8992726728676
 34
0.0
  0
DIMENSION
  5
15DA
  8
DIMENSIONS
  6
BYBLOCK
  2
*D12
 10
450.2014143449402
 20
526.4307216767846
 30
0.0
 11
450.2014143449402
 21
491.7532216767846
 31
0.0
 70
   160
  3
DUAL-DIM
 13
361.3366248494631
 23
516.9307216767846
 33
0.0
 14
382.8366248494642
 24
526.4307216767846
 34
0.0
 50
90.0
1001
ACAD
1000
DSTYLE
1002
{
1070
   287
1070
     2
1070
   289
1070
     2
1070
   279
1070
     0
1002
}
  0
DIMENSION
  5
15EB
  8
DIMENSIONS
  6
BYBLOCK
  2
*D13
 10
431.91491277643
 20
287.9307216767846
 30
0.0
 11
427.71241277643
 21
402.4307216767846
 31
0.0
 70
    32
  3
DUAL-DIM
 13
361.036624849464
 23
516.9307216767846
 33
0.0
 14
361.3366248494631
 24
287.9307216767846
 34
0.0
 50
90.0
  0
DIMENSION
  5
15FA
  8
DIMENSIONS
  6
BYBLOCK
  2
*D14
 10
431.7397776412949
 20
66.93067637096995
 30
0.0
 11
427.5372776412949
 21
169.9306990238773
 31
0.0
 70
    32
  3
DUAL-DIM
 13
361.3366248494631
 23
272.9307216767846
 33
0.0
 14
361.3366248494631
 24
66.93067637096995
 34
0.0
 50
90.0
  0
DIMENSION
  5
1609
  8
DIMENSIONS
  6
BYBLOCK
  2
*D15
 10
431.7397776412949
 20
-124.9692783232146
 30
0.0
 11
427.5372776412949
 21
-29.01930097612232
 31
0.0
 70
    32
  3
DUAL-DIM
 13
361.3366248494631
 23
66.93067637096995
 33
0.0
 14
382.8366248494642
 24
-124.9692783232146
 34
0.0
 50
90.0
  0
DIMENSION
  5
161B
  8
DIMENSIONS
  6
BYBLOCK
  2
*D16
 10
450.3814143449403
 20
272.9307216767846
 30
0.0
 11
450.3814143449403
 21
252.6757853200541
 31
0.0
 70
   160
  3
DUAL-DIM
 13
361.3366248494631
 23
287.9307216767846
 33
0.0
 14
361.3366248494631
 24
272.9307216767846
 34
0.0
 50
90.0
1001
ACAD
1000
DSTYLE
1002
{
1070
   287
1070
     2
1070
   289
1070
     2
1070
   279
1070
     0
1002
}
  0
DIMENSION
  5
162C
  8
DIMENSIONS
  6
BYBLOCK
  2
*D17
 10
-15.48788418960856
 20
-124.9692783232146
 30
0.0
 11
-19.69038418960853
 21
200.730721676785
 31
0.0
 70
    32
  3
DUAL-DIM
 13
67.83662484946308
 23
526.4307216767846
 33
0.0
 14
67.83662484946308
 24
-124.9692783232146
 34
0.0
 50
90.0
  0
POLYLINE
  5
163B
  8
0
  6
BYBLOCK
 66
     1
 10
0.0
 20
0.0
 30
0.0
 70
     1
  0
VERTEX
  5
18AD
  8
0
  6
BYBLOCK
 10
-47.35317362205353
 20
-182.8589004634124
 30
0.0
  0
VERTEX
  5
18AE
  8
0
  6
BYBLOCK
 10
-47.35317362205353
 20
627.083728109548
 30
0.0
  0
VERTEX
  5
18AF
  8
0
  6
BYBLOCK
 10
478.9633359199428
 20
627.083728109548
 30
0.0
  0
VERTEX
  5
18B0
  8
0
  6
BYBLOCK
 10
478.9633359199428
 20
-182.8589004634124
 30
0.0
  0
SEQEND
  5
18BF
  8
0
  6
BYBLOCK
  0
CIRCLE
  5
1733
  8
KG-4305_10_HOLES
 10
368.5366248494602
 20
-102.5192783232161
 30
0.0
 40
3.5
  0
CIRCLE
  5
1734
  8
KG-4305_10_HOLES
 10
368.5366248494638
 20
502.4807216767838
 30
0.0
 40
3.5
  0
CIRCLE
  5
1735
  8
KG-4305_10_HOLES
 10
82.13662484946235
 20
-102.5192783232161
 30
0.0
 40
3.5
  0
CIRCLE
  5
1736
  8
KG-4305_10_HOLES
 10
82.13662484946235
 20
502.4807216767838
 30
0.0
 40
3.5
  0
POLYLINE
  5
1737
  8
KG-4305_10
 66
     1
 10
0.0
 20
0.0
 30
0.0
 70
     1
  0
VERTEX
  5
18B1
  8
KG-4305_10
 10
361.3366248494631
 20
516.9307216767846
 30
0.0
  0
VERTEX
  5
18B2
  8
KG-4305_10
 10
89.33662484946308
 20
516.9307216767846
 30
0.0
  0
VERTEX
  5
18B3
  8
KG-4305_10
 10
89.33662484946308
 20
287.9307216767846
 30
0.0
  0
VERTEX
  5
18B4
  8
KG-4305_10
 10
361.3366248494631
 20
287.9307216767846
 30
0.0
  0
SEQEND
  5
18C0
  8
KG-4305_10
  0
POLYLINE
  5
1738
  8
KG-4305_10
 66
     1
 10
0.0
 20
0.0
 30
0.0
  0
VERTEX
  5
18B5
  8
KG-4305_10
 10
361.3366248494631
 20
66.93067637096995
 30
0.0
  0
VERTEX
  5
18B6
  8
KG-4305_10
 10
89.33662484946308
 20
66.93067637096995
 30
0.0
  0
VERTEX
  5
18B7
  8
KG-4305_10
 10
89.33662484946308
 20
272.9307216767846
 30
0.0
  0
VERTEX
  5
18B8
  8
KG-4305_10
 10
361.3366248494631
 20
272.9307216767846
 30
0.0
  0
VERTEX
  5
18B9
  8
KG-4305_10
 10
361.3366248494631
 20
66.93077637096924
 30
0.0
  0
SEQEND
  5
18C1
  8
KG-4305_10
  0
POLYLINE
  5
1739
  8
KG-4305_10
 66
     1
 10
0.0
 20
0.0
 30
0.0
  0
VERTEX
  5
18BA
  8
KG-4305_10
 10
382.8366248494631
 20
-124.9692783232169
 30
0.0
  0
VERTEX
  5
18BB
  8
KG-4305_10
 10
67.83662484946308
 20
-124.9692783232151
 30
0.0
  0
VERTEX
  5
18BC
  8
KG-4305_10
 10
67.83662484946308
 20
526.4307216767846
 30
0.0
  0
VERTEX
  5
18BD
  8
KG-4305_10
 10
382.8366248494631
 20
526.4307216767846
 30
0.0
  0
VERTEX
  5
18BE
  8
KG-4305_10
 10
382.8366248494631
 20
-124.9692783232169
 30
0.0
  0
SEQEND
  5
18C2
  8
KG-4305_10
  0
ENDSEC
  0
EOF
